  0
SECTION
  2
HEADER
  9
$ACADVER
  1
AC1032
  9
$ACADMAINTVER
 90
        4
  9
$DWGCODEPAGE
  3
ANSI_932
  9
$LASTSAVEDBY
  1
9128
  9
$REQUIREDVERSIONS
160
                 0
  9
$INSBASE
 10
0.0
 20
0.0
 30
0.0
  9
$EXTMIN
 10
434.4250200184739
 20
7.087207260636177
 30
0.0
  9
$EXTMAX
 10
854.4250200184739
 20
304.0872072606362
 30
0.0
  9
$LIMMIN
 10
14.684375
 20
10.715625
  9
$LIMMAX
 10
404.680208
 20
287.734375
  9
$ORTHOMODE
 70
     0
  9
$REGENMODE
 70
     1
  9
$FILLMODE
 70
     1
  9
$QTEXTMODE
 70
     0
  9
$MIRRTEXT
 70
     1
  9
$LTSCALE
 40
1.0
  9
$ATTMODE
 70
     1
  9
$TEXTSIZE
 40
2.5
  9
$TRACEWID
 40
0.05
  9
$TEXTSTYLE
  7
STANDARD
  9
$CLAYER
  8
0
  9
$CELTYPE
  6
CONTINUOUS
  9
$CECOLOR
 62
     4
  9
$CELTSCALE
 40
1.0
  9
$DISPSILH
 70
     0
  9
$DIMSCALE
 40
1.0
  9
$DIMASZ
 40
2.5
  9
$DIMEXO
 40
0.625
  9
$DIMDLI
 40
3.75
  9
$DIMRND
 40
0.0
  9
$DIMDLE
 40
0.0
  9
$DIMEXE
 40
1.25
  9
$DIMTP
 40
0.0
  9
$DIMTM
 40
0.0
  9
$DIMTXT
 40
2.5
  9
$DIMCEN
 40
2.5
  9
$DIMTSZ
 40
0.0
  9
$DIMTOL
 70
     0
  9
$DIMLIM
 70
     0
  9
$DIMTIH
 70
     0
  9
$DIMTOH
 70
     0
  9
$DIMSE1
 70
     0
  9
$DIMSE2
 70
     0
  9
$DIMTAD
 70
     1
  9
$DIMZIN
 70
     8
  9
$DIMBLK
  1
OPEN
  9
$DIMASO
 70
     1
  9
$DIMSHO
 70
     1
  9
$DIMPOST
  1

  9
$DIMAPOST
  1

  9
$DIMALT
 70
     0
  9
$DIMALTD
 70
     3
  9
$DIMALTF
 40
0.0393700787
  9
$DIMLFAC
 40
1.0
  9
$DIMTOFL
 70
     1
  9
$DIMTVP
 40
0.0
  9
$DIMTIX
 70
     0
  9
$DIMSOXD
 70
     0
  9
$DIMSAH
 70
     0
  9
$DIMBLK1
  1

  9
$DIMBLK2
  1

  9
$DIMSTYLE
  2
ISO-2
  9
$DIMCLRD
 70
     0
  9
$DIMCLRE
 70
     0
  9
$DIMCLRT
 70
     0
  9
$DIMTFAC
 40
1.0
  9
$DIMGAP
 40
0.625
  9
$DIMJUST
 70
     0
  9
$DIMSD1
 70
     0
  9
$DIMSD2
 70
     0
  9
$DIMTOLJ
 70
     0
  9
$DIMTZIN
 70
     8
  9
$DIMALTZ
 70
     0
  9
$DIMALTTZ
 70
     0
  9
$DIMUPT
 70
     0
  9
$DIMDEC
 70
     1
  9
$DIMTDEC
 70
     2
  9
$DIMALTU
 70
     2
  9
$DIMALTTD
 70
     3
  9
$DIMTXSTY
  7
STANDARD
  9
$DIMAUNIT
 70
     0
  9
$DIMADEC
 70
     0
  9
$DIMALTRND
 40
0.0
  9
$DIMAZIN
 70
     0
  9
$DIMDSEP
 70
    46
  9
$DIMATFIT
 70
     3
  9
$DIMFRAC
 70
     0
  9
$DIMLDRBLK
  1
OPEN
  9
$DIMLUNIT
 70
     2
  9
$DIMLWD
 70
     9
  9
$DIMLWE
 70
    -2
  9
$DIMTMOVE
 70
     2
  9
$DIMFXL
 40
1.0
  9
$DIMFXLON
 70
     0
  9
$DIMJOGANG
 40
0.7853981633974483
  9
$DIMTFILL
 70
     0
  9
$DIMTFILLCLR
 70
     0
  9
$DIMARCSYM
 70
     0
  9
$DIMLTYPE
  6

  9
$DIMLTEX1
  6

  9
$DIMLTEX2
  6

  9
$DIMTXTDIRECTION
 70
     0
  9
$LUNITS
 70
     2
  9
$LUPREC
 70
     4
  9
$SKETCHINC
 40
0.1
  9
$FILLETRAD
 40
0.0
  9
$AUNITS
 70
     0
  9
$AUPREC
 70
     0
  9
$MENU
  1
acad
  9
$ELEVATION
 40
0.0
  9
$PELEVATION
 40
0.0
  9
$THICKNESS
 40
0.0
  9
$LIMCHECK
 70
     0
  9
$CHAMFERA
 40
0.0
  9
$CHAMFERB
 40
0.0
  9
$CHAMFERC
 40
0.0
  9
$CHAMFERD
 40
0.0
  9
$SKPOLY
 70
     0
  9
$TDCREATE
 40
2447893.375
  9
$TDUCREATE
 40
0.0
  9
$TDUPDATE
 40
2458914.566958958
  9
$TDUUPDATE
 40
2458914.191958958
  9
$TDINDWG
 40
0.2244179398
  9
$TDUSRTIMER
 40
0.0000815394
  9
$USRTIMER
 70
     1
  9
$ANGBASE
 50
0.0
  9
$ANGDIR
 70
     0
  9
$PDMODE
 70
     0
  9
$PDSIZE
 40
0.0
  9
$PLINEWID
 40
0.0
  9
$SPLFRAME
 70
     0
  9
$SPLINETYPE
 70
     6
  9
$SPLINESEGS
 70
     8
  9
$HANDSEED
  5
2A31
  9
$SURFTAB1
 70
     6
  9
$SURFTAB2
 70
     6
  9
$SURFTYPE
 70
     6
  9
$SURFU
 70
     6
  9
$SURFV
 70
     6
  9
$UCSBASE
  2

  9
$UCSNAME
  2

  9
$UCSORG
 10
0.0
 20
0.0
 30
0.0
  9
$UCSXDIR
 10
1.0
 20
0.0
 30
0.0
  9
$UCSYDIR
 10
0.0
 20
1.0
 30
0.0
  9
$UCSORTHOREF
  2

  9
$UCSORTHOVIEW
 70
     0
  9
$UCSORGTOP
 10
0.0
 20
0.0
 30
0.0
  9
$UCSORGBOTTOM
 10
0.0
 20
0.0
 30
0.0
  9
$UCSORGLEFT
 10
0.0
 20
0.0
 30
0.0
  9
$UCSORGRIGHT
 10
0.0
 20
0.0
 30
0.0
  9
$UCSORGFRONT
 10
0.0
 20
0.0
 30
0.0
  9
$UCSORGBACK
 10
0.0
 20
0.0
 30
0.0
  9
$PUCSBASE
  2

  9
$PUCSNAME
  2

  9
$PUCSORG
 10
0.0
 20
0.0
 30
0.0
  9
$PUCSXDIR
 10
1.0
 20
0.0
 30
0.0
  9
$PUCSYDIR
 10
0.0
 20
1.0
 30
0.0
  9
$PUCSORTHOREF
  2

  9
$PUCSORTHOVIEW
 70
     0
  9
$PUCSORGTOP
 10
0.0
 20
0.0
 30
0.0
  9
$PUCSORGBOTTOM
 10
0.0
 20
0.0
 30
0.0
  9
$PUCSORGLEFT
 10
0.0
 20
0.0
 30
0.0
  9
$PUCSORGRIGHT
 10
0.0
 20
0.0
 30
0.0
  9
$PUCSORGFRONT
 10
0.0
 20
0.0
 30
0.0
  9
$PUCSORGBACK
 10
0.0
 20
0.0
 30
0.0
  9
$USERI1
 70
     0
  9
$USERI2
 70
     0
  9
$USERI3
 70
     0
  9
$USERI4
 70
     0
  9
$USERI5
 70
     0
  9
$USERR1
 40
0.0
  9
$USERR2
 40
0.0
  9
$USERR3
 40
0.0
  9
$USERR4
 40
0.0
  9
$USERR5
 40
0.0
  9
$WORLDVIEW
 70
     1
  9
$SHADEDGE
 70
     3
  9
$SHADEDIF
 70
    70
  9
$TILEMODE
 70
     1
  9
$MAXACTVP
 70
    16
  9
$PINSBASE
 10
0.0
 20
0.0
 30
0.0
  9
$PLIMCHECK
 70
     0
  9
$PEXTMIN
 10
40.5
 20
25.69999999999999
 30
0.0
  9
$PEXTMAX
 10
364.5
 20
231.3
 30
0.0
  9
$PLIMMIN
 10
34.5
 20
9.699999999999989
  9
$PLIMMAX
 10
370.5
 20
247.3
  9
$UNITMODE
 70
     0
  9
$VISRETAIN
 70
     0
  9
$PLINEGEN
 70
     1
  9
$PSLTSCALE
 70
     0
  9
$TREEDEPTH
 70
  3020
  9
$CMLSTYLE
  2
STANDARD
  9
$CMLJUST
 70
     0
  9
$CMLSCALE
 40
1.0
  9
$PROXYGRAPHICS
 70
     0
  9
$MEASUREMENT
 70
     1
  9
$CELWEIGHT
370
    -1
  9
$ENDCAPS
280
     0
  9
$JOINSTYLE
280
     0
  9
$LWDISPLAY
290
     0
  9
$INSUNITS
 70
     0
  9
$HYPERLINKBASE
  1

  9
$STYLESHEET
  1

  9
$XEDIT
290
     1
  9
$CEPSNTYPE
380
     0
  9
$PSTYLEMODE
290
     1
  9
$FINGERPRINTGUID
  2
{4F654013-6306-466B-A47A-ED658B346563}
  9
$VERSIONGUID
  2
{FAEB1C32-E019-11D5-929B-00C0DF256EC4}
  9
$EXTNAMES
290
     1
  9
$PSVPSCALE
 40
0.0
  9
$OLESTARTUP
290
     0
  9
$SORTENTS
280
   127
  9
$INDEXCTL
280
     0
  9
$HIDETEXT
280
     1
  9
$XCLIPFRAME
280
     2
  9
$HALOGAP
280
     0
  9
$OBSCOLOR
 70
   257
  9
$OBSLTYPE
280
     0
  9
$INTERSECTIONDISPLAY
280
     0
  9
$INTERSECTIONCOLOR
 70
   257
  9
$DIMASSOC
280
     2
  9
$PROJECTNAME
  1

  9
$CAMERADISPLAY
290
     0
  9
$LENSLENGTH
 40
50.0
  9
$CAMERAHEIGHT
 40
0.0
  9
$STEPSPERSEC
 40
2.0
  9
$STEPSIZE
 40
6.0
  9
$3DDWFPREC
 40
2.0
  9
$PSOLWIDTH
 40
0.25
  9
$PSOLHEIGHT
 40
4.0
  9
$LOFTANG1
 40
1.570796326794897
  9
$LOFTANG2
 40
1.570796326794897
  9
$LOFTMAG1
 40
0.0
  9
$LOFTMAG2
 40
0.0
  9
$LOFTPARAM
 70
     7
  9
$LOFTNORMALS
280
     1
  9
$LATITUDE
 40
37.795
  9
$LONGITUDE
 40
-122.394
  9
$NORTHDIRECTION
 40
0.0
  9
$TIMEZONE
 70
 -8000
  9
$LIGHTGLYPHDISPLAY
280
     1
  9
$TILEMODELIGHTSYNCH
280
     1
  9
$SOLIDHIST
280
     0
  9
$SHOWHIST
280
     1
  9
$DWFFRAME
280
     2
  9
$DGNFRAME
280
     2
  9
$REALWORLDSCALE
290
     1
  9
$INTERFERECOLOR
 62
   256
  9
$CSHADOW
280
     0
  9
$SHADOWPLANELOCATION
 40
0.0
  0
ENDSEC
  0
SECTION
  2
CLASSES
  0
CLASS
  1
LWPOLYLINE
  2
AcDbPolyline
  3
ObjectDBX Classes
 90
        0
 91
        1
280
     0
281
     1
  0
CLASS
  1
IMAGE
  2
AcDbRasterImage
  3
ISM
 90
      127
 91
        4
280
     0
281
     1
  0
CLASS
  1
OLE2FRAME
  2
AcDbOle2Frame
  3
ObjectDBX Classes
 90
        0
 91
        1
280
     0
281
     1
  0
CLASS
  1
HATCH
  2
AcDbHatch
  3
ObjectDBX Classes
 90
        0
 91
        1
280
     0
281
     1
  0
CLASS
  1
DICTIONARYVAR
  2
AcDbDictionaryVar
  3
ObjectDBX Classes
 90
        0
 91
        3
280
     0
281
     0
  0
CLASS
  1
RASTERVARIABLES
  2
AcDbRasterVariables
  3
ISM
 90
        0
 91
        3
280
     0
281
     0
  0
CLASS
  1
IMAGEDEF
  2
AcDbRasterImageDef
  3
ISM
 90
        0
 91
        3
280
     0
281
     0
  0
CLASS
  1
IMAGEDEF_REACTOR
  2
AcDbRasterImageDefReactor
  3
ISM
 90
        1
 91
        3
280
     0
281
     0
  0
CLASS
  1
IDBUFFER
  2
AcDbIdBuffer
  3
ObjectDBX Classes
 90
        0
 91
        3
280
     0
281
     0
  0
CLASS
  1
SPATIAL_FILTER
  2
AcDbSpatialFilter
  3
ObjectDBX Classes
 90
        0
 91
        3
280
     0
281
     0
  0
CLASS
  1
XRECORD
  2
AcDbXrecord
  3
ObjectDBX Classes
 90
        0
 91
        1
280
     0
281
     0
  0
CLASS
  1
SORTENTSTABLE
  2
AcDbSortentsTable
  3
ObjectDBX Classes
 90
        0
 91
        3
280
     0
281
     0
  0
CLASS
  1
LAYER_INDEX
  2
AcDbLayerIndex
  3
ObjectDBX Classes
 90
        0
 91
        3
280
     0
281
     0
  0
CLASS
  1
SPATIAL_INDEX
  2
AcDbSpatialIndex
  3
AutoCAD 2000
 90
        0
 91
        3
280
     0
281
     0
  0
CLASS
  1
OBJECT_PTR
  2
CAseDLPNTableRecord
  3
ASE-LPNTableRecord
 90
        1
 91
        3
280
     0
281
     0
  0
CLASS
  1
LAYOUT
  2
AcDbLayout
  3
ObjectDBX Classes
 90
        0
 91
        1
280
     0
281
     0
  0
CLASS
  1
PLOTSETTINGS
  2
AcDbPlotSettings
  3
ObjectDBX Classes
 90
        0
 91
        3
280
     0
281
     0
  0
CLASS
  1
ACDBDICTIONARYWDFLT
  2
AcDbDictionaryWithDefault
  3
ObjectDBX Classes
 90
        0
 91
        3
280
     0
281
     0
  0
CLASS
  1
ACDBPLACEHOLDER
  2
AcDbPlaceHolder
  3
ObjectDBX Classes
 90
        0
 91
        1
280
     0
281
     0
  0
CLASS
  1
VBA_PROJECT
  2
AcDbVbaProject
  3
ObjectDBX Classes
 90
        0
 91
        1
280
     0
281
     0
  0
CLASS
  1
WIPEOUT
  2
AcDbWipeout
  3
WipeOut|AutoCAD Express Tool|expresstools@autodesk.com
 90
      127
 91
        3
280
     0
281
     1
  0
CLASS
  1
WIPEOUTVARIABLES
  2
AcDbWipeoutVariables
  3
WipeOut|AutoCAD Express Tool|expresstools@autodesk.com
 90
        0
 91
        3
280
     0
281
     0
  0
CLASS
  1
RTEXT
  2
RText
  3
RText|AutoCAD Express Tool|expresstools@autodesk.com
 90
        0
 91
        3
280
     0
281
     1
  0
CLASS
  1
ARCALIGNEDTEXT
  2
AcDbArcAlignedText
  3
ATEXT|AutoCAD Express Tool|expresstools@autodesk.com
 90
        0
 91
        3
280
     0
281
     1
  0
CLASS
  1
SCALE
  2
AcDbScale
  3
ObjectDBX Classes
 90
     1153
 91
        3
280
     0
281
     0
  0
CLASS
  1
VISUALSTYLE
  2
AcDbVisualStyle
  3
ObjectDBX Classes
 90
     4095
 91
        3
280
     0
281
     0
  0
CLASS
  1
MATERIAL
  2
AcDbMaterial
  3
ObjectDBX Classes
 90
     1153
 91
        3
280
     0
281
     0
  0
CLASS
  1
TABLESTYLE
  2
AcDbTableStyle
  3
ObjectDBX Classes
 90
     4095
 91
        3
280
     0
281
     0
  0
CLASS
  1
MLEADERSTYLE
  2
AcDbMLeaderStyle
  3
ACDB_MLEADERSTYLE_CLASS
 90
     4095
 91
        3
280
     0
281
     0
  0
CLASS
  1
SUN
  2
AcDbSun
  3
SCENEOE
 90
     1153
 91
        3
280
     0
281
     0
  0
CLASS
  1
CELLSTYLEMAP
  2
AcDbCellStyleMap
  3
ObjectDBX Classes
 90
     1152
 91
        3
280
     0
281
     0
  0
CLASS
  1
DIMASSOC
  2
AcDbDimAssoc
  3
"AcDbDimAssoc|Product Desc:     AcDim ARX App For Dimension|Company:          Autodesk, Inc.|WEB Address:      www.autodesk.com"
 90
        0
 91
        3
280
     0
281
     0
  0
ENDSEC
  0
SECTION
  2
TABLES
  0
TABLE
  2
VPORT
  5
7
330
0
100
AcDbSymbolTable
 70
     1
  0
VPORT
  5
15
330
7
100
AcDbSymbolTableRecord
100
AcDbViewportTableRecord
  2
*ACTIVE
 70
     0
 10
0.0
 20
0.0
 11
1.0
 21
1.0
 12
678.7516906974734
 22
168.8093670995237
 13
0.0
 23
0.0
 14
1.0
 24
1.0
 15
0.0
 25
0.0
 16
0.0
 26
0.0
 36
1.0
 17
0.0
 27
0.0
 37
0.0
 40
413.1314465274112
 41
2.410876132930514
 42
50.0
 43
0.0
 44
0.0
 50
0.0
 51
0.0
 71
    16
 72
   100
 73
     1
 74
     1
 75
     0
 76
     0
 77
     0
 78
     0
281
     0
 65
     1
110
0.0
120
0.0
130
0.0
111
1.0
121
0.0
131
0.0
112
0.0
122
1.0
132
0.0
 79
     0
146
0.0
348
D27
 60
     3
 61
     5
292
     1
282
     1
141
0.0
142
0.0
 63
   256
361
D6B
  0
ENDTAB
  0
TABLE
  2
LTYPE
  5
4
330
0
100
AcDbSymbolTable
 70
     2
  0
LTYPE
  5
11
330
4
100
AcDbSymbolTableRecord
100
AcDbLinetypeTableRecord
  2
BYBLOCK
 70
     0
  3

 72
    65
 73
     0
 40
0.0
  0
LTYPE
  5
12
330
4
100
AcDbSymbolTableRecord
100
AcDbLinetypeTableRecord
  2
BYLAYER
 70
     0
  3

 72
    65
 73
     0
 40
0.0
  0
LTYPE
  5
13
330
4
100
AcDbSymbolTableRecord
100
AcDbLinetypeTableRecord
  2
CONTINUOUS
 70
     0
  3
Solid line
 72
    65
 73
     0
 40
0.0
  0
LTYPE
  5
624
330
4
100
AcDbSymbolTableRecord
100
AcDbLinetypeTableRecord
  2
CENTER
 70
     0
  3
 Center _____  _  _____  _  _____  _  _____  _ 
 72
    65
 73
     4
 40
50.8
 49
31.75
 74
     0
 49
-6.35
 74
     0
 49
6.35
 74
     0
 49
-6.35
 74
     0
  0
ENDTAB
  0
TABLE
  2
LAYER
  5
2
102
{ACAD_XDICTIONARY
360
29A
102
}
330
0
100
AcDbSymbolTable
 70
    14
  0
LAYER
  5
14
330
2
100
AcDbSymbolTableRecord
100
AcDbLayerTableRecord
  2
0
 70
     0
 62
     7
  6
CONTINUOUS
370
    -3
390
D3D
347
D66
348
0
  0
LAYER
  5
28
330
2
100
AcDbSymbolTableRecord
100
AcDbLayerTableRecord
  2
レイヤー_1
 70
     0
 62
   160
  6
CONTINUOUS
370
    -3
390
D3D
347
D66
348
0
  0
LAYER
  5
1D5
330
2
100
AcDbSymbolTableRecord
100
AcDbLayerTableRecord
  2
999-OFF
 70
     0
 62
     7
  6
CONTINUOUS
370
    -3
390
D3D
347
D66
348
0
1001
ACAECLAYERSTANDARD
1000

1000

  0
LAYER
  5
1D8
330
2
100
AcDbSymbolTableRecord
100
AcDbLayerTableRecord
  2
998-図枠
 70
     0
 62
     7
  6
CONTINUOUS
370
    -3
390
D3D
347
D66
348
0
1001
ACAECLAYERSTANDARD
1000

1000

  0
LAYER
  5
1D9
330
2
100
AcDbSymbolTableRecord
100
AcDbLayerTableRecord
  2
997-図枠_文字
 70
     0
 62
     7
  6
CONTINUOUS
370
    -3
390
D3D
347
D66
348
0
1001
ACAECLAYERSTANDARD
1000

1000

  0
LAYER
  5
464
330
2
100
AcDbSymbolTableRecord
100
AcDbLayerTableRecord
  2
DEFPOINTS
 70
     0
 62
     7
  6
CONTINUOUS
290
     0
370
    -3
390
D3D
347
D66
348
0
  0
LAYER
  5
C7D
330
2
100
AcDbSymbolTableRecord
100
AcDbLayerTableRecord
  2
1
 70
     0
 62
     7
  6
CONTINUOUS
370
    -3
390
D3D
347
D66
348
0
  0
LAYER
  5
C7F
330
2
100
AcDbSymbolTableRecord
100
AcDbLayerTableRecord
  2
THO-49_AD本体_150806
 70
     0
 62
     7
  6
CONTINUOUS
370
    -3
390
D3D
347
D66
348
0
  0
LAYER
  5
11B6
330
2
100
AcDbSymbolTableRecord
100
AcDbLayerTableRecord
  2
図枠
 70
     0
 62
     7
  6
CONTINUOUS
370
    -3
390
D3D
347
D66
348
0
1001
ACAECLAYERSTANDARD
1000

1000

  0
LAYER
  5
156C
330
2
100
AcDbSymbolTableRecord
100
AcDbLayerTableRecord
  2
_U+30EC_U+30A4_U+30E4_U+30FC 1
 70
     0
 62
     7
  6
CONTINUOUS
370
    -3
390
D3D
347
D66
348
0
  0
LAYER
  5
156D
330
2
100
AcDbSymbolTableRecord
100
AcDbLayerTableRecord
  2
AM_0
 70
     0
 62
     7
  6
CONTINUOUS
370
    -3
390
D3D
347
D66
348
0
  0
LAYER
  5
156E
330
2
100
AcDbSymbolTableRecord
100
AcDbLayerTableRecord
  2
AM_5
 70
     0
 62
     3
  6
CONTINUOUS
370
    -3
390
D3D
347
D66
348
0
  0
LAYER
  5
156F
330
2
100
AcDbSymbolTableRecord
100
AcDbLayerTableRecord
  2
AM_2
 70
     0
 62
   121
  6
CONTINUOUS
370
    -3
390
D3D
347
D66
348
0
  0
LAYER
  5
1570
330
2
100
AcDbSymbolTableRecord
100
AcDbLayerTableRecord
  2
CONT_M_3
 70
     0
 62
     3
  6
CONTINUOUS
370
    -3
390
D3D
347
D66
348
0
  0
ENDTAB
  0
TABLE
  2
STYLE
  5
3
330
0
100
AcDbSymbolTable
 70
     7
  0
STYLE
  5
17
330
3
100
AcDbSymbolTableRecord
100
AcDbTextStyleTableRecord
  2
STANDARD
 70
     0
 40
0.0
 41
1.0
 50
0.0
 71
     0
 42
2.5
  3
msgothic.ttc
  4

1001
ACAD
1000
MS PGothic
1071
        0
  0
STYLE
  5
24
330
3
100
AcDbSymbolTableRecord
100
AcDbTextStyleTableRecord
  2
STD
 70
     0
 40
0.0
 41
1.0
 50
0.0
 71
     0
 42
0.0
  3
txt
  4

  0
STYLE
  5
25
330
3
100
AcDbSymbolTableRecord
100
AcDbTextStyleTableRecord
  2
TATESTD
 70
     4
 40
0.0
 41
1.0
 50
0.0
 71
     0
 42
0.0
  3
txt
  4

  0
STYLE
  5
26
330
3
100
AcDbSymbolTableRecord
100
AcDbTextStyleTableRecord
  2
KANJISTD
 70
     0
 40
0.0
 41
1.0
 50
0.0
 71
     0
 42
0.0
  3
txt
  4
extfont
  0
STYLE
  5
27
330
3
100
AcDbSymbolTableRecord
100
AcDbTextStyleTableRecord
  2
KANJITATE
 70
     4
 40
0.0
 41
1.0
 50
0.0
 71
     0
 42
0.0
  3
txt
  4
extfont
  0
STYLE
  5
1DC
330
3
100
AcDbSymbolTableRecord
100
AcDbTextStyleTableRecord
  2
SLDTEXTSTYLE0
 70
     0
 40
0.0
 41
0.75
 50
0.0
 71
     0
 42
0.0
  3
TXT
  4
bigfont
  0
STYLE
  5
C82
330
3
100
AcDbSymbolTableRecord
100
AcDbTextStyleTableRecord
  2
ＭＳ_Ｐゴシック
 70
     0
 40
0.0
 41
1.0
 50
0.0
 71
     0
 42
2.5
  3
msgothic.ttc
  4
ＭＳ Ｐゴシック
1001
ACAD
1000
ＭＳ Ｐゴシック
1071
        0
  0
ENDTAB
  0
TABLE
  2
VIEW
  5
5
330
0
100
AcDbSymbolTable
 70
     0
  0
ENDTAB
  0
TABLE
  2
UCS
  5
6
330
0
100
AcDbSymbolTable
 70
     0
  0
ENDTAB
  0
TABLE
  2
APPID
  5
8
330
0
100
AcDbSymbolTable
 70
    11
  0
APPID
  5
16
330
8
100
AcDbSymbolTableRecord
100
AcDbRegAppTableRecord
  2
ACAD
 70
     0
  0
APPID
  5
1D7
330
8
100
AcDbSymbolTableRecord
100
AcDbRegAppTableRecord
  2
ACAECLAYERSTANDARD
 70
     0
  0
APPID
  5
485
330
8
100
AcDbSymbolTableRecord
100
AcDbRegAppTableRecord
  2
ACAD_DSTYLE_DIMRADIAL_EXTE
 70
     0
  0
APPID
  5
DD3
330
8
100
AcDbSymbolTableRecord
100
AcDbRegAppTableRecord
  2
ACAD_DSTYLE_DIMRADIAL_EXTENSION
 70
     0
  0
APPID
  5
157C
330
8
100
AcDbSymbolTableRecord
100
AcDbRegAppTableRecord
  2
GENIUS_GENODEF_13
 70
     0
  0
APPID
  5
157D
330
8
100
AcDbSymbolTableRecord
100
AcDbRegAppTableRecord
  2
GENIUS_GENOBJ-N-FIL_13
 70
     0
  0
APPID
  5
157E
330
8
100
AcDbSymbolTableRecord
100
AcDbRegAppTableRecord
  2
ACAD_DSTYLE_DIMINSPECT
 70
     0
  0
APPID
  5
157F
330
8
100
AcDbSymbolTableRecord
100
AcDbRegAppTableRecord
  2
GENIUS_GENREC_14
 70
     0
  0
APPID
  5
1580
330
8
100
AcDbSymbolTableRecord
100
AcDbRegAppTableRecord
  2
GENIUS_GENOBJ-N-REC_13
 70
     0
  0
APPID
  5
296B
330
8
100
AcDbSymbolTableRecord
100
AcDbRegAppTableRecord
  2
HATCHBACKGROUNDCOLOR
 70
     0
  0
APPID
  5
2975
330
8
100
AcDbSymbolTableRecord
100
AcDbRegAppTableRecord
  2
PLOTTRANSPARENCY
 70
     0
  0
ENDTAB
  0
TABLE
  2
DIMSTYLE
  5
9
330
0
100
AcDbSymbolTable
 70
     4
100
AcDbDimStyleTable
  0
DIMSTYLE
105
18
330
9
100
AcDbSymbolTableRecord
100
AcDbDimStyleTableRecord
  2
STANDARD
 70
     0
178
     0
340
17
  0
DIMSTYLE
105
1DA
102
{ACAD_REACTORS
330
28A8
330
28AA
330
28AD
330
28B7
330
28C7
330
2907
102
}
330
9
100
AcDbSymbolTableRecord
100
AcDbDimStyleTableRecord
  2
ISO-25
 70
     0
 41
2.5
 42
0.625
 43
3.75
 44
1.25
 73
     0
 74
     0
 77
     1
 78
     8
140
2.5
141
2.5
143
0.0393700787
147
0.625
171
     3
172
     1
178
     0
271
     2
272
     2
274
     3
283
     0
284
     8
340
17
  0
DIMSTYLE
105
457
102
{ACAD_REACTORS
330
2902
330
2914
330
2918
102
}
330
9
100
AcDbSymbolTableRecord
100
AcDbDimStyleTableRecord
  2
ISO-2
 70
     0
 41
2.5
 42
0.625
 43
3.75
 44
1.25
 73
     0
 74
     0
 77
     1
 78
     8
140
2.5
141
2.5
143
0.0393700787
147
0.625
171
     3
172
     1
178
     0
271
     1
272
     2
274
     3
283
     0
284
     8
340
17
341
459
342
459
  0
DIMSTYLE
105
11E8
330
9
100
AcDbSymbolTableRecord
100
AcDbDimStyleTableRecord
  2
JIS-1
 70
     0
 41
2.5
 42
0.625
 43
3.75
 44
1.25
 73
     0
 74
     0
 77
     1
 78
     8
140
2.5
141
2.5
143
0.03937007874016
147
0.625
171
     3
172
     1
178
     0
271
     2
272
     2
274
     3
283
     0
284
     8
340
17
341
459
342
459
  0
ENDTAB
  0
TABLE
  2
BLOCK_RECORD
  5
1
330
0
100
AcDbSymbolTable
 70
     7
  0
BLOCK_RECORD
  5
A
102
{ACAD_XDICTIONARY
360
296C
102
}
330
1
100
AcDbSymbolTableRecord
100
AcDbBlockTableRecord
  2
*MODEL_SPACE
340
D61
 70
     0
280
     1
281
     0
  0
BLOCK_RECORD
  5
B
330
1
100
AcDbSymbolTableRecord
100
AcDbBlockTableRecord
  2
*PAPER_SPACE
340
D62
 70
     0
280
     1
281
     0
  0
BLOCK_RECORD
  5
11D
330
1
100
AcDbSymbolTableRecord
100
AcDbBlockTableRecord
  2
AI9-BLK1
340
0
 70
     0
280
     1
281
     0
  0
BLOCK_RECORD
  5
459
330
1
100
AcDbSymbolTableRecord
100
AcDbBlockTableRecord
  2
_OPEN
340
0
102
{BLKREFS
331
2921
331
2922
331
2930
331
2931
331
293F
331
2940
331
294B
331
294C
102
}
 70
     0
280
     1
281
     0
  0
BLOCK_RECORD
  5
E9B
330
1
100
AcDbSymbolTableRecord
100
AcDbBlockTableRecord
  2
_DOT
340
0
 70
     0
280
     1
281
     0
  0
BLOCK_RECORD
  5
291B
330
1
100
AcDbSymbolTableRecord
100
AcDbBlockTableRecord
  2
*D96
340
0
 70
     0
280
     1
281
     0
  0
BLOCK_RECORD
  5
2927
330
1
100
AcDbSymbolTableRecord
100
AcDbBlockTableRecord
  2
*D97
340
0
 70
     0
280
     1
281
     0
  0
BLOCK_RECORD
  5
2936
330
1
100
AcDbSymbolTableRecord
100
AcDbBlockTableRecord
  2
*D98
340
0
 70
     0
280
     1
281
     0
  0
BLOCK_RECORD
  5
2945
330
1
100
AcDbSymbolTableRecord
100
AcDbBlockTableRecord
  2
*D99
340
0
 70
     0
280
     1
281
     0
  0
ENDTAB
  0
ENDSEC
  0
SECTION
  2
BLOCKS
  0
BLOCK
  5
D
330
A
100
AcDbEntity
  8
0
100
AcDbBlockBegin
  2
*MODEL_SPACE
 70
     0
 10
0.0
 20
0.0
 30
0.0
  3
*MODEL_SPACE
  1

  0
ENDBLK
  5
E
330
A
100
AcDbEntity
  8
0
100
AcDbBlockEnd
  0
BLOCK
  5
F
330
B
100
AcDbEntity
 67
     1
  8
0
100
AcDbBlockBegin
  2
*PAPER_SPACE
 70
     0
 10
0.0
 20
0.0
 30
0.0
  3
*PAPER_SPACE
  1

  0
ENDBLK
  5
10
330
B
100
AcDbEntity
 67
     1
  8
0
100
AcDbBlockEnd
  0
BLOCK
  5
11F
330
11D
100
AcDbEntity
  8
レイヤー_1
 62
     7
100
AcDbBlockBegin
  2
AI9-BLK1
 70
     0
 10
0.0
 20
0.0
 30
0.0
  3
AI9-BLK1
  1

  0
MTEXT
  5
122
330
11D
100
AcDbEntity
  8
レイヤー_1
 62
     7
100
AcDbMText
 10
-4.7625
 20
1.215134
 30
0.0
 40
2.362351
 41
0.0
 46
0.0
 71
     1
 72
     2
  1
\fMSGothic|b0|i0|c128;\H2.3624;\C7;記
  7
STD
 73
     1
 44
1.0
  0
MTEXT
  5
121
330
11D
100
AcDbEntity
  8
レイヤー_1
 62
     7
100
AcDbMText
 10
-1.5875
 20
1.215134
 30
0.0
 40
2.362351
 41
0.0
 46
0.0
 71
     1
 72
     2
  1
\fMSGothic|b0|i0|c128;\H2.3624;\C7;
  7
STD
 73
     1
 44
1.0
  0
MTEXT
  5
120
330
11D
100
AcDbEntity
  8
レイヤー_1
 62
     7
100
AcDbMText
 10
1.5875
 20
1.215134
 30
0.0
 40
2.362351
 41
0.0
 46
0.0
 71
     1
 72
     2
  1
\fMSGothic|b0|i0|c128;\H2.3624;\C7;事
  7
STD
 73
     1
 44
1.0
  0
ENDBLK
  5
123
330
11D
100
AcDbEntity
  8
レイヤー_1
100
AcDbBlockEnd
  0
BLOCK
  5
45A
330
459
100
AcDbEntity
  8
0
100
AcDbBlockBegin
  2
_OPEN
 70
     0
 10
0.0
 20
0.0
 30
0.0
  3
_OPEN
  1

  0
LINE
  5
45B
330
459
100
AcDbEntity
  8
0
  6
ByBlock
 62
     0
100
AcDbLine
 10
-1.0
 20
0.166667
 30
0.0
 11
0.0
 21
0.0
 31
0.0
  0
LINE
  5
45C
330
459
100
AcDbEntity
  8
0
  6
ByBlock
 62
     0
100
AcDbLine
 10
-1.0
 20
-0.166667
 30
0.0
 11
0.0
 21
0.0
 31
0.0
  0
LINE
  5
45D
330
459
100
AcDbEntity
  8
0
  6
ByBlock
 62
     0
100
AcDbLine
 10
0.0
 20
0.0
 30
0.0
 11
-1.0
 21
0.0
 31
0.0
  0
ENDBLK
  5
45E
330
459
100
AcDbEntity
  8
0
100
AcDbBlockEnd
  0
BLOCK
  5
E9C
330
E9B
100
AcDbEntity
  8
0
100
AcDbBlockBegin
  2
_DOT
 70
     0
 10
0.0
 20
0.0
 30
0.0
  3
_DOT
  1

  0
LWPOLYLINE
  5
E9D
330
E9B
100
AcDbEntity
  8
0
  6
ByBlock
 62
     0
100
AcDbPolyline
 90
        2
 70
     1
 43
0.5
 10
-0.25
 20
0.0
 42
1.0
 10
0.25
 20
0.0
 42
1.0
  0
LINE
  5
E9E
330
E9B
100
AcDbEntity
  8
0
  6
ByBlock
 62
     0
100
AcDbLine
 10
-0.5
 20
0.0
 30
0.0
 11
-1.0
 21
0.0
 31
0.0
  0
ENDBLK
  5
E9F
330
E9B
100
AcDbEntity
  8
0
100
AcDbBlockEnd
  0
BLOCK
  5
291C
330
291B
100
AcDbEntity
  8
0
100
AcDbBlockBegin
  2
*D96
 70
     1
 10
0.0
 20
0.0
 30
0.0
  3
*D96
  1

  0
LINE
  5
291E
330
291B
100
AcDbEntity
  8
0
 62
     0
370
    -2
100
AcDbLine
 10
543.2767880903497
 20
207.2720448739277
 30
0.0
 11
543.2767880903497
 21
229.8881349152932
 31
0.0
  0
LINE
  5
291F
330
291B
100
AcDbEntity
  8
0
 62
     0
370
    -2
100
AcDbLine
 10
743.2776616145583
 20
206.9764917352131
 30
0.0
 11
743.2776616145583
 21
229.8881349152932
 31
0.0
  0
LINE
  5
2920
330
291B
100
AcDbEntity
  8
0
 62
     0
370
    -2
100
AcDbLine
 10
545.7767880903497
 20
228.6381349152932
 30
0.0
 11
740.7776616145583
 21
228.6381349152932
 31
0.0
  0
INSERT
  5
2921
330
291B
100
AcDbEntity
  8
0
 62
     0
370
    -2
100
AcDbBlockReference
  2
_OPEN
 10
543.2767880903497
 20
228.6381349152932
 30
0.0
 41
2.5
 42
2.5
 43
2.5
 50
180.0
  0
INSERT
  5
2922
330
291B
100
AcDbEntity
  8
0
 62
     0
370
    -2
100
AcDbBlockReference
  2
_OPEN
 10
743.2776616145583
 20
228.6381349152932
 30
0.0
 41
2.5
 42
2.5
 43
2.5
  0
MTEXT
  5
2923
330
291B
100
AcDbEntity
  8
0
  6
Continuous
 62
     0
370
     9
100
AcDbMText
 10
643.277224852454
 20
230.7631349152932
 30
0.0
 40
3.0
 41
0.0
 46
0.0
 71
     5
 72
     1
  1
2575
 73
     1
 44
1.0
  0
POINT
  5
2924
330
291B
100
AcDbEntity
  8
DEFPOINTS
 62
     0
100
AcDbPoint
 10
543.2767880903497
 20
206.6470448739277
 30
0.0
  0
POINT
  5
2925
330
291B
100
AcDbEntity
  8
DEFPOINTS
 62
     0
100
AcDbPoint
 10
743.2776616145583
 20
206.3514917352131
 30
0.0
  0
POINT
  5
2926
330
291B
100
AcDbEntity
  8
DEFPOINTS
 62
     0
100
AcDbPoint
 10
743.2776616145583
 20
228.6381349152932
 30
0.0
  0
ENDBLK
  5
291D
330
291B
100
AcDbEntity
  8
0
100
AcDbBlockEnd
  0
BLOCK
  5
2928
330
2927
100
AcDbEntity
  8
0
100
AcDbBlockBegin
  2
*D97
 70
     1
 10
0.0
 20
0.0
 30
0.0
  3
*D97
  1

  0
LINE
  5
292A
330
2927
100
AcDbEntity
  8
0
 62
     0
370
    -2
100
AcDbLine
 10
542.6517880903497
 20
206.6470448739277
 30
0.0
 11
515.5571920456044
 21
206.6470448739277
 31
0.0
  0
LINE
  5
292B
330
2927
100
AcDbEntity
  8
0
 62
     0
370
    -2
100
AcDbLine
 10
542.6517880903497
 20
193.6470448739276
 30
0.0
 11
515.5571920456044
 21
193.6470448739276
 31
0.0
  0
LINE
  5
292C
330
2927
100
AcDbEntity
  8
0
 62
     0
370
    -2
100
AcDbLine
 10
516.8071920456044
 20
206.6470448739277
 30
0.0
 11
516.8071920456044
 21
218.9608353025222
 31
0.0
  0
LINE
  5
292D
330
2927
100
AcDbEntity
  8
0
 62
     0
370
    -2
100
AcDbLine
 10
516.8071920456044
 20
206.6470448739277
 30
0.0
 11
516.8071920456044
 21
193.6470448739276
 31
0.0
  0
LINE
  5
292E
330
2927
100
AcDbEntity
  8
0
 62
     0
370
    -2
100
AcDbLine
 10
516.8071920456044
 20
209.1470448739277
 30
0.0
 11
516.8071920456044
 21
211.6470448739277
 31
0.0
  0
LINE
  5
292F
330
2927
100
AcDbEntity
  8
0
 62
     0
370
    -2
100
AcDbLine
 10
516.8071920456044
 20
191.1470448739276
 30
0.0
 11
516.8071920456044
 21
188.6470448739276
 31
0.0
  0
INSERT
  5
2930
330
2927
100
AcDbEntity
  8
0
 62
     0
370
    -2
100
AcDbBlockReference
  2
_OPEN
 10
516.8071920456044
 20
206.6470448739277
 30
0.0
 41
2.5
 42
2.5
 43
2.5
 50
270.0
  0
INSERT
  5
2931
330
2927
100
AcDbEntity
  8
0
 62
     0
370
    -2
100
AcDbBlockReference
  2
_OPEN
 10
516.8071920456044
 20
193.6470448739276
 30
0.0
 41
2.5
 42
2.5
 43
2.5
 50
90.0
  0
MTEXT
  5
2932
330
2927
100
AcDbEntity
  8
0
  6
Continuous
 62
     0
370
     9
100
AcDbMText
 10
514.6746920456044
 20
216.4953353025222
 30
0.0
 40
3.0
 41
0.0
 46
0.0
 71
     5
 72
     1
  1
13
 11
0.0
 21
1.0
 31
0.0
 73
     1
 44
1.0
  0
POINT
  5
2933
330
2927
100
AcDbEntity
  8
DEFPOINTS
 62
     0
100
AcDbPoint
 10
543.2767880903497
 20
206.6470448739277
 30
0.0
  0
POINT
  5
2934
330
2927
100
AcDbEntity
  8
DEFPOINTS
 62
     0
100
AcDbPoint
 10
543.2767880903497
 20
193.6470448739276
 30
0.0
  0
POINT
  5
2935
330
2927
100
AcDbEntity
  8
DEFPOINTS
 62
     0
100
AcDbPoint
 10
516.8071920456044
 20
193.6470448739276
 30
0.0
  0
ENDBLK
  5
2929
330
2927
100
AcDbEntity
  8
0
100
AcDbBlockEnd
  0
BLOCK
  5
2937
330
2936
100
AcDbEntity
  8
0
100
AcDbBlockBegin
  2
*D98
 70
     1
 10
0.0
 20
0.0
 30
0.0
  3
*D98
  1

  0
LINE
  5
2939
330
2936
100
AcDbEntity
  8
0
 62
     0
370
    -2
100
AcDbLine
 10
542.6517880903497
 20
147.5890294830043
 30
0.0
 11
515.5571920456044
 21
147.5890294830043
 31
0.0
  0
LINE
  5
293A
330
2936
100
AcDbEntity
  8
0
 62
     0
370
    -2
100
AcDbLine
 10
542.6517880903497
 20
141.589029483004
 30
0.0
 11
515.5571920456044
 21
141.589029483004
 31
0.0
  0
LINE
  5
293B
330
2936
100
AcDbEntity
  8
0
 62
     0
370
    -2
100
AcDbLine
 10
516.8071920456044
 20
147.5890294830043
 30
0.0
 11
516.8071920456044
 21
156.5400294830043
 31
0.0
  0
LINE
  5
293C
330
2936
100
AcDbEntity
  8
0
 62
     0
370
    -2
100
AcDbLine
 10
516.8071920456044
 20
147.5890294830043
 30
0.0
 11
516.8071920456044
 21
141.589029483004
 31
0.0
  0
LINE
  5
293D
330
2936
100
AcDbEntity
  8
0
 62
     0
370
    -2
100
AcDbLine
 10
516.8071920456044
 20
150.5890294830043
 30
0.0
 11
516.8071920456044
 21
153.5890294830043
 31
0.0
  0
LINE
  5
293E
330
2936
100
AcDbEntity
  8
0
 62
     0
370
    -2
100
AcDbLine
 10
516.8071920456044
 20
138.589029483004
 30
0.0
 11
516.8071920456044
 21
135.589029483004
 31
0.0
  0
INSERT
  5
293F
330
2936
100
AcDbEntity
  8
0
 62
     0
370
    -2
100
AcDbBlockReference
  2
_OPEN
 10
516.8071920456044
 20
147.5890294830043
 30
0.0
 41
3.0
 42
3.0
 43
3.0
 50
270.0
  0
INSERT
  5
2940
330
2936
100
AcDbEntity
  8
0
 62
     0
370
    -2
100
AcDbBlockReference
  2
_OPEN
 10
516.8071920456044
 20
141.589029483004
 30
0.0
 41
3.0
 42
3.0
 43
3.0
 50
90.0
  0
MTEXT
  5
2941
330
2936
100
AcDbEntity
  8
0
  6
Continuous
 62
     0
370
     9
100
AcDbMText
 10
514.6821920456044
 20
155.0645294830043
 30
0.0
 40
3.0
 41
0.0
 46
0.0
 71
     5
 72
     1
  1
6
 11
0.0
 21
1.0
 31
0.0
 73
     1
 44
1.0
  0
POINT
  5
2942
330
2936
100
AcDbEntity
  8
DEFPOINTS
 62
     0
100
AcDbPoint
 10
543.2767880903497
 20
147.5890294830043
 30
0.0
  0
POINT
  5
2943
330
2936
100
AcDbEntity
  8
DEFPOINTS
 62
     0
100
AcDbPoint
 10
543.2767880903497
 20
141.589029483004
 30
0.0
  0
POINT
  5
2944
330
2936
100
AcDbEntity
  8
DEFPOINTS
 62
     0
100
AcDbPoint
 10
516.8071920456044
 20
141.589029483004
 30
0.0
  0
ENDBLK
  5
2938
330
2936
100
AcDbEntity
  8
0
100
AcDbBlockEnd
  0
BLOCK
  5
2946
330
2945
100
AcDbEntity
  8
0
100
AcDbBlockBegin
  2
*D99
 70
     1
 10
0.0
 20
0.0
 30
0.0
  3
*D99
  1

  0
LINE
  5
2948
330
2945
100
AcDbEntity
  8
0
 62
     0
370
    -2
100
AcDbLine
 10
543.2767880903497
 20
140.964029483004
 30
0.0
 11
543.2767880903497
 21
112.7159897627054
 31
0.0
  0
LINE
  5
2949
330
2945
100
AcDbEntity
  8
0
 62
     0
370
    -2
100
AcDbLine
 10
453.5962142743276
 20
142.9640294830043
 30
0.0
 11
453.5962142743276
 21
112.7159897627054
 31
0.0
  0
LINE
  5
294A
330
2945
100
AcDbEntity
  8
0
 62
     0
370
    -2
100
AcDbLine
 10
540.7767880903497
 20
113.9659897627054
 30
0.0
 11
456.0962142743276
 21
113.9659897627054
 31
0.0
  0
INSERT
  5
294B
330
2945
100
AcDbEntity
  8
0
 62
     0
370
    -2
100
AcDbBlockReference
  2
_OPEN
 10
543.2767880903497
 20
113.9659897627054
 30
0.0
 41
2.5
 42
2.5
 43
2.5
  0
INSERT
  5
294C
330
2945
100
AcDbEntity
  8
0
 62
     0
370
    -2
100
AcDbBlockReference
  2
_OPEN
 10
453.5962142743276
 20
113.9659897627054
 30
0.0
 41
2.5
 42
2.5
 43
2.5
 50
180.0
  0
MTEXT
  5
294D
330
2945
100
AcDbEntity
  8
0
  6
Continuous
 62
     0
370
     9
100
AcDbMText
 10
498.4365011823387
 20
116.4494897627054
 30
0.0
 40
3.0
 41
0.0
 46
0.0
 71
     5
 72
     1
  1
(300)
 73
     1
 44
1.0
  0
POINT
  5
294E
330
2945
100
AcDbEntity
  8
DEFPOINTS
 62
     0
100
AcDbPoint
 10
543.2767880903497
 20
141.589029483004
 30
0.0
  0
POINT
  5
294F
330
2945
100
AcDbEntity
  8
DEFPOINTS
 62
     0
100
AcDbPoint
 10
453.5962142743276
 20
143.5890294830043
 30
0.0
  0
POINT
  5
2950
330
2945
100
AcDbEntity
  8
DEFPOINTS
 62
     0
100
AcDbPoint
 10
453.5962142743276
 20
113.9659897627054
 30
0.0
  0
ENDBLK
  5
2947
330
2945
100
AcDbEntity
  8
0
100
AcDbBlockEnd
  0
ENDSEC
  0
SECTION
  2
ENTITIES
  0
MTEXT
  5
156
330
A
100
AcDbEntity
  8
レイヤー_1
 62
     7
100
AcDbMText
 10
176.2125
 20
32.789434
 30
0.0
 40
2.362351
 41
0.0
 46
0.0
 71
     1
 72
     2
  1
\fMSGothic|b0|i0|c128;\H2.3624;\C7;
  7
STD
 73
     1
 44
1.0
  0
MTEXT
  5
154
330
A
100
AcDbEntity
  8
レイヤー_1
 62
     7
100
AcDbMText
 10
182.5625
 20
32.789434
 30
0.0
 40
2.362351
 41
0.0
 46
0.0
 71
     1
 72
     2
  1
\fMSGothic|b0|i0|c128;\H2.3624;\C7;
  7
STD
 73
     1
 44
1.0
  0
MTEXT
  5
152
330
A
100
AcDbEntity
  8
レイヤー_1
 62
     7
100
AcDbMText
 10
187.325
 20
32.789434
 30
0.0
 40
2.362351
 41
0.0
 46
0.0
 71
     1
 72
     2
  1
\fMSGothic|b0|i0|c128;\H2.3624;\C7;
  7
STD
 73
     1
 44
1.0
  0
MTEXT
  5
150
330
A
100
AcDbEntity
  8
レイヤー_1
 62
     7
100
AcDbMText
 10
193.675
 20
32.789434
 30
0.0
 40
2.362351
 41
0.0
 46
0.0
 71
     1
 72
     2
  1
\fMSGothic|b0|i0|c128;\H2.3624;\C7;
  7
STD
 73
     1
 44
1.0
  0
MTEXT
  5
14F
330
A
100
AcDbEntity
  8
レイヤー_1
 62
     7
100
AcDbMText
 10
196.85
 20
32.789434
 30
0.0
 40
2.362351
 41
0.0
 46
0.0
 71
     1
 72
     2
  1
\fMSGothic|b0|i0|c128;\H2.3624;\C7; 
  7
STD
 73
     1
 44
1.0
  0
MTEXT
  5
14D
330
A
100
AcDbEntity
  8
レイヤー_1
 62
     7
100
AcDbMText
 10
200.025
 20
32.789434
 30
0.0
 40
2.362351
 41
0.0
 46
0.0
 71
     1
 72
     2
  1
\fMSGothic|b0|i0|c128;\H2.3624;\C7;
  7
STD
 73
     1
 44
1.0
  0
MTEXT
  5
142
330
A
100
AcDbEntity
  8
レイヤー_1
 62
     7
100
AcDbMText
 10
46.302083
 20
283.123066
 30
0.0
 40
2.362351
 41
0.0
 46
0.0
 71
     1
 72
     2
  1
\fMSGothic|b0|i0|c128;\H2.3624;\C7;
  7
STD
 11
-1.0
 21
0.0
 31
0.0
 73
     1
 44
1.0
  0
MTEXT
  5
13E
330
A
100
AcDbEntity
  8
レイヤー_1
 62
     7
100
AcDbMText
 10
29.104167
 20
14.004018
 30
0.0
 40
2.362351
 41
0.0
 46
0.0
 71
     1
 72
     2
  1
\fMSGothic|b0|i0|c128;\H2.3624;\C7; 
  7
STD
 73
     1
 44
1.0
  0
MTEXT
  5
13B
330
A
100
AcDbEntity
  8
レイヤー_1
 62
     7
100
AcDbMText
 10
20.902083
 20
33.583184
 30
0.0
 40
2.362351
 41
0.0
 46
0.0
 71
     1
 72
     2
  1
\fMSGothic|b0|i0|c128;\H2.3624;\C7;
  7
STD
 73
     1
 44
1.0
  0
MTEXT
  5
13A
330
A
100
AcDbEntity
  8
レイヤー_1
 62
     7
100
AcDbMText
 10
17.991667
 20
29.349851
 30
0.0
 40
2.362351
 41
0.0
 46
0.0
 71
     1
 72
     2
  1
\fMSGothic|b0|i0|c128;\H2.3624;\C7;
  7
STD
 73
     1
 44
1.0
  0
MTEXT
  5
139
330
A
100
AcDbEntity
  8
レイヤー_1
 62
     7
100
AcDbMText
 10
17.727083
 20
25.116518
 30
0.0
 40
2.362351
 41
0.0
 46
0.0
 71
     1
 72
     2
  1
\fMSGothic|b0|i0|c128;\H2.3624;\C7;
  7
STD
 73
     1
 44
1.0
  0
MTEXT
  5
138
330
A
100
AcDbEntity
  8
レイヤー_1
 62
     7
100
AcDbMText
 10
20.902083
 20
25.116518
 30
0.0
 40
2.362351
 41
0.0
 46
0.0
 71
     1
 72
     2
  1
\fMSGothic|b0|i0|c128;\H2.3624;\C7;
  7
STD
 73
     1
 44
1.0
  0
MTEXT
  5
137
330
A
100
AcDbEntity
  8
レイヤー_1
 62
     7
100
AcDbMText
 10
17.991667
 20
20.883184
 30
0.0
 40
2.362351
 41
0.0
 46
0.0
 71
     1
 72
     2
  1
\fMSGothic|b0|i0|c128;\H2.3624;\C7;
  7
STD
 73
     1
 44
1.0
  0
MTEXT
  5
11B
330
A
100
AcDbEntity
  8
レイヤー_1
 62
     7
100
AcDbMText
 10
43.920833
 20
14.004018
 30
0.0
 40
2.362351
 41
0.0
 46
0.0
 71
     1
 72
     2
  1
\fMSGothic|b0|i0|c128;\H2.3624;\C7;
  7
STD
 73
     1
 44
1.0
  0
MTEXT
  5
114
330
A
100
AcDbEntity
  8
レイヤー_1
 62
     7
100
AcDbMText
 10
153.19375
 20
25.645684
 30
0.0
 40
2.362351
 41
0.0
 46
0.0
 71
     1
 72
     2
  1
\fMSGothic|b0|i0|c128;\H2.3624;\C7; 
  7
STD
 73
     1
 44
1.0
  0
MTEXT
  5
10F
330
A
100
AcDbEntity
  8
レイヤー_1
 62
     7
100
AcDbMText
 10
153.19375
 20
33.054018
 30
0.0
 40
2.362351
 41
0.0
 46
0.0
 71
     1
 72
     2
  1
\fMSGothic|b0|i0|c128;\H2.3624;\C7; 
  7
STD
 73
     1
 44
1.0
  0
MTEXT
  5
10C
330
A
100
AcDbEntity
  8
レイヤー_1
 62
     7
100
AcDbMText
 10
164.30625
 20
17.708184
 30
0.0
 40
2.362351
 41
0.0
 46
0.0
 71
     1
 72
     2
  1
\fMSGothic|b0|i0|c128;\H2.3624;\C7; 
  7
STD
 73
     1
 44
1.0
  0
MTEXT
  5
109
330
A
100
AcDbEntity
  8
レイヤー_1
 62
     7
100
AcDbMText
 10
164.30625
 20
25.645684
 30
0.0
 40
2.362351
 41
0.0
 46
0.0
 71
     1
 72
     2
  1
\fMSGothic|b0|i0|c128;\H2.3624;\C7; 
  7
STD
 73
     1
 44
1.0
  0
MTEXT
  5
106
330
A
100
AcDbEntity
  8
レイヤー_1
 62
     7
100
AcDbMText
 10
175.154167
 20
25.910268
 30
0.0
 40
2.362351
 41
0.0
 46
0.0
 71
     1
 72
     2
  1
\fMSGothic|b0|i0|c128;\H2.3624;\C7; 
  7
STD
 73
     1
 44
1.0
  0
MTEXT
  5
103
330
A
100
AcDbEntity
  8
レイヤー_1
 62
     7
100
AcDbMText
 10
175.41875
 20
17.708184
 30
0.0
 40
2.362351
 41
0.0
 46
0.0
 71
     1
 72
     2
  1
\fMSGothic|b0|i0|c128;\H2.3624;\C7; 
  7
STD
 73
     1
 44
1.0
  0
MTEXT
  5
FE
330
A
100
AcDbEntity
  8
レイヤー_1
 62
     7
100
AcDbMText
 10
185.7375
 20
26.704018
 30
0.0
 40
2.362351
 41
0.0
 46
0.0
 71
     1
 72
     2
  1
\fMSGothic|b0|i0|c128;\H2.3624;\C7;
  7
STD
 73
     1
 44
1.0
  0
MTEXT
  5
FB
330
A
100
AcDbEntity
  8
レイヤー_1
 62
     7
100
AcDbMText
 10
153.19375
 20
17.708184
 30
0.0
 40
2.362351
 41
0.0
 46
0.0
 71
     1
 72
     2
  1
\fMSGothic|b0|i0|c128;\H2.3624;\C7; 
  7
STD
 73
     1
 44
1.0
  0
MTEXT
  5
F6
330
A
100
AcDbEntity
  8
レイヤー_1
 62
     7
100
AcDbMText
 10
217.4875
 20
20.618601
 30
0.0
 40
2.362351
 41
0.0
 46
0.0
 71
     1
 72
     2
  1
\fMSGothic|b0|i0|c128;\H2.3624;\C7;
  7
STD
 73
     1
 44
1.0
  0
MTEXT
  5
F4
330
A
100
AcDbEntity
  8
レイヤー_1
 62
     7
100
AcDbMText
 10
220.6625
 20
24.851934
 30
0.0
 40
2.362351
 41
0.0
 46
0.0
 71
     1
 72
     2
  1
\fMSGothic|b0|i0|c128;\H2.3624;\C7;
  7
STD
 73
     1
 44
1.0
  0
MTEXT
  5
F3
330
A
100
AcDbEntity
  8
レイヤー_1
 62
     7
100
AcDbMText
 10
217.752083
 20
20.618601
 30
0.0
 40
2.362351
 41
0.0
 46
0.0
 71
     1
 72
     2
  1
\fMSGothic|b0|i0|c128;\H2.3624;\C7;
  7
STD
 73
     1
 44
1.0
  0
MTEXT
  5
F2
330
A
100
AcDbEntity
  8
レイヤー_1
 62
     7
100
AcDbMText
 10
220.927083
 20
20.618601
 30
0.0
 40
2.362351
 41
0.0
 46
0.0
 71
     1
 72
     2
  1
\fMSGothic|b0|i0|c128;\H2.3624;\C7;
  7
STD
 73
     1
 44
1.0
  0
MTEXT
  5
F1
330
A
100
AcDbEntity
  8
レイヤー_1
 62
     7
100
AcDbMText
 10
217.4875
 20
16.385268
 30
0.0
 40
2.362351
 41
0.0
 46
0.0
 71
     1
 72
     2
  1
\fMSGothic|b0|i0|c128;\H2.3624;\C7;
  7
STD
 73
     1
 44
1.0
  0
MTEXT
  5
E1
330
A
100
AcDbEntity
  8
レイヤー_1
 62
     7
100
AcDbMText
 10
217.4875
 20
20.618601
 30
0.0
 40
2.362351
 41
0.0
 46
0.0
 71
     1
 72
     2
  1
\fMSGothic|b0|i0|c128;\H2.3624;\C7;
  7
STD
 73
     1
 44
1.0
  0
LWPOLYLINE
  5
29F
330
A
100
AcDbEntity
  8
999-OFF
 62
     7
100
AcDbPolyline
 90
        4
 70
     1
 43
0.0
 10
434.4250200184739
 20
7.087207260636177
 10
434.4250200184739
 20
304.0872072606362
 10
854.4250200184739
 20
304.0872072606362
 10
854.4250200184739
 20
7.087207260636177
  0
LINE
  5
2C1
330
A
100
AcDbEntity
  8
998-図枠
 62
     7
100
AcDbLine
 10
844.4250200184739
 20
294.0872072606362
 30
0.0
 11
844.4250200184739
 21
17.08720726063618
 31
0.0
  0
LINE
  5
2C2
330
A
100
AcDbEntity
  8
998-図枠
 62
     7
100
AcDbLine
 10
844.4250200184739
 20
78.50551120903617
 30
0.0
 11
444.4250200184739
 21
78.50551120903617
 31
0.0
  0
LINE
  5
2C3
330
A
100
AcDbEntity
  8
998-図枠
  6
Continuous
 62
     7
100
AcDbLine
 10
854.4250200184739
 20
155.5872072606362
 30
0.0
 11
839.4250200184739
 21
155.5872072606362
 31
0.0
  0
LINE
  5
2C4
330
A
100
AcDbEntity
  8
998-図枠
 62
     7
100
AcDbLine
 10
444.4250200184739
 20
17.08720726063618
 30
0.0
 11
844.4250200184739
 21
17.08720726063618
 31
0.0
  0
LINE
  5
2C5
330
A
100
AcDbEntity
  8
998-図枠
  6
Continuous
 62
     7
100
AcDbLine
 10
494.4250200184739
 20
294.0872072606362
 30
0.0
 11
494.4250200184739
 21
304.0872072606362
 31
0.0
  0
LINE
  5
2C6
330
A
100
AcDbEntity
  8
998-図枠
  6
Continuous
 62
     7
100
AcDbLine
 10
494.4250200184739
 20
17.08720726063618
 30
0.0
 11
494.4250200184739
 21
7.087207260636177
 31
0.0
  0
LINE
  5
2C7
330
A
100
AcDbEntity
  8
998-図枠
  6
Continuous
 62
     7
100
AcDbLine
 10
544.4250200184739
 20
294.0872072606362
 30
0.0
 11
544.4250200184739
 21
304.0872072606362
 31
0.0
  0
LINE
  5
2C8
330
A
100
AcDbEntity
  8
998-図枠
  6
Continuous
 62
     7
100
AcDbLine
 10
544.4250200184739
 20
17.08720726063618
 30
0.0
 11
544.4250200184739
 21
7.087207260636177
 31
0.0
  0
LINE
  5
2C9
330
A
100
AcDbEntity
  8
998-図枠
  6
Continuous
 62
     7
100
AcDbLine
 10
594.4250200184739
 20
294.0872072606362
 30
0.0
 11
594.4250200184739
 21
304.0872072606362
 31
0.0
  0
LINE
  5
2CA
330
A
100
AcDbEntity
  8
998-図枠
  6
Continuous
 62
     7
100
AcDbLine
 10
594.4250200184739
 20
17.08720726063618
 30
0.0
 11
594.4250200184739
 21
7.087207260636177
 31
0.0
  0
LINE
  5
2CB
330
A
100
AcDbEntity
  8
998-図枠
 62
     7
100
AcDbLine
 10
844.4250200184739
 20
33.56932001303618
 30
0.0
 11
694.4250200184739
 21
33.56932001303618
 31
0.0
  0
LINE
  5
2CC
330
A
100
AcDbEntity
  8
998-図枠
 62
     7
100
AcDbLine
 10
767.4622168124739
 20
17.08720726063618
 30
0.0
 11
767.4622168124739
 21
78.50551120903617
 31
0.0
  0
LINE
  5
2CD
330
A
100
AcDbEntity
  8
998-図枠
  6
Continuous
 62
     7
100
AcDbLine
 10
644.4250200184739
 20
289.0872072606362
 30
0.0
 11
644.4250200184739
 21
304.0872072606362
 31
0.0
  0
LINE
  5
2CE
330
A
100
AcDbEntity
  8
998-図枠
  6
Continuous
 62
     7
100
AcDbLine
 10
644.4250200184739
 20
17.08720726063618
 30
0.0
 11
644.4250200184739
 21
7.087207260636177
 31
0.0
  0
LINE
  5
2CF
330
A
100
AcDbEntity
  8
998-図枠
 62
     7
100
AcDbLine
 10
844.4250200184739
 20
294.0872072606362
 30
0.0
 11
444.4250200184739
 21
294.0872072606362
 31
0.0
  0
LINE
  5
2D0
330
A
100
AcDbEntity
  8
998-図枠
  6
Continuous
 62
     7
100
AcDbLine
 10
694.4250200184739
 20
294.0872072606362
 30
0.0
 11
694.4250200184739
 21
304.0872072606362
 31
0.0
  0
LINE
  5
2D1
330
A
100
AcDbEntity
  8
998-図枠
 62
     7
100
AcDbLine
 10
444.4250200184739
 20
294.0872072606362
 30
0.0
 11
444.4250200184739
 21
17.08720726063618
 31
0.0
  0
LINE
  5
2D2
330
A
100
AcDbEntity
  8
998-図枠
  6
Continuous
 62
     7
100
AcDbLine
 10
694.4250200184739
 20
17.08720726063618
 30
0.0
 11
694.4250200184739
 21
7.087207260636177
 31
0.0
  0
LINE
  5
2D3
330
A
100
AcDbEntity
  8
998-図枠
  6
Continuous
 62
     7
100
AcDbLine
 10
744.4250200184739
 20
294.0872072606362
 30
0.0
 11
744.4250200184739
 21
304.0872072606362
 31
0.0
  0
LINE
  5
2D4
330
A
100
AcDbEntity
  8
998-図枠
  6
Continuous
 62
     7
100
AcDbLine
 10
744.4238054633739
 20
17.08720726063618
 30
0.0
 11
744.4238054633739
 21
7.087207260636177
 31
0.0
  0
LINE
  5
2D5
330
A
100
AcDbEntity
  8
998-図枠
  6
Continuous
 62
     7
100
AcDbLine
 10
794.4250200184739
 20
294.0872072606362
 30
0.0
 11
794.4250200184739
 21
304.0872072606362
 31
0.0
  0
LINE
  5
2D6
330
A
100
AcDbEntity
  8
998-図枠
  6
Continuous
 62
     7
100
AcDbLine
 10
794.428935196974
 20
17.08720726063618
 30
0.0
 11
794.428935196974
 21
7.087207260636177
 31
0.0
  0
LINE
  5
2D7
330
A
100
AcDbEntity
  8
998-図枠
  6
Continuous
 62
     7
100
AcDbLine
 10
844.4250200184739
 20
255.5872072606362
 30
0.0
 11
854.4250200184739
 21
255.5872072606362
 31
0.0
  0
LINE
  5
2D8
330
A
100
AcDbEntity
  8
998-図枠
  6
Continuous
 62
     7
100
AcDbLine
 10
444.4250200184739
 20
255.5872072606362
 30
0.0
 11
434.4250200184739
 21
255.5872072606362
 31
0.0
  0
LINE
  5
2D9
330
A
100
AcDbEntity
  8
998-図枠
  6
Continuous
 62
     7
100
AcDbLine
 10
844.4250200184739
 20
205.5872072606362
 30
0.0
 11
854.4250200184739
 21
205.5872072606362
 31
0.0
  0
LINE
  5
2DA
330
A
100
AcDbEntity
  8
998-図枠
  6
Continuous
 62
     7
100
AcDbLine
 10
444.4250200184739
 20
205.5872072606362
 30
0.0
 11
434.4250200184739
 21
205.5872072606362
 31
0.0
  0
LINE
  5
2DB
330
A
100
AcDbEntity
  8
998-図枠
  6
Continuous
 62
     7
100
AcDbLine
 10
449.4250200184739
 20
155.5872072606362
 30
0.0
 11
434.4250200184739
 21
155.5872072606362
 31
0.0
  0
LINE
  5
2DC
330
A
100
AcDbEntity
  8
998-図枠
  6
Continuous
 62
     7
100
AcDbLine
 10
844.4250200184739
 20
105.5872072606362
 30
0.0
 11
854.4250200184739
 21
105.5872072606362
 31
0.0
  0
LINE
  5
2DD
330
A
100
AcDbEntity
  8
998-図枠
  6
Continuous
 62
     7
100
AcDbLine
 10
444.4250200184739
 20
105.5872072606362
 30
0.0
 11
434.4250200184739
 21
105.5872072606362
 31
0.0
  0
LINE
  5
2DE
330
A
100
AcDbEntity
  8
998-図枠
  6
Continuous
 62
     7
100
AcDbLine
 10
844.4250200184739
 20
55.58720726063618
 30
0.0
 11
854.4250200184739
 21
55.58720726063618
 31
0.0
  0
LINE
  5
2DF
330
A
100
AcDbEntity
  8
998-図枠
  6
Continuous
 62
     7
100
AcDbLine
 10
444.4250200184739
 20
55.58720726063618
 30
0.0
 11
434.4250200184739
 21
55.58720726063618
 31
0.0
  0
LINE
  5
2E0
330
A
100
AcDbEntity
  8
998-図枠
 62
     7
100
AcDbLine
 10
827.1879449296739
 20
17.08720726063618
 30
0.0
 11
827.1808425579738
 21
33.56932001303618
 31
0.0
  0
LINE
  5
2E1
330
A
100
AcDbEntity
  8
998-図枠
 62
     7
100
AcDbLine
 10
767.4622168124739
 20
71.47692749813618
 30
0.0
 11
844.4250200184739
 21
71.47692749813618
 31
0.0
  0
LINE
  5
2E2
330
A
100
AcDbEntity
  8
998-図枠
 62
     7
100
AcDbLine
 10
694.4250200184739
 20
17.08720726063618
 30
0.0
 11
694.4250200184739
 21
78.50551120903617
 31
0.0
  0
LINE
  5
2E3
330
A
100
AcDbEntity
  8
998-図枠
 62
     7
100
AcDbLine
 10
767.4622168124739
 20
71.47692749813618
 30
0.0
 11
694.4250200184739
 21
71.47692749813618
 31
0.0
  0
LINE
  5
2E4
330
A
100
AcDbEntity
  8
998-図枠
 62
     7
100
AcDbLine
 10
767.4622168124739
 20
26.55297609283618
 30
0.0
 11
694.4250200184739
 21
26.55297609283618
 31
0.0
  0
LINE
  5
2E5
330
A
100
AcDbEntity
  8
998-図枠
 62
     7
100
AcDbLine
 10
734.0171929817739
 20
17.08720726063618
 30
0.0
 11
734.0100906100739
 21
33.56932001303618
 31
0.0
  0
LINE
  5
2E6
330
A
100
AcDbEntity
  8
998-図枠
 62
     7
100
AcDbLine
 10
644.4250200184739
 20
17.08720726063618
 30
0.0
 11
644.4250200184739
 21
78.50551120903617
 31
0.0
  0
LINE
  5
2E7
330
A
100
AcDbEntity
  8
998-図枠
 62
     7
100
AcDbLine
 10
694.4250200184739
 20
71.47692749813618
 30
0.0
 11
644.4250200184739
 21
71.47692749813618
 31
0.0
  0
LINE
  5
2E8
330
A
100
AcDbEntity
  8
998-図枠
  6
Continuous
 62
     7
100
AcDbLine
 10
662.102756646774
 20
71.47692749813618
 30
0.0
 11
662.102756646774
 21
17.08720726063618
 31
0.0
  0
LINE
  5
2E9
330
A
100
AcDbEntity
  8
998-図枠
 62
     7
100
AcDbLine
 10
644.4250200184739
 20
31.03433793163618
 30
0.0
 11
694.4250200184739
 21
31.03433793163618
 31
0.0
  0
LINE
  5
2EA
330
A
100
AcDbEntity
  8
998-図枠
 62
     7
100
AcDbLine
 10
644.4250200184739
 20
57.80057604053618
 30
0.0
 11
694.4250200184739
 21
57.80057604053618
 31
0.0
  0
LINE
  5
2EB
330
A
100
AcDbEntity
  8
998-図枠
 62
     7
100
AcDbLine
 10
694.4250200184739
 20
44.56782911033618
 30
0.0
 11
644.4250200184739
 21
44.56782911033618
 31
0.0
  0
LINE
  5
2EC
330
A
100
AcDbEntity
  8
998-図枠
 62
     7
100
AcDbLine
 10
694.4250200184739
 20
24.04344574313618
 30
0.0
 11
644.4250200184739
 21
24.04344574313618
 31
0.0
  0
LINE
  5
2ED
330
A
100
AcDbEntity
  8
998-図枠
 62
     7
100
AcDbLine
 10
644.4250200184739
 20
24.04344574313618
 30
0.0
 11
444.4250200184739
 21
24.04344574313618
 31
0.0
  0
LINE
  5
2EE
330
A
100
AcDbEntity
  8
998-図枠
 62
     7
100
AcDbLine
 10
644.4250200184739
 20
31.03433793163618
 30
0.0
 11
444.4250200184739
 21
31.03433793163618
 31
0.0
  0
LINE
  5
2EF
330
A
100
AcDbEntity
  8
998-図枠
 62
     7
100
AcDbLine
 10
644.4250200184739
 20
37.57215719133617
 30
0.0
 11
444.4250200184739
 21
37.57215719133617
 31
0.0
  0
LINE
  5
2F0
330
A
100
AcDbEntity
  8
998-図枠
 62
     7
100
AcDbLine
 10
644.4250200184739
 20
44.56782911033618
 30
0.0
 11
444.4250200184739
 21
44.56782911033618
 31
0.0
  0
LINE
  5
2F1
330
A
100
AcDbEntity
  8
998-図枠
 62
     7
100
AcDbLine
 10
644.4250200184739
 20
51.02144370343618
 30
0.0
 11
444.4250200184739
 21
51.02144370343618
 31
0.0
  0
LINE
  5
2F2
330
A
100
AcDbEntity
  8
998-図枠
 62
     7
100
AcDbLine
 10
644.4250200184739
 20
57.80057604053618
 30
0.0
 11
444.4250200184739
 21
57.80057604053618
 31
0.0
  0
LINE
  5
2F3
330
A
100
AcDbEntity
  8
998-図枠
 62
     7
100
AcDbLine
 10
644.4250200184739
 20
65.01843800253619
 30
0.0
 11
444.4250200184739
 21
65.01843800253619
 31
0.0
  0
LINE
  5
2F4
330
A
100
AcDbEntity
  8
998-図枠
 62
     7
100
AcDbLine
 10
644.4250200184739
 20
71.47692749813618
 30
0.0
 11
444.4250200184739
 21
71.47692749813618
 31
0.0
  0
LINE
  5
2F5
330
A
100
AcDbEntity
  8
998-図枠
 62
     7
100
AcDbLine
 10
456.1812386340739
 20
17.08720726063618
 30
0.0
 11
456.1812386340739
 21
78.50551120903617
 31
0.0
  0
LINE
  5
2F6
330
A
100
AcDbEntity
  8
998-図枠
 62
     7
100
AcDbLine
 10
604.452730022274
 20
17.08720726063618
 30
0.0
 11
604.452730022274
 21
78.50551120903617
 31
0.0
  0
LINE
  5
2F7
330
A
100
AcDbEntity
  8
998-図枠
 62
     7
100
AcDbLine
 10
594.4250200184739
 20
17.08720726063618
 30
0.0
 11
594.4250200184739
 21
78.50551120903617
 31
0.0
  0
LINE
  5
2F8
330
A
100
AcDbEntity
  8
997-図枠_文字
  6
Continuous
 62
     7
100
AcDbLine
 10
715.8117841364739
 20
23.91514224613618
 30
0.0
 11
722.4194475615739
 21
24.91815429432766
 31
0.0
  0
LINE
  5
2F9
330
A
100
AcDbEntity
  8
997-図枠_文字
  6
Continuous
 62
     7
100
AcDbLine
 10
725.9316290217739
 20
21.91514224613618
 30
0.0
 11
703.1520566132739
 21
21.91514224613618
 31
0.0
  0
LINE
  5
2FA
330
A
100
AcDbEntity
  8
997-図枠_文字
  6
Continuous
 62
     7
100
AcDbLine
 10
707.9880984401739
 20
25.78669541813618
 30
0.0
 11
707.9880984401739
 21
17.78669541813618
 31
0.0
  0
LINE
  5
2FB
330
A
100
AcDbEntity
  8
997-図枠_文字
  6
Continuous
 62
     7
100
AcDbLine
 10
715.8117841364739
 20
19.91514224613618
 30
0.0
 11
722.4194475615739
 21
18.91813625811096
 31
0.0
  0
LINE
  5
2FC
330
A
100
AcDbEntity
  8
997-図枠_文字
  6
Continuous
 62
     7
100
AcDbLine
 10
715.8117841364739
 20
23.91514224613618
 30
0.0
 11
715.8117841364739
 21
19.91514224613618
 31
0.0
  0
CIRCLE
  5
2FD
330
A
100
AcDbEntity
  8
997-図枠_文字
  6
Continuous
 62
     7
100
AcDbCircle
 10
707.9880984401739
 20
21.91514224613618
 30
0.0
 40
2.999999999999964
  0
CIRCLE
  5
2FE
330
A
100
AcDbEntity
  8
997-図枠_文字
  6
Continuous
 62
     7
100
AcDbCircle
 10
707.9880984401739
 20
21.91514224613618
 30
0.0
 40
1.999999999999994
  0
MTEXT
  5
300
330
A
100
AcDbEntity
  8
998-図枠
  6
Continuous
 62
     7
100
AcDbMText
 10
849.0387263792738
 20
32.64022530383617
 30
0.0
 40
3.5
 41
0.0
 46
0.0
 71
     2
 72
     1
  1
F
  7
SLDTEXTSTYLE0
 73
     1
 44
1.0
  0
MTEXT
  5
301
330
A
100
AcDbEntity
  8
998-図枠
  6
Continuous
 62
     7
100
AcDbMText
 10
847.7731389288739
 20
282.0525263980362
 30
0.0
 40
3.5
 41
0.0
 46
0.0
 71
     2
 72
     1
  1
A
  7
SLDTEXTSTYLE0
 73
     1
 44
1.0
  0
MTEXT
  5
302
330
A
100
AcDbEntity
  8
998-図枠
  6
Continuous
 62
     7
100
AcDbMText
 10
848.4193628529739
 20
182.8404066821362
 30
0.0
 40
3.5
 41
0.0
 46
0.0
 71
     2
 72
     1
  1
C
  7
SLDTEXTSTYLE0
 73
     1
 44
1.0
  0
MTEXT
  5
303
330
A
100
AcDbEntity
  8
998-図枠
  6
Continuous
 62
     7
100
AcDbMText
 10
848.9455782069739
 20
82.84040668213618
 30
0.0
 40
3.5
 41
0.0
 46
0.0
 71
     2
 72
     1
  1
E
  7
SLDTEXTSTYLE0
 73
     1
 44
1.0
  0
MTEXT
  5
304
330
A
100
AcDbEntity
  8
998-図枠
  6
Continuous
 62
     7
100
AcDbMText
 10
847.8724878529739
 20
232.8404066821362
 30
0.0
 40
3.5
 41
0.0
 46
0.0
 71
     2
 72
     1
  1
B
  7
SLDTEXTSTYLE0
 73
     1
 44
1.0
  0
MTEXT
  5
305
330
A
100
AcDbEntity
  8
998-図枠
  6
Continuous
 62
     7
100
AcDbMText
 10
848.415716941174
 20
132.8404066821362
 30
0.0
 40
3.5
 41
0.0
 46
0.0
 71
     2
 72
     1
  1
D
  7
SLDTEXTSTYLE0
 73
     1
 44
1.0
  0
MTEXT
  5
306
330
A
100
AcDbEntity
  8
998-図枠
  6
Continuous
 62
     7
100
AcDbMText
 10
520.7149142979739
 20
299.0830088460361
 30
0.0
 40
3.5
 41
0.0
 46
0.0
 71
     2
 72
     1
  1
2
  7
SLDTEXTSTYLE0
 73
     1
 44
1.0
  0
MTEXT
  5
307
330
A
100
AcDbEntity
  8
998-図枠
  6
Continuous
 62
     7
100
AcDbMText
 10
465.8743998655739
 20
299.0830088460361
 30
0.0
 40
3.5
 41
0.0
 46
0.0
 71
     2
 72
     1
  1
1
  7
SLDTEXTSTYLE0
 73
     1
 44
1.0
  0
MTEXT
  5
308
330
A
100
AcDbEntity
  8
998-図枠
  6
Continuous
 62
     7
100
AcDbMText
 10
770.8668622020739
 20
299.0830088460361
 30
0.0
 40
3.5
 41
0.0
 46
0.0
 71
     2
 72
     1
  1
7
  7
SLDTEXTSTYLE0
 73
     1
 44
1.0
  0
MTEXT
  5
309
330
A
100
AcDbEntity
  8
998-図枠
  6
Continuous
 62
     7
100
AcDbMText
 10
670.4961932996739
 20
299.0830088460361
 30
0.0
 40
3.5
 41
0.0
 46
0.0
 71
     2
 72
     1
  1
5
  7
SLDTEXTSTYLE0
 73
     1
 44
1.0
  0
MTEXT
  5
30A
330
A
100
AcDbEntity
  8
998-図枠
  6
Continuous
 62
     7
100
AcDbMText
 10
570.8809126665739
 20
299.0830088460361
 30
0.0
 40
3.5
 41
0.0
 46
0.0
 71
     2
 72
     1
  1
3
  7
SLDTEXTSTYLE0
 73
     1
 44
1.0
  0
MTEXT
  5
30B
330
A
100
AcDbEntity
  8
998-図枠
  6
Continuous
 62
     7
100
AcDbMText
 10
825.8383030788739
 20
299.0166893073362
 30
0.0
 40
3.5
 41
0.0
 46
0.0
 71
     2
 72
     1
  1
8
  7
SLDTEXTSTYLE0
 73
     1
 44
1.0
  0
MTEXT
  5
30C
330
A
100
AcDbEntity
  8
998-図枠
  6
Continuous
 62
     7
100
AcDbMText
 10
720.7990526096739
 20
299.0830088460361
 30
0.0
 40
3.5
 41
0.0
 46
0.0
 71
     2
 72
     1
  1
6
  7
SLDTEXTSTYLE0
 73
     1
 44
1.0
  0
MTEXT
  5
30D
330
A
100
AcDbEntity
  8
998-図枠
  6
Continuous
 62
     7
100
AcDbMText
 10
620.7817348991739
 20
299.0830088460361
 30
0.0
 40
3.5
 41
0.0
 46
0.0
 71
     2
 72
     1
  1
4
  7
SLDTEXTSTYLE0
 73
     1
 44
1.0
  0
MTEXT
  5
30E
330
A
100
AcDbEntity
  8
998-図枠
  6
Continuous
 62
     7
100
AcDbMText
 10
440.6070083028739
 20
132.8404066821362
 30
0.0
 40
3.5
 41
0.0
 46
0.0
 71
     2
 72
     1
  1
D
  7
SLDTEXTSTYLE0
 73
     1
 44
1.0
  0
MTEXT
  5
30F
330
A
100
AcDbEntity
  8
998-図枠
  6
Continuous
 62
     7
100
AcDbMText
 10
440.6106542146739
 20
182.8404066821362
 30
0.0
 40
3.5
 41
0.0
 46
0.0
 71
     2
 72
     1
  1
C
  7
SLDTEXTSTYLE0
 73
     1
 44
1.0
  0
MTEXT
  5
310
330
A
100
AcDbEntity
  8
998-図枠
  6
Continuous
 62
     7
100
AcDbMText
 10
440.0637792146739
 20
232.9618673392362
 30
0.0
 40
3.5
 41
0.0
 46
0.0
 71
     2
 72
     1
  1
B
  7
SLDTEXTSTYLE0
 73
     1
 44
1.0
  0
MTEXT
  5
311
330
A
100
AcDbEntity
  8
998-図枠
  6
Continuous
 62
     7
100
AcDbMText
 10
440.6531889357739
 20
82.84040668213618
 30
0.0
 40
3.5
 41
0.0
 46
0.0
 71
     2
 72
     1
  1
E
  7
SLDTEXTSTYLE0
 73
     1
 44
1.0
  0
MTEXT
  5
312
330
A
100
AcDbEntity
  8
998-図枠
  6
Continuous
 62
     7
100
AcDbMText
 10
824.544015381674
 20
15.41936089403618
 30
0.0
 40
3.5
 41
0.0
 46
0.0
 71
     2
 72
     1
  1
8
  7
SLDTEXTSTYLE0
 73
     1
 44
1.0
  0
MTEXT
  5
313
330
A
100
AcDbEntity
  8
998-図枠
  6
Continuous
 62
     7
100
AcDbMText
 10
569.5004820713739
 20
15.48568043273618
 30
0.0
 40
3.5
 41
0.0
 46
0.0
 71
     2
 72
     1
  1
3
  7
SLDTEXTSTYLE0
 73
     1
 44
1.0
  0
MTEXT
  5
314
330
A
100
AcDbEntity
  8
998-図枠
  6
Continuous
 62
     7
100
AcDbMText
 10
619.404967957074
 20
15.48568060743618
 30
0.0
 40
3.5
 41
0.0
 46
0.0
 71
     2
 72
     1
  1
4
  7
SLDTEXTSTYLE0
 73
     1
 44
1.0
  0
MTEXT
  5
315
330
A
100
AcDbEntity
  8
998-図枠
  6
Continuous
 62
     7
100
AcDbMText
 10
669.4143863058739
 20
15.48568043273618
 30
0.0
 40
3.5
 41
0.0
 46
0.0
 71
     2
 72
     1
  1
5
  7
SLDTEXTSTYLE0
 73
     1
 44
1.0
  0
MTEXT
  5
316
330
A
100
AcDbEntity
  8
998-図枠
  6
Continuous
 62
     7
100
AcDbMText
 10
719.422285667474
 20
15.48568043273618
 30
0.0
 40
3.5
 41
0.0
 46
0.0
 71
     2
 72
     1
  1
6
  7
SLDTEXTSTYLE0
 73
     1
 44
1.0
  0
MTEXT
  5
317
330
A
100
AcDbEntity
  8
998-図枠
  6
Continuous
 62
     7
100
AcDbMText
 10
769.418336044874
 20
15.48568043273618
 30
0.0
 40
3.5
 41
0.0
 46
0.0
 71
     2
 72
     1
  1
7
  7
SLDTEXTSTYLE0
 73
     1
 44
1.0
  0
MTEXT
  5
318
330
A
100
AcDbEntity
  8
998-図枠
  6
Continuous
 62
     7
100
AcDbMText
 10
439.9644302904739
 20
282.0548267218362
 30
0.0
 40
3.5
 41
0.0
 46
0.0
 71
     2
 72
     1
  1
A
  7
SLDTEXTSTYLE0
 73
     1
 44
1.0
  0
MTEXT
  5
319
330
A
100
AcDbEntity
  8
998-図枠
  6
Continuous
 62
     7
100
AcDbMText
 10
519.4092214236739
 20
15.48568043273618
 30
0.0
 40
3.5
 41
0.0
 46
0.0
 71
     2
 72
     1
  1
2
  7
SLDTEXTSTYLE0
 73
     1
 44
1.0
  0
MTEXT
  5
31A
330
A
100
AcDbEntity
  8
998-図枠
  6
Continuous
 62
     7
100
AcDbMText
 10
464.4976329233739
 20
15.48568043273618
 30
0.0
 40
3.5
 41
0.0
 46
0.0
 71
     2
 72
     1
  1
1
  7
SLDTEXTSTYLE0
 73
     1
 44
1.0
  0
MTEXT
  5
31B
330
A
100
AcDbEntity
  8
998-図枠
  6
Continuous
 62
     7
100
AcDbMText
 10
440.6471125048739
 20
33.61610123163618
 30
0.0
 40
3.5
 41
0.0
 46
0.0
 71
     2
 72
     1
  1
F
  7
SLDTEXTSTYLE0
 73
     1
 44
1.0
  0
MTEXT
  5
31C
330
A
100
AcDbEntity
  8
997-図枠_文字
  6
Continuous
 62
     7
100
AcDbMText
 10
767.4622168124739
 20
77.07421670017615
 30
0.0
 40
3.0
 41
76.3627948466866
 46
3.135
 71
     1
 72
     1
  1
{\W7.93187;  \W1;品番 / PART NO.}
 73
     1
 44
1.0
  0
MTEXT
  5
31D
330
A
100
AcDbEntity
  8
997-図枠_文字
  6
Continuous
 62
     7
100
AcDbMText
 10
831.7793045959136
 20
27.17436808759843
 30
0.0
 40
5.0
 41
0.0
 46
0.0
 71
     1
 72
     1
  1
1/1
 73
     1
 44
1.0
  0
MTEXT
  5
31E
330
A
100
AcDbEntity
  8
997-図枠_文字
  6
Continuous
 62
     7
100
AcDbMText
 10
697.72441024395
 20
77.01046912587506
 30
0.0
 40
3.0
 41
0.0
 46
3.135
 71
     1
 72
     1
  1
{消費電力 / POWER CONSUMPTION}
 73
     1
 44
1.0
  0
MTEXT
  5
31F
330
A
100
AcDbEntity
  8
997-図枠_文字
  6
Continuous
 62
     7
100
AcDbMText
 10
715.3115119983922
 20
61.63523253761206
 30
0.0
 40
3.0
 41
37.62378883580891
 46
3.135
 71
     1
 72
     1
  1
\pi6.34839,l0;光源 / LIGHT
 73
     1
 44
1.0
  0
MTEXT
  5
320
330
A
100
AcDbEntity
  8
997-図枠_文字
  6
Continuous
 62
     7
100
AcDbMText
 10
739.8705404526331
 20
31.53684443533899
 30
0.0
 40
2.5
 41
0.0
 46
0.0
 71
     1
 72
     1
  1
尺度 / SCALE
 73
     1
 44
1.0
  0
MTEXT
  5
321
330
A
100
AcDbEntity
  8
997-図枠_文字
  6
Continuous
 62
     7
100
AcDbMText
 10
700.2921445887474
 20
31.11005203769389
 30
0.0
 40
2.0
 41
0.0
 46
0.0
 71
     1
 72
     1
  1
投影法 / PROJECTION
 73
     1
 44
1.0
  0
MTEXT
  5
322
330
A
100
AcDbEntity
  8
997-図枠_文字
  6
Continuous
 62
     7
100
AcDbMText
 10
657.5562839432483
 20
76.882401329739
 30
0.0
 40
3.0
 41
0.0
 46
0.0
 71
     1
 72
     1
  1
名前 / NAME
 73
     1
 44
1.0
  0
MTEXT
  5
323
330
A
100
AcDbEntity
  8
997-図枠_文字
  6
Continuous
 62
     7
100
AcDbMText
 10
649.192610518988
 20
66.27171173853898
 30
0.0
 40
3.0
 41
0.0
 46
0.0
 71
     1
 72
     1
  1
検認
 73
     1
 44
1.0
  0
MTEXT
  5
324
330
A
100
AcDbEntity
  8
997-図枠_文字
  6
Continuous
 62
     7
100
AcDbMText
 10
649.184954814688
 20
53.03767017463899
 30
0.0
 40
3.0
 41
0.0
 46
0.0
 71
     1
 72
     1
  1
検認
 73
     1
 44
1.0
  0
MTEXT
  5
325
330
A
100
AcDbEntity
  8
997-図枠_文字
  6
Continuous
 62
     7
100
AcDbMText
 10
649.6638111882796
 20
39.33240247093899
 30
0.0
 40
3.0
 41
0.0
 46
0.0
 71
     1
 72
     1
  1
設計
 73
     1
 44
1.0
  0
MTEXT
  5
326
330
A
100
AcDbEntity
  8
997-図枠_文字
  6
Continuous
 62
     7
100
AcDbMText
 10
650.3537592959941
 20
22.45436172445741
 30
0.0
 40
3.0
 41
0.0
 46
0.0
 71
     1
 72
     1
  1
日付
 73
     1
 44
1.0
  0
MTEXT
  5
327
330
A
100
AcDbEntity
  8
997-図枠_文字
  6
Continuous
 62
     7
100
AcDbMText
 10
649.6620564417875
 20
29.35909452813899
 30
0.0
 40
3.0
 41
0.0
 46
0.0
 71
     1
 72
     1
  1
製図
 73
     1
 44
1.0
  0
MTEXT
  5
328
330
A
100
AcDbEntity
  8
997-図枠_文字
  6
Continuous
 62
     7
100
AcDbMText
 10
447.5426117176845
 20
22.01046852664323
 30
0.0
 40
3.0
 41
0.0
 46
0.0
 71
     1
 72
     1
  1
NO.
 73
     1
 44
1.0
  0
MTEXT
  5
329
330
A
100
AcDbEntity
  8
997-図枠_文字
  6
Continuous
 62
     7
100
AcDbMText
 10
492.5987979223739
 20
22.42253054363618
 30
0.0
 40
3.0
 41
0.0
 46
0.0
 71
     1
 72
     1
  1
改定履歴 / REVISION HISTORY
 73
     1
 44
1.0
  0
MTEXT
  5
32A
330
A
100
AcDbEntity
  8
997-図枠_文字
  6
Continuous
 62
     7
100
AcDbMText
 10
595.9294109376808
 20
22.36282011421429
 30
0.0
 40
3.0
 41
0.0
 46
0.0
 71
     1
 72
     1
  1
日付
 73
     1
 44
1.0
  0
MTEXT
  5
32B
330
A
100
AcDbEntity
  8
997-図枠_文字
  6
Continuous
 62
     7
100
AcDbMText
 10
612.3482973938056
 20
22.2164995351397
 30
0.0
 40
3.0
 41
0.0
 46
0.0
 71
     1
 72
     1
  1
名前 / NAME
 73
     1
 44
1.0
  0
MTEXT
  5
32C
330
A
100
AcDbEntity
  8
997-図枠_文字
  6
Continuous
 62
     7
100
AcDbMText
 10
783.1274916396471
 20
61.6428889749418
 30
0.0
 40
3.0
 41
0.0
 46
3.135
 71
     1
 72
     1
  1
{品名 / DRAWING NAME}
 73
     1
 44
1.0
  0
LINE
  5
32D
330
A
100
AcDbEntity
  8
997-図枠_文字
  6
Continuous
 62
     7
100
AcDbLine
 10
722.4194475615739
 20
24.91815429432766
 30
0.0
 11
722.4194475615739
 21
18.91813625811096
 31
0.0
  0
LINE
  5
32E
330
A
100
AcDbEntity
  8
998-図枠
 62
     7
100
AcDbLine
 10
767.4622168124739
 20
41.32755240213618
 30
0.0
 11
694.4250200184739
 21
41.32755240213618
 31
0.0
  0
LINE
  5
32F
330
A
100
AcDbEntity
  8
998-図枠
 62
     7
100
AcDbLine
 10
767.4622168124739
 20
41.32755240213618
 30
0.0
 11
844.4250200184739
 21
41.32755240213618
 31
0.0
  0
LINE
  5
330
330
A
100
AcDbEntity
  8
0
 62
     7
100
AcDbLine
 10
694.4250200184739
 20
63.53206737938618
 30
0.0
 11
844.4250200184739
 21
63.53206737938618
 31
0.0
  0
LINE
  5
331
330
A
100
AcDbEntity
  8
0
 62
     7
100
AcDbLine
 10
694.4250200184739
 20
48.45737983138618
 30
0.0
 11
844.4250200184739
 21
48.45737983138616
 31
0.0
  0
MTEXT
  5
332
330
A
100
AcDbEntity
  8
997-図枠_文字
  6
Continuous
 62
     7
100
AcDbMText
 10
697.0916305807398
 20
47.04578048665921
 30
0.0
 40
3.0
 41
72.17167895256382
 46
2.6125
 71
     1
 72
     1
  1
{\fMS PGothic|b0|i0|c0|p0;\W8.14685;  }重量 / WEIGHT
 73
     1
 44
1.0
  0
MTEXT
  5
333
330
A
100
AcDbEntity
  8
997-図枠_文字
  6
Continuous
 62
     7
100
AcDbMText
 10
805.9436184154739
 20
44.89246611676118
 30
0.0
 40
3.0
 41
76.96280320599999
 46
3.135
 71
     5
 72
     1
  1
{コード番号 / CODE NO.}
 73
     1
 44
1.0
  0
LINE
  5
334
330
A
100
AcDbEntity
  8
0
 62
     7
100
AcDbLine
 10
694.4250200184739
 20
56.21561222048619
 30
0.0
 11
844.4250200184739
 21
56.21561222048617
 31
0.0
  0
MTEXT
  5
337
330
A
100
AcDbEntity
  8
997-図枠_文字
  6
Continuous
 62
     7
100
AcDbMText
 10
730.8333681674883
 20
69.3951421661805
 30
0.0
 40
3.0
 41
73.25769728997102
 46
3.408
 71
     2
 72
     1
  1
{\pxqc;約8.2W}
 73
     1
 44
1.0
  0
MTEXT
  5
338
330
A
100
AcDbEntity
  8
997-図枠_文字
  6
Continuous
 62
     7
100
AcDbMText
 10
730.9978511486388
 20
53.75748570002855
 30
0.0
 40
3.0
 41
72.61422673335937
 46
3.273
 71
     2
 72
     1
  1
{モジュール：電球色}
 73
     1
 44
1.0
  0
MTEXT
  5
339
330
A
100
AcDbEntity
  8
997-図枠_文字
  6
Continuous
 62
     7
100
AcDbMText
 10
730.8981025088952
 20
37.42167324946556
 30
0.0
 40
3.0
 41
71.0461698193127
 46
3.579
 71
     5
 72
     1
  1
{\pxqc;約0.3kg}
 73
     1
 44
1.0
  0
MTEXT
  5
33A
330
A
100
AcDbEntity
  8
997-図枠_文字
  6
Continuous
 62
     7
100
AcDbMText
 10
750.8052690537934
 20
21.79297465008649
 30
0.0
 40
3.0
 41
32.84561120864851
 46
3.0
 71
     5
 72
     1
  1
{\pxqc;1 : 1}
 73
     1
 44
1.0
  0
MTEXT
  5
33B
330
A
100
AcDbEntity
  8
997-図枠_文字
  6
Continuous
 62
     7
100
AcDbMText
 10
678.4925686312431
 20
20.46609341269874
 30
0.0
 40
3.0
 41
31.4804233856886
 46
3.135
 71
     5
 72
     1
  1
{\pxqc;2019/10/21}
 73
     1
 44
1.0
  0
MTEXT
  5
33C
330
A
100
AcDbEntity
  8
997-図枠_文字
  6
Continuous
 62
     7
100
AcDbMText
 10
678.3199184661582
 20
27.09049172606914
 30
0.0
 40
3.0
 41
31.4804233856886
 46
3.255
 71
     5
 72
     1
  1
{\pxqc;岩下}
 73
     1
 44
1.0
  0
MTEXT
  5
33D
330
A
100
AcDbEntity
  8
997-図枠_文字
  6
Continuous
 62
     7
100
AcDbMText
 10
677.8121896692908
 20
37.37199986263559
 30
0.0
 40
3.0
 41
31.4804233856886
 46
3.357
 71
     5
 72
     1
  1
{\pxqc;小林}
 73
     1
 44
1.0
  0
HATCH
  5
5DA
330
A
100
AcDbEntity
  8
997-図枠_文字
  6
Continuous
 62
     7
100
AcDbHatch
 10
0.0
 20
0.0
 30
0.0
210
0.0
220
0.0
230
1.0
  2
SOLID
 70
     1
 71
     0
 91
        1
 92
        0
 93
        2
 72
     4
 94
        3
 73
     1
 74
     0
 95
       11
 96
        7
 40
0.0
 40
0.0
 40
0.0
 40
0.0
 40
1.0
 40
1.0
 40
1.0
 40
2.0
 40
2.0
 40
2.0
 40
2.0
 10
795.8645197850324
 20
29.77539289613929
 42
1.0
 10
795.6154531618308
 20
29.77539289613929
 42
1.0
 10
795.410566443132
 20
29.9787844433975
 42
1.0
 10
795.410566443132
 20
30.22823691729346
 42
1.0
 10
795.410566443132
 20
30.47754469717904
 42
1.0
 10
795.6154531618308
 20
30.68219025919383
 42
1.0
 10
795.8645197850324
 20
30.68219025919383
 42
1.0
 97
        0
 72
     4
 94
        3
 73
     1
 74
     0
 95
       11
 96
        7
 40
2.0
 40
2.0
 40
2.0
 40
2.0
 40
3.0
 40
3.0
 40
3.0
 40
4.0
 40
4.0
 40
4.0
 40
4.0
 10
795.8645197850324
 20
30.68219025919383
 42
1.0
 10
796.103747215528
 20
30.68219025919383
 42
1.0
 10
796.3171226495026
 20
30.47754469717904
 42
1.0
 10
796.3171226495026
 20
30.22823691729346
 42
1.0
 10
796.3171226495026
 20
29.9787844433975
 42
1.0
 10
796.103747215528
 20
29.77539289613929
 42
1.0
 10
795.8645197850324
 20
29.77539289613929
 42
1.0
 97
        0
 97
        0
 75
     0
 76
     1
 98
        1
 10
436.0424502345815
 20
7.580733173484422
  0
HATCH
  5
5DD
330
A
100
AcDbEntity
  8
997-図枠_文字
  6
Continuous
 62
     7
100
AcDbHatch
 10
0.0
 20
0.0
 30
0.0
210
0.0
220
0.0
230
1.0
  2
SOLID
 70
     1
 71
     0
 91
        1
 92
        0
 93
        2
 72
     4
 94
        3
 73
     1
 74
     0
 95
       11
 96
        7
 40
0.0
 40
0.0
 40
0.0
 40
0.0
 40
1.0
 40
1.0
 40
1.0
 40
2.0
 40
2.0
 40
2.0
 40
2.0
 10
805.2464311867666
 20
29.77539289613929
 42
1.0
 10
804.9977504142594
 20
29.77539289613929
 42
1.0
 10
804.7925743075398
 20
29.9787844433975
 42
1.0
 10
804.7925743075398
 20
30.22823691729346
 42
1.0
 10
804.7925743075398
 20
30.47754469717904
 42
1.0
 10
804.9977504142594
 20
30.68219025919383
 42
1.0
 10
805.2464311867666
 20
30.68219025919383
 42
1.0
 97
        0
 72
     4
 94
        3
 73
     1
 74
     0
 95
       11
 96
        7
 40
2.0
 40
2.0
 40
2.0
 40
2.0
 40
3.0
 40
3.0
 40
3.0
 40
4.0
 40
4.0
 40
4.0
 40
4.0
 10
805.2464311867666
 20
30.68219025919383
 42
1.0
 10
805.4856586172623
 20
30.68219025919383
 42
1.0
 10
805.6994199019313
 20
30.47754469717904
 42
1.0
 10
805.6994199019313
 20
30.22823691729346
 42
1.0
 10
805.6994199019313
 20
29.9787844433975
 42
1.0
 10
805.4856586172623
 20
29.77539289613929
 42
1.0
 10
805.2464311867666
 20
29.77539289613929
 42
1.0
 97
        0
 97
        0
 75
     0
 76
     1
 98
        1
 10
436.0424502345815
 20
7.580733173484422
  0
MTEXT
  5
627
330
A
100
AcDbEntity
  8
997-図枠_文字
  6
Continuous
 62
     7
100
AcDbMText
 10
677.8121896692908
 20
50.90549104133559
 30
0.0
 40
3.0
 41
31.4804233856886
 46
3.357
 71
     5
 72
     1
  1
{\pxqc;小林}
 73
     1
 44
1.0
  0
MTEXT
  5
628
330
A
100
AcDbEntity
  8
997-図枠_文字
  6
Continuous
 62
     7
100
AcDbMText
 10
677.8121896692908
 20
64.1382379715356
 30
0.0
 40
3.0
 41
31.4804233856886
 46
3.357
 71
     5
 72
     1
  1
{\pxqc;原}
 73
     1
 44
1.0
  0
HATCH
  5
675
330
A
100
AcDbEntity
  8
997-図枠_文字
  6
Continuous
 62
     7
100
AcDbHatch
 10
0.0
 20
0.0
 30
0.0
210
0.0
220
0.0
230
1.0
  2
SOLID
 70
     1
 71
     0
 91
        1
 92
        0
 93
        2
 72
     4
 94
        3
 73
     1
 74
     0
 95
       11
 96
        7
 40
0.0
 40
0.0
 40
0.0
 40
0.0
 40
1.0
 40
1.0
 40
1.0
 40
2.0
 40
2.0
 40
2.0
 40
2.0
 10
796.0449888258868
 20
29.87445038116994
 42
1.0
 10
795.7959222026852
 20
29.87445038116994
 42
1.0
 10
795.5910354839864
 20
30.07784192842815
 42
1.0
 10
795.5910354839864
 20
30.32729440232411
 42
1.0
 10
795.5910354839864
 20
30.57660218220969
 42
1.0
 10
795.7959222026852
 20
30.78124774422448
 42
1.0
 10
796.0449888258868
 20
30.78124774422448
 42
1.0
 97
        0
 72
     4
 94
        3
 73
     1
 74
     0
 95
       11
 96
        7
 40
2.0
 40
2.0
 40
2.0
 40
2.0
 40
3.0
 40
3.0
 40
3.0
 40
4.0
 40
4.0
 40
4.0
 40
4.0
 10
796.0449888258868
 20
30.78124774422448
 42
1.0
 10
796.2842162563823
 20
30.78124774422448
 42
1.0
 10
796.497591690357
 20
30.57660218220969
 42
1.0
 10
796.497591690357
 20
30.32729440232411
 42
1.0
 10
796.497591690357
 20
30.07784192842815
 42
1.0
 10
796.2842162563823
 20
29.87445038116994
 42
1.0
 10
796.0449888258868
 20
29.87445038116994
 42
1.0
 97
        0
 97
        0
 75
     0
 76
     1
 98
        1
 10
436.222919275436
 20
7.679790658515071
  0
HATCH
  5
678
330
A
100
AcDbEntity
  8
997-図枠_文字
  6
Continuous
 62
     7
100
AcDbHatch
 10
0.0
 20
0.0
 30
0.0
210
0.0
220
0.0
230
1.0
  2
SOLID
 70
     1
 71
     0
 91
        1
 92
        0
 93
        2
 72
     4
 94
        3
 73
     1
 74
     0
 95
       11
 96
        7
 40
0.0
 40
0.0
 40
0.0
 40
0.0
 40
1.0
 40
1.0
 40
1.0
 40
2.0
 40
2.0
 40
2.0
 40
2.0
 10
805.426900227621
 20
29.87445038116994
 42
1.0
 10
805.1782194551138
 20
29.87445038116994
 42
1.0
 10
804.9730433483942
 20
30.07784192842815
 42
1.0
 10
804.9730433483942
 20
30.32729440232411
 42
1.0
 10
804.9730433483942
 20
30.57660218220969
 42
1.0
 10
805.1782194551138
 20
30.78124774422448
 42
1.0
 10
805.426900227621
 20
30.78124774422448
 42
1.0
 97
        0
 72
     4
 94
        3
 73
     1
 74
     0
 95
       11
 96
        7
 40
2.0
 40
2.0
 40
2.0
 40
2.0
 40
3.0
 40
3.0
 40
3.0
 40
4.0
 40
4.0
 40
4.0
 40
4.0
 10
805.426900227621
 20
30.78124774422448
 42
1.0
 10
805.6661276581167
 20
30.78124774422448
 42
1.0
 10
805.8798889427856
 20
30.57660218220969
 42
1.0
 10
805.8798889427856
 20
30.32729440232411
 42
1.0
 10
805.8798889427856
 20
30.07784192842815
 42
1.0
 10
805.6661276581167
 20
29.87445038116994
 42
1.0
 10
805.426900227621
 20
29.87445038116994
 42
1.0
 97
        0
 97
        0
 75
     0
 76
     1
 98
        1
 10
436.222919275436
 20
7.679790658515071
  0
HATCH
  5
682
330
A
100
AcDbEntity
  8
997-図枠_文字
  6
Continuous
 62
     7
100
AcDbHatch
 10
0.0
 20
0.0
 30
0.0
210
0.0
220
0.0
230
1.0
  2
SOLID
 70
     1
 71
     0
 91
        2
 92
        0
 93
        2
 72
     4
 94
        3
 73
     1
 74
     0
 95
       11
 96
        7
 40
0.0
 40
0.0
 40
0.0
 40
0.0
 40
1.0
 40
1.0
 40
1.0
 40
2.0
 40
2.0
 40
2.0
 40
2.0
 10
799.3296875555343
 20
22.39449351455036
 42
1.0
 10
798.7846734497678
 20
22.39449351455036
 42
1.0
 10
798.4596907024531
 20
21.96118318479755
 42
1.0
 10
798.4596907024531
 20
21.44182815020519
 42
1.0
 10
798.4596907024531
 20
20.92382359304304
 42
1.0
 10
798.7846734497678
 20
20.49032033794307
 42
1.0
 10
799.3296875555343
 20
20.49032033794307
 42
1.0
 97
        0
 72
     4
 94
        3
 73
     1
 74
     0
 95
       11
 96
        7
 40
2.0
 40
2.0
 40
2.0
 40
2.0
 40
3.0
 40
3.0
 40
3.0
 40
4.0
 40
4.0
 40
4.0
 40
4.0
 10
799.3296875555343
 20
20.49032033794307
 42
1.0
 10
799.873737034565
 20
20.49032033794307
 42
1.0
 10
800.1995879459419
 20
20.92382359304304
 42
1.0
 10
800.1995879459419
 20
21.44182815020519
 42
1.0
 10
800.1995879459419
 20
21.96118318479755
 42
1.0
 10
799.873737034565
 20
22.39449351455036
 42
1.0
 10
799.3296875555343
 20
22.39449351455036
 42
1.0
 97
        0
 97
        0
 92
        0
 93
        2
 72
     4
 94
        3
 73
     1
 74
     0
 95
       11
 96
        7
 40
2.0
 40
2.0
 40
2.0
 40
2.0
 40
3.0
 40
3.0
 40
3.0
 40
4.0
 40
4.0
 40
4.0
 40
4.0
 10
799.3296875555343
 20
20.74980492989207
 42
1.0
 10
798.9395925035485
 20
20.74980492989207
 42
1.0
 10
798.777342286575
 20
21.09417667459766
 42
1.0
 10
798.777342286575
 20
21.44182815020519
 42
1.0
 10
798.777342286575
 20
21.79063717789577
 42
1.0
 10
798.9395925035485
 20
22.13481599725416
 42
1.0
 10
799.3296875555343
 20
22.13481599725416
 42
1.0
 97
        0
 72
     4
 94
        3
 73
     1
 74
     0
 95
       11
 96
        7
 40
0.0
 40
0.0
 40
0.0
 40
0.0
 40
1.0
 40
1.0
 40
1.0
 40
2.0
 40
2.0
 40
2.0
 40
2.0
 10
799.3296875555343
 20
22.13481599725416
 42
1.0
 10
799.7189144434578
 20
22.13481599725416
 42
1.0
 10
799.8811646604311
 20
21.79063717789577
 42
1.0
 10
799.8811646604311
 20
21.44182815020519
 42
1.0
 10
799.8811646604311
 20
21.09417667459766
 42
1.0
 10
799.7189144434578
 20
20.74980492989207
 42
1.0
 10
799.3296875555343
 20
20.74980492989207
 42
1.0
 97
        0
 97
        0
 75
     0
 76
     1
 98
        1
 10
436.222919275436
 20
7.679790658515071
  0
HATCH
  5
68B
330
A
100
AcDbEntity
  8
997-図枠_文字
  6
Continuous
 62
     7
100
AcDbHatch
 10
0.0
 20
0.0
 30
0.0
210
0.0
220
0.0
230
1.0
  2
SOLID
 70
     1
 71
     0
 91
        2
 92
        0
 93
        2
 72
     4
 94
        3
 73
     1
 74
     0
 95
       11
 96
        7
 40
0.0
 40
0.0
 40
0.0
 40
0.0
 40
1.0
 40
1.0
 40
1.0
 40
2.0
 40
2.0
 40
2.0
 40
2.0
 10
814.6458379423302
 20
22.39449351455036
 42
1.0
 10
814.1008238365637
 20
22.39449351455036
 42
1.0
 10
813.7743941491453
 20
21.96118318479755
 42
1.0
 10
813.7743941491453
 20
21.44182815020519
 42
1.0
 10
813.7743941491453
 20
20.92382359304304
 42
1.0
 10
814.1008238365637
 20
20.49032033794307
 42
1.0
 10
814.6458379423302
 20
20.49032033794307
 42
1.0
 97
        0
 72
     4
 94
        3
 73
     1
 74
     0
 95
       11
 96
        7
 40
2.0
 40
2.0
 40
2.0
 40
2.0
 40
3.0
 40
3.0
 40
3.0
 40
4.0
 40
4.0
 40
4.0
 40
4.0
 10
814.6458379423302
 20
20.49032033794307
 42
1.0
 10
815.1901768093817
 20
20.49032033794307
 42
1.0
 10
815.5149666313491
 20
20.92382359304304
 42
1.0
 10
815.5149666313491
 20
21.44182815020519
 42
1.0
 10
815.5149666313491
 20
21.96118318479755
 42
1.0
 10
815.1901768093817
 20
22.39449351455036
 42
1.0
 10
814.6458379423302
 20
22.39449351455036
 42
1.0
 97
        0
 97
        0
 92
        0
 93
        2
 72
     4
 94
        3
 73
     1
 74
     0
 95
       11
 96
        7
 40
2.0
 40
2.0
 40
2.0
 40
2.0
 40
3.0
 40
3.0
 40
3.0
 40
4.0
 40
4.0
 40
4.0
 40
4.0
 10
814.6458379423302
 20
20.74980492989207
 42
1.0
 10
814.2563216663859
 20
20.74980492989207
 42
1.0
 10
814.0933962106976
 20
21.09417667459766
 42
1.0
 10
814.0933962106976
 20
21.44182815020519
 42
1.0
 10
814.0933962106976
 20
21.79063717789577
 42
1.0
 10
814.2563216663859
 20
22.13481599725416
 42
1.0
 10
814.6458379423302
 20
22.13481599725416
 42
1.0
 97
        0
 72
     4
 94
        3
 73
     1
 74
     0
 95
       11
 96
        7
 40
0.0
 40
0.0
 40
0.0
 40
0.0
 40
1.0
 40
1.0
 40
1.0
 40
2.0
 40
2.0
 40
2.0
 40
2.0
 10
814.6458379423302
 20
22.13481599725416
 42
1.0
 10
815.0346789795594
 20
22.13481599725416
 42
1.0
 10
815.1978938232687
 20
21.79063717789577
 42
1.0
 10
815.1978938232687
 20
21.44182815020519
 42
1.0
 10
815.1978938232687
 20
21.09417667459766
 42
1.0
 10
815.0346789795594
 20
20.74980492989207
 42
1.0
 10
814.6458379423302
 20
20.74980492989207
 42
1.0
 97
        0
 97
        0
 75
     0
 76
     1
 98
        1
 10
436.222919275436
 20
7.679790658515071
  0
MTEXT
  5
1005
330
A
100
AcDbEntity
  8
997-図枠_文字
  6
Continuous
 62
     7
100
AcDbMText
 10
807.2055154321201
 20
69.3951421661805
 30
0.0
 40
3.0
 41
73.25769728997102
 46
3.0
 71
     2
 72
     1
  1
{GHAC-D30T90}
 73
     1
 44
1.0
  0
MTEXT
  5
1006
330
A
100
AcDbEntity
  8
997-図枠_文字
  6
Continuous
 62
     7
100
AcDbMText
 10
806.8719191919796
 20
53.75748570002855
 30
0.0
 40
3.0
 41
72.61422673335937
 46
3.342
 71
     2
 72
     1
  1
{LEDバードットレスタイプ(1.5間)}
 73
     1
 44
1.0
  0
MTEXT
  5
1030
330
A
100
AcDbEntity
  8
1
  6
Continuous
 62
     7
100
AcDbMText
 10
847.3886597678321
 20
85.4393567538707
 30
0.0
 40
3.0
 41
52.6294105837228
 46
8.905000000000001
 71
     5
 72
     1
  1
{\pxql;【COLOR】\P\pt0.277778;NA}
 73
     1
 44
1.0
  0
MTEXT
  5
105E
330
A
100
AcDbEntity
  8
997-図枠_文字
  6
Continuous
 62
     7
100
AcDbMText
 10
806.8719191919796
 20
39.30654722630342
 30
0.0
 40
3.0
 41
72.61422673335937
 46
3.0
 71
     2
 72
     1
  1
{5804160}
 73
     1
 44
1.0
  0
MTEXT
  5
11E3
330
A
100
AcDbEntity
  8
図枠
370
     9
100
AcDbMText
 10
745.9942432426917
 20
282.6697049495569
 30
0.0
 40
3.5
 41
105.651
 46
3.9375
 71
     1
 72
     1
  1
{\pxql;注.本図において寸法公差はJIS(並級)する。}
 73
     1
 44
1.0
  0
MTEXT
  5
288E
330
A
100
AcDbEntity
  8
1
  6
Continuous
 62
     7
100
AcDbMText
 10
449.5998580032258
 20
280.4536297367246
 30
0.0
 40
3.5
 41
0.0
 46
0.0
 71
     2
 72
     1
  1
1
  7
ＭＳ_Ｐゴシック
 73
     1
 44
1.0
  0
LINE
  5
288F
330
A
100
AcDbEntity
  8
1
 62
     0
370
     9
100
AcDbLine
 10
454.4250200184739
 20
294.0872072606362
 30
0.0
 11
454.4250200184739
 21
254.0872072606362
 31
0.0
  0
LINE
  5
2890
330
A
100
AcDbEntity
  8
1
 62
     0
370
     9
100
AcDbLine
 10
494.4250200184739
 20
294.0872072606362
 30
0.0
 11
494.4250200184739
 21
254.0872072606362
 31
0.0
  0
LINE
  5
2891
330
A
100
AcDbEntity
  8
1
 62
     0
370
     9
100
AcDbLine
 10
506.4344811358829
 20
294.0872072606362
 30
0.0
 11
506.4344811358829
 21
254.0872072606362
 31
0.0
  0
LINE
  5
2892
330
A
100
AcDbEntity
  8
1
 62
     0
370
     9
100
AcDbLine
 10
544.4250200184739
 20
294.0872072606362
 30
0.0
 11
544.4250200184739
 21
254.0872072606362
 31
0.0
  0
LINE
  5
2893
330
A
100
AcDbEntity
  8
1
 62
     0
370
     9
100
AcDbLine
 10
556.4344811358828
 20
284.0872072606362
 30
0.0
 11
444.4250200184739
 21
284.0872072606362
 31
0.0
  0
LINE
  5
2894
330
A
100
AcDbEntity
  8
1
 62
     0
370
     9
100
AcDbLine
 10
556.4344811358828
 20
274.0872072606362
 30
0.0
 11
444.4250200184739
 21
274.0872072606362
 31
0.0
  0
LINE
  5
2895
330
A
100
AcDbEntity
  8
1
 62
     0
370
     9
100
AcDbLine
 10
556.4344811358828
 20
264.0872072606362
 30
0.0
 11
444.4250200184739
 21
264.0872072606362
 31
0.0
  0
MTEXT
  5
2896
330
A
100
AcDbEntity
  8
1
  6
Continuous
 62
     7
100
AcDbMText
 10
449.5998580032258
 20
290.4536297367246
 30
0.0
 40
3.5
 41
0.0
 46
0.0
 71
     2
 72
     1
  1
No.
  7
ＭＳ_Ｐゴシック
 73
     1
 44
1.0
  0
MTEXT
  5
2897
330
A
100
AcDbEntity
  8
1
  6
Continuous
 62
     7
100
AcDbMText
 10
473.6891701482474
 20
290.4536297367246
 30
0.0
 40
3.5
 41
26.39092267530355
 46
7.0
 71
     2
 72
     1
  1
{\W1;部　品　名}
  7
ＭＳ_Ｐゴシック
 73
     1
 44
1.0
  0
MTEXT
  5
2898
330
A
100
AcDbEntity
  8
1
  6
Continuous
 62
     7
100
AcDbMText
 10
500.4371334688129
 20
290.4536297367246
 30
0.0
 40
3.5
 41
0.0
 46
7.0
 71
     2
 72
     1
  1
{個数}
  7
ＭＳ_Ｐゴシック
 73
     1
 44
1.0
  0
MTEXT
  5
2899
330
A
100
AcDbEntity
  8
1
  6
Continuous
 62
     7
100
AcDbMText
 10
524.1915354275997
 20
290.4536297367246
 30
0.0
 40
3.5
 41
26.39092267530355
 46
7.0
 71
     2
 72
     1
  1
{\W1;材　質}
  7
ＭＳ_Ｐゴシック
 73
     1
 44
1.0
  0
MTEXT
  5
289A
330
A
100
AcDbEntity
  8
1
  6
Continuous
 62
     7
100
AcDbMText
 10
449.5998580032258
 20
270.4536297367246
 30
0.0
 40
3.5
 41
0.0
 46
0.0
 71
     2
 72
     1
  1
2
  7
ＭＳ_Ｐゴシック
 73
     1
 44
1.0
  0
MTEXT
  5
289B
330
A
100
AcDbEntity
  8
1
  6
Continuous
 62
     7
100
AcDbMText
 10
500.1022232825782
 20
280.4536297367246
 30
0.0
 40
3.0
 41
0.0
 46
0.0
 71
     2
 72
     1
  1
1
  7
ＭＳ_Ｐゴシック
 73
     1
 44
1.0
  0
MTEXT
  5
289C
330
A
100
AcDbEntity
  8
1
  6
Continuous
 62
     7
100
AcDbMText
 10
500.1022232825782
 20
270.4536297367246
 30
0.0
 40
3.0
 41
0.0
 46
3.0
 71
     2
 72
     1
  1
{2}
  7
ＭＳ_Ｐゴシック
 73
     1
 44
1.0
  0
MTEXT
  5
289D
330
A
100
AcDbEntity
  8
1
  6
Continuous
 62
     7
100
AcDbMText
 10
474.4250200184739
 20
279.0872072606362
 30
0.0
 40
3.0
 41
28.21410445348547
 46
16.965
 71
     5
 72
     1
  1
{本体}
  7
ＭＳ_Ｐゴシック
 73
     1
 44
1.0
  0
LINE
  5
289E
102
{ACAD_REACTORS
330
28AC
330
2974
102
}
330
A
100
AcDbEntity
  8
0
 62
     0
370
    15
100
AcDbLine
 10
543.2767880903497
 20
206.6470448739277
 30
0.0
 11
543.2767880903497
 21
193.6470448739276
 31
0.0
  0
LINE
  5
289F
330
A
100
AcDbEntity
  8
0
 62
     0
370
    15
100
AcDbLine
 10
743.2776616145583
 20
193.351491735213
 30
0.0
 11
743.2776616145583
 21
206.3514917352131
 31
0.0
  0
LINE
  5
28A0
330
A
100
AcDbEntity
  8
0
 62
     0
370
    15
100
AcDbLine
 10
743.2776616145583
 20
147.2934763442896
 30
0.0
 11
743.2776616145583
 21
141.2934763442894
 31
0.0
  0
LINE
  5
28A1
102
{ACAD_REACTORS
330
28AF
102
}
330
A
100
AcDbEntity
  8
0
 62
     0
370
    15
100
AcDbLine
 10
543.2767880903497
 20
147.5890294830043
 30
0.0
 11
543.2767880903497
 21
141.589029483004
 31
0.0
  0
LINE
  5
28A2
330
A
100
AcDbEntity
  8
0
 62
     0
370
    15
100
AcDbLine
 10
743.2776616145583
 20
145.2934763442895
 30
0.0
 11
743.2776616145583
 21
143.2934763442896
 31
0.0
  0
LINE
  5
28A3
330
A
100
AcDbEntity
  8
0
 62
     0
370
    15
100
AcDbLine
 10
543.2767880903497
 20
145.5890294830041
 30
0.0
 11
543.2767880903497
 21
143.5890294830043
 31
0.0
  0
LINE
  5
28A4
330
A
100
AcDbEntity
  8
0
 62
     0
370
    15
100
AcDbLine
 10
743.2776616145583
 20
199.851491735213
 30
0.0
 11
743.2776616145583
 21
197.8514917352131
 31
0.0
  0
LINE
  5
28A5
330
A
100
AcDbEntity
  8
0
 62
     0
370
    15
100
AcDbLine
 10
743.2776616145583
 20
201.8514917352128
 30
0.0
 11
743.2776616145583
 21
199.851491735213
 31
0.0
  0
LINE
  5
28A6
330
A
100
AcDbEntity
  8
0
 62
     0
370
    15
100
AcDbLine
 10
543.2767880903497
 20
200.1470448739276
 30
0.0
 11
543.2767880903497
 21
198.1470448739277
 31
0.0
  0
LINE
  5
28A7
330
A
100
AcDbEntity
  8
0
 62
     0
370
    15
100
AcDbLine
 10
543.2767880903497
 20
202.1470448739275
 30
0.0
 11
543.2767880903497
 21
200.1470448739276
 31
0.0
  0
DIMENSION
  5
28A8
102
{ACAD_XDICTIONARY
360
28A9
102
}
330
A
100
AcDbEntity
  8
0
 62
     0
370
     9
100
AcDbDimension
280
     0
  2
*D96
 10
743.2776616145583
 20
228.6381349152932
 30
0.0
 11
643.277224852454
 21
228.6381349152932
 31
0.0
 70
   160
  1
2575
 71
     5
 42
200.0008735242086
 73
     0
 74
     0
 75
     0
  3
ISO-25
100
AcDbAlignedDimension
 13
543.2767880903497
 23
206.6470448739277
 33
0.0
 14
743.2776616145583
 24
206.3514917352131
 34
0.0
100
AcDbRotatedDimension
1001
ACAD
1000
DSTYLE
1002
{
1070
   146
1040
1.0
1070
    41
1040
2.5
1070
   140
1040
3.0
1070
   173
1070
     1
1070
   342
1005
0
1070
   344
1005
459
1070
   343
1005
459
1070
   144
1040
1.0
1002
}
  0
DIMENSION
  5
28AA
102
{ACAD_REACTORS
330
28AC
102
}
102
{ACAD_XDICTIONARY
360
28AB
102
}
330
A
100
AcDbEntity
  8
0
 62
     0
370
     9
100
AcDbDimension
280
     0
  2
*D97
 10
516.8071920456044
 20
193.6470448739276
 30
0.0
 11
516.8071920456044
 21
216.4953353025222
 31
0.0
 70
   160
 71
     5
 42
13.00000000000011
 73
     0
 74
     1
 75
     1
  3
ISO-25
100
AcDbAlignedDimension
 13
543.2767880903497
 23
206.6470448739277
 33
0.0
 14
543.2767880903497
 24
193.6470448739276
 34
0.0
 50
90.0
100
AcDbRotatedDimension
1001
ACAD
1000
DSTYLE
1002
{
1070
   146
1040
1.0
1070
    41
1040
2.5
1070
   140
1040
3.0
1070
   173
1070
     1
1070
   342
1005
0
1070
   344
1005
459
1070
   343
1005
459
1070
   144
1040
1.0
1002
}
  0
DIMENSION
  5
28AD
102
{ACAD_REACTORS
330
28AF
102
}
102
{ACAD_XDICTIONARY
360
28AE
102
}
330
A
100
AcDbEntity
  8
0
 62
     0
370
     9
100
AcDbDimension
280
     0
  2
*D98
 10
516.8071920456044
 20
141.589029483004
 30
0.0
 11
516.8071920456044
 21
155.0645294830043
 31
0.0
 70
   160
 71
     5
 42
6.000000000000227
 73
     0
 74
     0
 75
     0
  3
ISO-25
100
AcDbAlignedDimension
 13
543.2767880903497
 23
147.5890294830043
 33
0.0
 14
543.2767880903497
 24
141.589029483004
 34
0.0
 50
90.0
100
AcDbRotatedDimension
1001
ACAD
1000
DSTYLE
1002
{
1070
   146
1040
1.0
1070
    41
1040
3.0
1070
   140
1040
3.0
1070
   173
1070
     1
1070
   342
1005
0
1070
   344
1005
459
1070
   343
1005
459
1070
   144
1040
1.0
1002
}
  0
LINE
  5
28B0
330
A
100
AcDbEntity
  8
0
 62
     0
370
    15
100
AcDbLine
 10
453.5962142743276
 20
145.5890294830041
 30
0.0
 11
493.449145994667
 21
145.5890294830041
 31
0.0
  0
LINE
  5
28B1
330
A
100
AcDbEntity
  8
0
 62
     0
370
    15
100
AcDbLine
 10
543.2767880903497
 20
143.5890294830043
 30
0.0
 11
498.3412288735824
 21
143.5890294830043
 31
0.0
  0
LINE
  5
28B2
330
A
100
AcDbEntity
  8
0
 62
     0
370
    15
100
AcDbLine
 10
453.5962142743276
 20
145.5890294830041
 30
0.0
 11
453.5962142743276
 21
143.5890294830043
 31
0.0
  0
LINE
  5
28B3
102
{ACAD_REACTORS
330
2974
102
}
330
A
100
AcDbEntity
  8
0
 62
     0
370
    15
100
AcDbLine
 10
453.5962142743276
 20
200.1470448739276
 30
0.0
 11
493.449145994667
 21
200.1470448739276
 31
0.0
  0
LINE
  5
28B4
330
A
100
AcDbEntity
  8
0
 62
     0
370
    15
100
AcDbLine
 10
543.2767880903497
 20
198.1470448739277
 30
0.0
 11
498.3412288735824
 21
198.1470448739277
 31
0.0
  0
LINE
  5
28B5
102
{ACAD_REACTORS
330
2974
102
}
330
A
100
AcDbEntity
  8
0
 62
     0
370
    15
100
AcDbLine
 10
453.5962142743276
 20
202.1470448739275
 30
0.0
 11
492.7628371617866
 21
202.1470448739275
 31
0.0
  0
LINE
  5
28B6
330
A
100
AcDbEntity
  8
0
 62
     0
370
    15
100
AcDbLine
 10
543.2767880903497
 20
200.1470448739276
 30
0.0
 11
497.2113616727592
 21
200.1470448739276
 31
0.0
  0
DIMENSION
  5
28B7
102
{ACAD_XDICTIONARY
360
28B8
102
}
330
A
100
AcDbEntity
  8
0
 62
     0
370
     9
100
AcDbDimension
280
     0
  2
*D99
 10
453.5962142743276
 20
113.9659897627054
 30
0.0
 11
498.4365011823387
 21
113.9659897627054
 31
0.0
 70
   160
  1
(300)
 71
     5
 42
89.68057381602205
 73
     0
 74
     0
 75
     0
  3
ISO-25
100
AcDbAlignedDimension
 13
543.2767880903497
 23
141.589029483004
 33
0.0
 14
453.5962142743276
 24
143.5890294830043
 34
0.0
100
AcDbRotatedDimension
1001
ACAD
1000
DSTYLE
1002
{
1070
   146
1040
1.0
1070
    41
1040
2.5
1070
   140
1040
3.0
1070
   173
1070
     1
1070
   342
1005
0
1070
   344
1005
459
1070
   343
1005
459
1070
   144
1040
1.0
1002
}
  0
LINE
  5
28BD
330
A
100
AcDbEntity
  8
0
 62
     0
370
    15
100
AcDbLine
 10
543.2767880903497
 20
206.6470448739277
 30
0.0
 11
640.052997222712
 21
206.6470448739277
 31
0.0
  0
LINE
  5
28BE
330
A
100
AcDbEntity
  8
0
 62
     0
370
    15
100
AcDbLine
 10
543.2767880903497
 20
147.5890294830043
 30
0.0
 11
640.1930869799004
 21
147.5890294830043
 31
0.0
  0
LINE
  5
28BF
330
A
100
AcDbEntity
  8
0
 62
     0
370
    15
100
AcDbLine
 10
743.2776616145583
 20
193.351491735213
 30
0.0
 11
647.1063236555325
 21
193.351491735213
 31
0.0
  0
LINE
  5
28C0
330
A
100
AcDbEntity
  8
0
 62
     0
370
    15
100
AcDbLine
 10
743.2776616145583
 20
141.2934763442894
 30
0.0
 11
646.703634480478
 21
141.2934763442894
 31
0.0
  0
LINE
  5
28C1
330
A
100
AcDbEntity
  8
0
 62
     0
370
    15
100
AcDbLine
 10
642.853919683144
 20
141.589029483004
 30
0.0
 11
543.2767880903497
 21
141.589029483004
 31
0.0
  0
LINE
  5
28C2
330
A
100
AcDbEntity
  8
0
 62
     0
370
    15
100
AcDbLine
 10
644.0304405885985
 20
147.2934763442896
 30
0.0
 11
743.2776616145583
 21
147.2934763442896
 31
0.0
  0
LINE
  5
28C3
330
A
100
AcDbEntity
  8
0
 62
     0
370
    15
100
AcDbLine
 10
643.3267143233965
 20
193.6470448739276
 30
0.0
 11
543.2767880903497
 21
193.6470448739276
 31
0.0
  0
LINE
  5
28C4
330
A
100
AcDbEntity
  8
0
 62
     0
370
    15
100
AcDbLine
 10
643.7676667389325
 20
206.3514917352131
 30
0.0
 11
743.2776616145583
 21
206.3514917352131
 31
0.0
  0
CIRCLE
  5
28C5
330
A
100
AcDbEntity
  8
1
 62
     0
370
     9
100
AcDbCircle
 10
701.6361415751118
 20
170.6537642548819
 30
0.0
 40
5.0
  0
TEXT
  5
28C6
330
A
100
AcDbEntity
  8
1
 62
     0
370
     9
100
AcDbText
 10
699.8092790643526
 20
168.1709201614445
 30
0.0
 40
5.0
  1
1
  7
ＭＳ_Ｐゴシック
100
AcDbText
  0
LEADER
  5
28C7
102
{ACAD_XDICTIONARY
360
28C8
102
}
330
A
100
AcDbEntity
  8
1
 62
     0
370
     9
100
AcDbLeader
  3
ISO-25
 76
     2
 10
677.2134769195558
 20
193.351491735213
 30
0.0
 10
697.972595186604
 20
174.0564731550454
 30
0.0
211
6.123233995736766E-17
221
1.0
231
0.0
1001
ACAD
1000
DSTYLE
1002
{
1070
    40
1040
1.0
1070
     5
1000
DOT
1070
   341
1005
459
1070
    41
1040
3.302
1070
    44
1040
1.0
1070
    42
1040
1.0
1070
   147
1040
1.524
1070
    73
1070
     1
1070
    74
1070
     1
1070
   140
1040
3.5
1070
   284
1070
     0
1070
    78
1070
     0
1002
}
  0
LINE
  5
28CE
330
A
100
AcDbEntity
  8
0
 62
     0
370
    15
100
AcDbLine
 10
643.7360294689905
 20
203.3514917352131
 30
0.0
 11
743.2776616145583
 21
203.3514917352131
 31
0.0
  0
LINE
  5
28CF
330
A
100
AcDbEntity
  8
0
 62
     0
370
    15
100
AcDbLine
 10
543.2767880903497
 20
203.6470448739277
 30
0.0
 11
639.9407081310886
 21
203.6470448739277
 31
0.0
  0
MTEXT
  5
28D0
330
A
100
AcDbEntity
  8
1
  6
Continuous
 62
     7
100
AcDbMText
 10
474.4250200184739
 20
269.0872072606362
 30
0.0
 40
3.0
 41
28.21410445348547
 46
17.04
 71
     5
 72
     1
  1
{配線}
  7
ＭＳ_Ｐゴシック
 73
     1
 44
1.0
  0
MTEXT
  5
28D1
330
A
100
AcDbEntity
  8
1
  6
Continuous
 62
     7
100
AcDbMText
 10
526.434481135883
 20
279.0872072606362
 30
0.0
 40
3.0
 41
28.21410445348547
 46
16.11
 71
     5
 72
     1
  1
{シリコン}
  7
ＭＳ_Ｐゴシック
 73
     1
 44
1.0
  0
MTEXT
  5
28D2
330
A
100
AcDbEntity
  8
1
  6
Continuous
 62
     7
100
AcDbMText
 10
526.434481135883
 20
269.0872072606362
 30
0.0
 40
3.0
 41
28.21410445348547
 46
15.0
 71
     5
 72
     1
  1
{PVC}
  7
ＭＳ_Ｐゴシック
 73
     1
 44
1.0
  0
ARC
  5
28D3
330
A
100
AcDbEntity
  8
0
 62
     0
370
     9
100
AcDbCircle
 10
503.5631039505921
 20
150.1774337767932
 30
0.0
 40
11.10610640582386
100
AcDbArc
 50
145.4396996883882
 51
210.2108120823928
  0
ARC
  5
28D4
330
A
100
AcDbEntity
  8
0
 62
     0
370
     9
100
AcDbCircle
 10
507.3253196286843
 20
150.1774337767932
 30
0.0
 40
11.10610640582386
100
AcDbArc
 50
145.4396996883882
 51
210.2108120823915
  0
ARC
  5
28D5
330
A
100
AcDbEntity
  8
0
 62
     0
370
     9
100
AcDbCircle
 10
484.8192227971587
 20
138.2888322340213
 30
0.0
 40
11.10610640582386
100
AcDbArc
 50
329.7891879176071
 51
34.56030031161177
  0
ARC
  5
28D6
330
A
100
AcDbEntity
  8
0
 62
     0
370
     9
100
AcDbCircle
 10
488.5814384752513
 20
138.2888322340213
 30
0.0
 40
11.10610640582386
100
AcDbArc
 50
329.7891879176071
 51
34.56030031161587
  0
LINE
  5
28D7
330
A
100
AcDbEntity
  8
0
 62
     0
370
    15
100
AcDbLine
 10
494.5790131954898
 20
143.5890294830043
 30
0.0
 11
453.5962142743276
 21
143.5890294830043
 31
0.0
  0
LINE
  5
28D8
330
A
100
AcDbEntity
  8
0
 62
     0
370
    15
100
AcDbLine
 10
497.2113616727592
 20
145.5890294830041
 30
0.0
 11
543.2767880903497
 21
145.5890294830041
 31
0.0
  0
LINE
  5
28E4
330
A
100
AcDbEntity
  8
0
 62
     0
370
    15
100
AcDbLine
 10
453.5962142743276
 20
200.1470448739276
 30
0.0
 11
453.5962142743276
 21
198.1470448739277
 31
0.0
  0
ARC
  5
28E5
102
{ACAD_REACTORS
330
2974
102
}
330
A
100
AcDbEntity
  8
0
 62
     0
370
     9
100
AcDbCircle
 10
503.5631039505921
 20
204.7354491677166
 30
0.0
 40
11.10610640582386
100
AcDbArc
 50
145.4396996883882
 51
210.2108120823928
  0
ARC
  5
28E6
102
{ACAD_REACTORS
330
2974
102
}
330
A
100
AcDbEntity
  8
0
 62
     0
370
     9
100
AcDbCircle
 10
507.3253196286843
 20
204.7354491677166
 30
0.0
 40
11.10610640582386
100
AcDbArc
 50
145.4396996883882
 51
210.2108120823916
  0
ARC
  5
28E7
330
A
100
AcDbEntity
  8
0
 62
     0
370
     9
100
AcDbCircle
 10
484.8192227971587
 20
192.8468476249448
 30
0.0
 40
11.10610640582386
100
AcDbArc
 50
329.7891879176071
 51
34.56030031161177
  0
ARC
  5
28E8
330
A
100
AcDbEntity
  8
0
 62
     0
370
     9
100
AcDbCircle
 10
488.5814384752513
 20
192.8468476249448
 30
0.0
 40
11.10610640582386
100
AcDbArc
 50
329.7891879176071
 51
34.560300311616
  0
LINE
  5
28EE
102
{ACAD_REACTORS
330
2974
102
}
330
A
100
AcDbEntity
  8
0
 62
     0
370
    15
100
AcDbLine
 10
453.5962142743276
 20
202.1470448739275
 30
0.0
 11
453.5962142743276
 21
200.1470448739276
 31
0.0
  0
LINE
  5
28F4
330
A
100
AcDbEntity
  8
0
 62
     0
370
    15
100
AcDbLine
 10
494.5790131954898
 20
198.1470448739277
 30
0.0
 11
453.5962142743276
 21
198.1470448739277
 31
0.0
  0
LINE
  5
28F5
102
{ACAD_REACTORS
330
2974
102
}
330
A
100
AcDbEntity
  8
0
 62
     0
370
    15
100
AcDbLine
 10
497.2113616727592
 20
200.1470448739276
 30
0.0
 11
543.2767880903497
 21
200.1470448739276
 31
0.0
  0
LINE
  5
28F6
330
A
100
AcDbEntity
  8
0
 62
     0
370
    15
100
AcDbLine
 10
493.449145994667
 20
200.1470448739276
 30
0.0
 11
453.5962142743276
 21
200.1470448739276
 31
0.0
  0
LINE
  5
28F7
102
{ACAD_REACTORS
330
2974
102
}
330
A
100
AcDbEntity
  8
0
 62
     0
370
    15
100
AcDbLine
 10
496.5250528398788
 20
202.1470448739275
 30
0.0
 11
543.2767880903497
 21
202.1470448739275
 31
0.0
  0
ARC
  5
28F8
330
A
100
AcDbEntity
  8
0
 62
     0
370
     9
100
AcDbCircle
 10
650.993353768706
 20
204.7354491677166
 30
0.0
 40
11.10610640582386
100
AcDbArc
 50
145.4396996883882
 51
210.2108120823928
  0
ARC
  5
28F9
330
A
100
AcDbEntity
  8
0
 62
     0
370
     9
100
AcDbCircle
 10
632.2494726152726
 20
192.8468476249448
 30
0.0
 40
11.10610640582386
100
AcDbArc
 50
329.7891879176071
 51
34.56030031161177
  0
ARC
  5
28FA
330
A
100
AcDbEntity
  8
0
 62
     0
370
     9
100
AcDbCircle
 10
650.993353768706
 20
150.1774337767932
 30
0.0
 40
11.10610640582386
100
AcDbArc
 50
145.4396996883882
 51
210.2108120823928
  0
ARC
  5
28FB
330
A
100
AcDbEntity
  8
0
 62
     0
370
     9
100
AcDbCircle
 10
632.2494726152726
 20
138.2888322340213
 30
0.0
 40
11.10610640582386
100
AcDbArc
 50
329.7891879176072
 51
34.56030031161177
  0
ARC
  5
28FC
330
A
100
AcDbEntity
  8
0
 62
     0
370
     9
100
AcDbCircle
 10
636.0116882933652
 20
192.8468476249448
 30
0.0
 40
11.10610640582386
100
AcDbArc
 50
329.7891879176071
 51
34.560300311616
  0
ARC
  5
28FD
330
A
100
AcDbEntity
  8
0
 62
     0
370
     9
100
AcDbCircle
 10
654.7555694467982
 20
204.7354491677166
 30
0.0
 40
11.10610640582386
100
AcDbArc
 50
145.4396996883882
 51
210.2108120823924
  0
ARC
  5
28FE
330
A
100
AcDbEntity
  8
0
 62
     0
370
     9
100
AcDbCircle
 10
636.0116882933652
 20
138.2888322340213
 30
0.0
 40
11.10610640582386
100
AcDbArc
 50
329.7891879176072
 51
34.56030031161587
  0
ARC
  5
28FF
330
A
100
AcDbEntity
  8
0
 62
     0
370
     9
100
AcDbCircle
 10
654.7555694467982
 20
150.1774337767932
 30
0.0
 40
11.10610640582386
100
AcDbArc
 50
145.4396996883882
 51
210.2108120823925
  0
LWPOLYLINE
  5
2900
102
{ACAD_REACTORS
330
2904
102
}
330
A
100
AcDbEntity
  8
0
  6
ByBlock
 62
     0
100
AcDbPolyline
 90
        2
 70
     1
 43
0.6604000000000001
 10
595.390826657407
 20
205.014625488134
 42
1.0
 10
595.9909082036369
 20
205.2903614086705
 42
1.0
  0
MTEXT
  5
2901
330
A
100
AcDbEntity
  8
0
  6
Continuous
 62
     4
100
AcDbMText
 10
604.3620965329259
 20
218.9665457803183
 30
0.0
 40
3.0
 41
33.94871133844185
 46
3.324
 71
     1
 72
     5
  1
{{\C0;発光面}}
 73
     1
 44
1.0
  0
LEADER
  5
2902
102
{ACAD_REACTORS
330
2904
102
}
102
{ACAD_XDICTIONARY
360
2903
102
}
330
A
100
AcDbEntity
  8
0
  6
Continuous
 62
     0
370
     9
100
AcDbLeader
  3
ISO-2
 71
     0
 76
     3
 10
595.690867430522
 20
205.1524934484023
 30
0.0
 10
603.910102723953
 20
214.4480172240697
 30
0.0
 10
617.7317274655026
 20
214.4480172240697
 30
0.0
1001
ACAD
1000
DSTYLE
1002
{
1070
   371
1070
     9
1070
   279
1070
     2
1002
}
  0
CIRCLE
  5
2905
330
A
100
AcDbEntity
  8
1
 62
     0
370
     9
100
AcDbCircle
 10
473.7080213507769
 20
177.4652016107398
 30
0.0
 40
3.5
  0
TEXT
  5
2906
330
A
100
AcDbEntity
  8
1
 62
     0
370
     9
100
AcDbText
 10
472.4292175932454
 20
175.7272107453337
 30
0.0
 40
3.5
  1
2
  7
ＭＳ_Ｐゴシック
100
AcDbText
  0
LEADER
  5
2907
102
{ACAD_XDICTIONARY
360
2908
102
}
330
A
100
AcDbEntity
  8
1
 62
     0
370
     9
100
AcDbLeader
  3
ISO-25
 76
     2
 10
480.215126348195
 20
198.1470448739277
 30
0.0
 10
474.7584570765544
 20
180.8038517550362
 30
0.0
211
-6.123233995736766E-17
221
1.0
231
0.0
1001
ACAD
1000
DSTYLE
1002
{
1070
    40
1040
1.0
1070
     5
1000
DOT
1070
   341
1005
459
1070
    41
1040
3.302
1070
    44
1040
1.0
1070
    42
1040
1.0
1070
   147
1040
1.524
1070
    73
1070
     1
1070
    74
1070
     1
1070
   140
1040
3.5
1070
   284
1070
     0
1070
    78
1070
     0
1002
}
  0
TEXT
  5
2909
330
A
100
AcDbEntity
  8
1
 62
     0
370
     9
100
AcDbText
 10
476.356581578639
 20
172.1175245542616
 30
0.0
 40
2.5
  1
2
  7
ＭＳ_Ｐゴシック
100
AcDbText
  0
MTEXT
  5
2913
330
A
100
AcDbEntity
  8
0
  6
Continuous
 62
     4
100
AcDbMText
 10
447.2722178940311
 20
189.079203862325
 30
0.0
 40
3.0
 41
33.94871133844185
 46
3.408
 71
     1
 72
     5
  1
{{\C0;白線}}
 73
     1
 44
1.0
  0
LEADER
  5
2914
102
{ACAD_XDICTIONARY
360
2915
102
}
330
A
100
AcDbEntity
  8
0
  6
Continuous
 62
     0
370
     9
100
AcDbLeader
  3
ISO-2
 76
     3
 10
464.1222190592442
 20
197.8514917352131
 30
0.0
 10
456.1643139050187
 20
184.4239515074418
 30
0.0
 10
447.279103381769
 20
184.4239515074418
 30
0.0
211
-1.0
221
0.0
231
0.0
1001
ACAD
1000
DSTYLE
1002
{
1070
   371
1070
     9
1070
   279
1070
     2
1002
}
  0
MTEXT
  5
2917
330
A
100
AcDbEntity
  8
0
  6
Continuous
 62
     4
100
AcDbMText
 10
447.2722178940311
 20
215.6655440671288
 30
0.0
 40
3.0
 41
33.94871133844185
 46
3.408
 71
     1
 72
     5
  1
{{\C0;黒線}}
 73
     1
 44
1.0
  0
LEADER
  5
2918
102
{ACAD_XDICTIONARY
360
2919
102
}
330
A
100
AcDbEntity
  8
0
  6
Continuous
 62
     0
370
     9
100
AcDbLeader
  3
ISO-2
 76
     3
 10
464.057414854995
 20
201.8514917352128
 30
0.0
 10
455.9219469842404
 20
211.1470155108803
 30
0.0
 10
446.845188132307
 20
211.1470155108803
 30
0.0
211
-1.0
221
0.0
231
0.0
1001
ACAD
1000
DSTYLE
1002
{
1070
   371
1070
     9
1070
   279
1070
     2
1002
}
  0
TEXT
  5
295D
330
A
100
AcDbEntity
  8
0
  6
Continuous
 62
     0
370
     9
100
AcDbText
 10
467.0744749024073
 20
257.6399668995491
 30
0.0
 40
3.0
  1
取扱説明書
  7
ＭＳ_Ｐゴシック
100
AcDbText
  0
TEXT
  5
295E
330
A
100
AcDbEntity
  8
0
  6
Continuous
 62
     0
370
     9
100
AcDbText
 10
499.0027232825781
 20
257.4536297367246
 30
0.0
 40
3.0
  1
1
  7
ＭＳ_Ｐゴシック
100
AcDbText
  0
TEXT
  5
295F
330
A
100
AcDbEntity
  8
0
  6
Continuous
 62
     0
370
     9
100
AcDbText
 10
512.184425554471
 20
257.4694753842065
 30
0.0
 40
3.0
  1
T-0102200-DI
  7
ＭＳ_Ｐゴシック
100
AcDbText
  0
LINE
  5
2960
330
A
100
AcDbEntity
  8
0
 62
     0
370
     9
100
AcDbLine
 10
462.3774759959848
 20
264.0872072606362
 30
0.0
 11
462.3774759959848
 21
254.0872072606362
 31
0.0
  0
TEXT
  5
2961
330
A
100
AcDbEntity
  8
0
  6
Continuous
 62
     7
370
     9
100
AcDbText
 10
456.9461308637175
 20
255.7102423099799
 30
0.0
 40
1.5
  1
品
  7
ＭＳ_Ｐゴシック
100
AcDbText
  0
TEXT
  5
2962
330
A
100
AcDbEntity
  8
0
  6
Continuous
 62
     7
370
     9
100
AcDbText
 10
456.9888808637174
 20
258.3797423099799
 30
0.0
 40
1.5
  1
属
  7
ＭＳ_Ｐゴシック
100
AcDbText
  0
TEXT
  5
2963
330
A
100
AcDbEntity
  8
0
  6
Continuous
 62
     7
370
     9
100
AcDbText
 10
448.3276080032257
 20
256.9536297367246
 30
0.0
 40
3.5
  1
3
  7
ＭＳ_Ｐゴシック
100
AcDbText
  0
LINE
  5
2964
330
A
100
AcDbEntity
  8
0
 62
     0
370
     9
100
AcDbLine
 10
556.4344811358828
 20
254.0872072606362
 30
0.0
 11
444.4250200184739
 21
254.0872072606362
 31
0.0
  0
TEXT
  5
2965
330
A
100
AcDbEntity
  8
0
  6
Continuous
 62
     7
370
     9
100
AcDbText
 10
456.9543808637175
 20
261.0927423099798
 30
0.0
 40
1.5
  1
付
  7
ＭＳ_Ｐゴシック
100
AcDbText
  0
MTEXT
  5
2966
330
A
100
AcDbEntity
  8
0
  6
Continuous
 62
     7
370
     9
100
AcDbMText
 10
550.4371334688129
 20
290.4536297367246
 30
0.0
 40
3.5
 41
0.0
 46
3.9585
 71
     2
 72
     1
  1
{摘要}
  7
ＭＳ_Ｐゴシック
 73
     1
 44
1.0
  0
LINE
  5
2967
330
A
100
AcDbEntity
  8
0
 62
     0
370
     9
100
AcDbLine
 10
556.4344811358828
 20
294.0872072606362
 30
0.0
 11
556.4344811358828
 21
254.0872072606362
 31
0.0
  0
MTEXT
  5
2968
330
A
100
AcDbEntity
  8
0
  6
Continuous
 62
     7
370
     9
100
AcDbMText
 10
550.4297505771783
 20
279.0872072606362
 30
0.0
 40
3.0
 41
8.094000000000051
 46
9.005
 71
     5
 72
     1
  1
{乳白}
  7
ＭＳ_Ｐゴシック
 73
     1
 44
1.0
  0
MTEXT
  5
2969
330
A
100
AcDbEntity
  8
0
  6
Continuous
 62
     7
370
     9
100
AcDbMText
 10
550.4297505771783
 20
269.0872072606362
 30
0.0
 40
3.0
 41
12.59162002458891
 46
8.681601529028882
 71
     5
 72
     1
  1
{生地}
  7
ＭＳ_Ｐゴシック
 73
     1
 44
1.0
  0
HATCH
  5
2974
330
A
100
AcDbEntity
  8
0
  6
Continuous
 62
     0
440
 50331648
100
AcDbHatch
 10
0.0
 20
0.0
 30
0.0
210
0.0
220
0.0
230
1.0
  2
SOLID
 70
     1
 71
     1
 91
        2
 92
        7
 72
     1
 73
     1
 93
        4
 10
493.4491459946669
 20
200.1470448739276
 42
-0.0477055303056467
 10
492.7628371617866
 20
202.1470448739275
 42
0.0
 10
453.5962142743276
 20
202.1470448739275
 42
0.0
 10
453.5962142743276
 20
200.1470448739276
 42
0.0
 97
        4
330
28E5
330
28B5
330
28EE
330
28B3
 92
        7
 72
     1
 73
     1
 93
        4
 10
543.2767880903496
 20
200.1470448739276
 42
0.0
 10
543.2767880903496
 20
202.1470448739275
 42
0.0
 10
496.5250528398788
 20
202.1470448739275
 42
0.0477055303056208
 10
497.2113616727592
 20
200.1470448739276
 42
0.0
 97
        4
330
289E
330
28F7
330
28E6
330
28F5
 75
     0
 76
     1
 47
0.0
 98
        2
 10
490.0676947537236
 20
200.9429624194864
 10
502.7389279155996
 20
201.6469198173684
1001
ACAD
1010
0.0
1020
0.0
1030
0.0
1001
HATCHBACKGROUNDCOLOR
1071
-939524096
1000

1000

  0
POLYLINE
  5
29F6
330
A
100
AcDbEntity
  8
図枠
 62
     0
370
     0
100
AcDb2dPolyline
 66
     1
 10
0.0
 20
0.0
 30
0.0
  0
VERTEX
  5
29F7
330
29F6
100
AcDbEntity
  8
図枠
 62
     0
370
     0
100
AcDbVertex
100
AcDb2dVertex
 10
787.812374958407
 20
28.65255125878012
 30
0.0
  0
VERTEX
  5
29F8
330
29F6
100
AcDbEntity
  8
図枠
 62
     0
370
     0
100
AcDbVertex
100
AcDb2dVertex
 10
786.9326759619353
 20
28.65255125878012
 30
0.0
  0
VERTEX
  5
29F9
330
29F6
100
AcDbEntity
  8
図枠
 62
     0
370
     0
100
AcDbVertex
100
AcDb2dVertex
 10
786.9326759619353
 20
30.90285359068694
 30
0.0
  0
VERTEX
  5
29FA
330
29F6
100
AcDbEntity
  8
図枠
 62
     0
370
     0
100
AcDbVertex
100
AcDb2dVertex
 10
786.8506309516363
 20
30.90285359068694
 30
0.0
  0
VERTEX
  5
29FB
330
29F6
100
AcDbEntity
  8
図枠
 62
     0
370
     0
100
AcDbVertex
100
AcDb2dVertex
 10
785.7254797572605
 20
30.90285359068694
 30
0.0
  0
VERTEX
  5
29FC
330
29F6
100
AcDbEntity
  8
図枠
 62
     0
370
     0
100
AcDbVertex
100
AcDb2dVertex
 10
785.7254797572605
 20
28.65255125878012
 30
0.0
  0
VERTEX
  5
29FD
330
29F6
100
AcDbEntity
  8
図枠
 62
     0
370
     0
100
AcDbVertex
100
AcDb2dVertex
 10
784.9806665395647
 20
28.65255125878012
 30
0.0
  0
VERTEX
  5
29FE
330
29F6
100
AcDbEntity
  8
図枠
 62
     0
370
     0
100
AcDbVertex
100
AcDb2dVertex
 10
784.9806665395647
 20
27.51432121507596
 30
0.0
  0
VERTEX
  5
29FF
330
29F6
100
AcDbEntity
  8
図枠
 62
     0
370
     0
100
AcDbVertex
100
AcDb2dVertex
 10
785.7254797572605
 20
27.51432121507596
 30
0.0
  0
VERTEX
  5
2A00
330
29F6
100
AcDbEntity
  8
図枠
 62
     0
370
     0
100
AcDbVertex
100
AcDb2dVertex
 10
785.7254797572605
 20
20.38827628801921
 30
0.0
  0
VERTEX
  5
2A01
330
29F6
100
AcDbEntity
  8
図枠
 62
     0
370
     0
100
AcDbVertex
100
AcDb2dVertex
 10
786.9326759619353
 20
20.38827628801921
 30
0.0
  0
VERTEX
  5
2A02
330
29F6
100
AcDbEntity
  8
図枠
 62
     0
370
     0
100
AcDbVertex
100
AcDb2dVertex
 10
786.9326759619353
 20
27.51432121507596
 30
0.0
  0
VERTEX
  5
2A03
330
29F6
100
AcDbEntity
  8
図枠
 62
     0
370
     0
100
AcDbVertex
100
AcDb2dVertex
 10
787.812374958407
 20
27.51432121507596
 30
0.0
  0
VERTEX
  5
2A04
330
29F6
100
AcDbEntity
  8
図枠
 62
     0
370
     0
100
AcDbVertex
100
AcDb2dVertex
 10
787.812374958407
 20
28.65255125878012
 30
0.0
  0
SEQEND
  5
2A05
330
29F6
100
AcDbEntity
  8
図枠
 62
     0
370
     0
  0
SPLINE
  5
2A06
330
A
100
AcDbEntity
  8
図枠
 62
     0
370
     0
100
AcDbSpline
210
0.0
220
0.0
230
1.0
 70
    11
 71
     3
 72
    77
 73
    73
 74
     0
 42
0.000000001
 43
0.0000000001
 40
0.0
 40
0.0
 40
0.0
 40
0.0
 40
1.0
 40
1.0
 40
1.0
 40
2.0
 40
2.0
 40
2.0
 40
3.0
 40
3.0
 40
3.0
 40
4.0
 40
4.0
 40
4.0
 40
5.0
 40
5.0
 40
5.0
 40
6.0
 40
6.0
 40
6.0
 40
7.0
 40
7.0
 40
7.0
 40
8.0
 40
8.0
 40
8.0
 40
9.0
 40
9.0
 40
9.0
 40
10.0
 40
10.0
 40
10.0
 40
11.0
 40
11.0
 40
11.0
 40
12.0
 40
12.0
 40
12.0
 40
13.0
 40
13.0
 40
13.0
 40
14.0
 40
14.0
 40
14.0
 40
15.0
 40
15.0
 40
15.0
 40
16.0
 40
16.0
 40
16.0
 40
17.0
 40
17.0
 40
17.0
 40
18.0
 40
18.0
 40
18.0
 40
19.0
 40
19.0
 40
19.0
 40
20.0
 40
20.0
 40
20.0
 40
21.0
 40
21.0
 40
21.0
 40
22.0
 40
22.0
 40
22.0
 40
23.0
 40
23.0
 40
23.0
 40
24.0
 40
24.0
 40
24.0
 40
24.0
 10
788.1942887035323
 20
27.29839583278311
 30
0.0
 10
788.1942887035323
 20
27.29839583278311
 30
0.0
 10
788.1942887035323
 20
27.29839583278311
 30
0.0
 10
788.1942887035323
 20
27.29839583278311
 30
0.0
 10
788.1942887035323
 20
27.29839583278311
 30
0.0
 10
788.0809384268186
 20
27.27480441769437
 30
0.0
 10
788.0809384268186
 20
27.27480441769437
 30
0.0
 10
788.0809384268186
 20
27.27480441769437
 30
0.0
 10
788.0809384268186
 20
26.23737841406292
 30
0.0
 10
788.0809384268186
 20
26.23737841406292
 30
0.0
 10
788.0809384268186
 20
26.23737841406292
 30
0.0
 10
788.2427698459818
 20
26.25891391612774
 30
0.0
 10
788.2427698459818
 20
26.25891391612774
 30
0.0
 10
790.0716592272881
 20
26.51796285333028
 30
0.0
 10
791.0600862463726
 20
27.29991166092899
 30
0.0
 10
791.4435232343261
 20
28.94265022192841
 30
0.0
 10
791.4435232343261
 20
28.94265022192841
 30
0.0
 10
793.1657330919979
 20
28.94265022192841
 30
0.0
 10
793.1657330919979
 20
28.94265022192841
 30
0.0
 10
793.1657330919979
 20
28.94265022192841
 30
0.0
 10
793.1657330919979
 20
27.42408221115106
 30
0.0
 10
793.1657330919979
 20
27.42408221115106
 30
0.0
 10
793.1657330919979
 20
27.42408221115106
 30
0.0
 10
791.869558495873
 20
27.42408221115106
 30
0.0
 10
791.869558495873
 20
27.42408221115106
 30
0.0
 10
791.869558495873
 20
27.42408221115106
 30
0.0
 10
791.869558495873
 20
26.28532691131152
 30
0.0
 10
791.869558495873
 20
26.28532691131152
 30
0.0
 10
791.869558495873
 20
26.28532691131152
 30
0.0
 10
793.6553768730529
 20
26.28532691131152
 30
0.0
 10
793.6553768730529
 20
26.28532691131152
 30
0.0
 10
793.8979926877591
 20
26.28532691131152
 30
0.0
 10
794.3052763048258
 20
26.37714168364253
 30
0.0
 10
794.3052763048258
 20
26.99500047478752
 30
0.0
 10
794.3052763048258
 20
26.99500047478752
 30
0.0
 10
794.3052763048258
 20
29.47305386666006
 30
0.0
 10
794.3052763048258
 20
29.47305386666006
 30
0.0
 10
794.3052763048258
 20
29.7666720459084
 30
0.0
 10
794.0749514839815
 20
30.08187825228747
 30
0.0
 10
793.7014943628375
 20
30.08187825228747
 30
0.0
 10
793.7014943628375
 20
30.08187825228747
 30
0.0
 10
791.6048293973398
 20
30.08187825228747
 30
0.0
 10
791.6048293973398
 20
30.08187825228747
 30
0.0
 10
791.6089789209058
 20
30.21781453992604
 30
0.0
 10
791.6305144229711
 20
30.75998392207355
 30
0.0
 10
791.6305144229711
 20
30.75998392207355
 30
0.0
 10
791.6305144229711
 20
30.75998392207355
 30
0.0
 10
791.6305144229711
 20
30.90285359068694
 30
0.0
 10
791.6305144229711
 20
30.90285359068694
 30
0.0
 10
791.6305144229711
 20
30.90285359068694
 30
0.0
 10
791.5507280141076
 20
30.90285359068694
 30
0.0
 10
791.5507280141076
 20
30.90285359068694
 30
0.0
 10
791.5507280141076
 20
30.90285359068694
 30
0.0
 10
790.3725259487965
 20
30.90285359068694
 30
0.0
 10
790.3725259487965
 20
30.90285359068694
 30
0.0
 10
790.3725259487965
 20
30.90285359068694
 30
0.0
 10
790.3725259487965
 20
30.75998392207355
 30
0.0
 10
790.3725259487965
 20
30.75998392207355
 30
0.0
 10
790.3725259487965
 20
30.75998392207355
 30
0.0
 10
790.3594470707155
 20
30.20421040603766
 30
0.0
 10
790.3552975471457
 20
30.08187825228747
 30
0.0
 10
790.3552975471457
 20
30.08187825228747
 30
0.0
 10
787.7587988313242
 20
30.08187825228747
 30
0.0
 10
787.7587988313242
 20
30.08187825228747
 30
0.0
 10
787.7587988313242
 20
30.08187825228747
 30
0.0
 10
787.7587988313242
 20
28.94265022192841
 30
0.0
 10
787.7587988313242
 20
28.94265022192841
 30
0.0
 10
787.7587988313242
 20
28.94265022192841
 30
0.0
 10
790.2011873933568
 20
28.94265022192841
 30
0.0
 10
790.2011873933568
 20
28.94265022192841
 30
0.0
 10
789.9503250571269
 20
27.97239709007226
 30
0.0
 10
789.3640341448627
 20
27.54001366080938
 30
0.0
 10
788.1942887035323
 20
27.29839583278311
 30
0.0
  0
SPLINE
  5
2A07
330
A
100
AcDbEntity
  8
図枠
 62
     0
370
     0
100
AcDbSpline
210
0.0
220
0.0
230
1.0
 70
    11
 71
     3
 72
    74
 73
    70
 74
     0
 42
0.000000001
 43
0.0000000001
 40
0.0
 40
0.0
 40
0.0
 40
0.0
 40
1.0
 40
1.0
 40
1.0
 40
2.0
 40
2.0
 40
2.0
 40
3.0
 40
3.0
 40
3.0
 40
4.0
 40
4.0
 40
4.0
 40
5.0
 40
5.0
 40
5.0
 40
6.0
 40
6.0
 40
6.0
 40
7.0
 40
7.0
 40
7.0
 40
8.0
 40
8.0
 40
8.0
 40
9.0
 40
9.0
 40
9.0
 40
10.0
 40
10.0
 40
10.0
 40
11.0
 40
11.0
 40
11.0
 40
12.0
 40
12.0
 40
12.0
 40
13.0
 40
13.0
 40
13.0
 40
14.0
 40
14.0
 40
14.0
 40
15.0
 40
15.0
 40
15.0
 40
16.0
 40
16.0
 40
16.0
 40
17.0
 40
17.0
 40
17.0
 40
18.0
 40
18.0
 40
18.0
 40
19.0
 40
19.0
 40
19.0
 40
20.0
 40
20.0
 40
20.0
 40
21.0
 40
21.0
 40
21.0
 40
22.0
 40
22.0
 40
22.0
 40
23.0
 40
23.0
 40
23.0
 40
23.0
 10
790.1273363789651
 20
25.63080524197045
 30
0.0
 10
790.1273363789651
 20
25.63080524197045
 30
0.0
 10
789.137596219512
 20
25.63080524197045
 30
0.0
 10
789.137596219512
 20
25.63080524197045
 30
0.0
 10
789.137596219512
 20
25.63080524197045
 30
0.0
 10
789.137596219512
 20
25.99422996150833
 30
0.0
 10
789.137596219512
 20
25.99422996150833
 30
0.0
 10
789.137596219512
 20
25.99422996150833
 30
0.0
 10
789.0572845545021
 20
25.99422996150833
 30
0.0
 10
789.0572845545021
 20
25.99422996150833
 30
0.0
 10
789.0572845545021
 20
25.99422996150833
 30
0.0
 10
788.1637713213404
 20
25.99422996150833
 30
0.0
 10
788.1637713213404
 20
25.99422996150833
 30
0.0
 10
788.1637713213404
 20
25.99422996150833
 30
0.0
 10
788.0829869257956
 20
25.99422996150833
 30
0.0
 10
788.0829869257956
 20
25.99422996150833
 30
0.0
 10
788.0829869257956
 20
25.99422996150833
 30
0.0
 10
788.0834596563292
 20
25.7656983932651
 30
0.0
 10
788.0834596563292
 20
25.7656983932651
 30
0.0
 10
788.0834596563292
 20
25.7656983932651
 30
0.0
 10
788.0850354247732
 20
25.6928905170834
 30
0.0
 10
788.0850354247732
 20
25.63080524197045
 30
0.0
 10
788.0850354247732
 20
25.63080524197045
 30
0.0
 10
787.1847989129185
 20
25.63080524197045
 30
0.0
 10
787.1847989129185
 20
25.63080524197045
 30
0.0
 10
787.1847989129185
 20
25.63080524197045
 30
0.0
 10
787.1847989129185
 20
24.49204994212802
 30
0.0
 10
787.1847989129185
 20
24.49204994212802
 30
0.0
 10
787.1847989129185
 20
24.49204994212802
 30
0.0
 10
788.0850354247732
 20
24.49204994212802
 30
0.0
 10
788.0850354247732
 20
24.49204994212802
 30
0.0
 10
788.0693827915665
 20
23.15275185009502
 30
0.0
 10
788.0850354247732
 20
22.00123282618473
 30
0.0
 10
787.2645853217816
 20
21.43621480218199
 30
0.0
 10
787.2645853217816
 20
21.43621480218199
 30
0.0
 10
787.2042859160051
 20
21.39361652966533
 30
0.0
 10
787.2042859160051
 20
21.39361652966533
 30
0.0
 10
787.2042859160051
 20
21.39361652966533
 30
0.0
 10
787.2042859160051
 20
20.3425790043049
 30
0.0
 10
787.2042859160051
 20
20.3425790043049
 30
0.0
 10
787.2042859160051
 20
20.3425790043049
 30
0.0
 10
787.4048812388812
 20
20.43082203492001
 30
0.0
 10
787.4048812388812
 20
20.43082203492001
 30
0.0
 10
788.9852194110126
 20
21.12100859580292
 30
0.0
 10
789.0757735709055
 20
22.80755351842829
 30
0.0
 10
789.1245173414311
 20
24.49204994212802
 30
0.0
 10
789.1245173414311
 20
24.49204994212802
 30
0.0
 10
789.6292359739294
 20
24.49204994212802
 30
0.0
 10
789.6292359739294
 20
24.49204994212802
 30
0.0
 10
789.6292359739294
 20
24.49204994212802
 30
0.0
 10
789.6292359739294
 20
21.51752445181842
 30
0.0
 10
789.6292359739294
 20
21.51752445181842
 30
0.0
 10
789.6292359739294
 20
21.51752445181842
 30
0.0
 10
788.8393032531321
 20
21.51752445181842
 30
0.0
 10
788.8393032531321
 20
21.51752445181842
 30
0.0
 10
788.8393032531321
 20
21.51752445181842
 30
0.0
 10
788.8393032531321
 20
20.38827628801921
 30
0.0
 10
788.8393032531321
 20
20.38827628801921
 30
0.0
 10
788.8393032531321
 20
20.38827628801921
 30
0.0
 10
790.027537710866
 20
20.38827628801921
 30
0.0
 10
790.027537710866
 20
20.38827628801921
 30
0.0
 10
790.4696983361551
 20
20.38827628801921
 30
0.0
 10
790.7679913025344
 20
20.71498560374452
 30
0.0
 10
790.7679913025344
 20
21.21382861572447
 30
0.0
 10
790.7679913025344
 20
21.21382861572447
 30
0.0
 10
790.7679913025344
 20
24.96220670822436
 30
0.0
 10
790.7679913025344
 20
24.96220670822436
 30
0.0
 10
790.7679913025344
 20
25.38766417726032
 30
0.0
 10
790.5348300984926
 20
25.63080524197045
 30
0.0
 10
790.1273363789651
 20
25.63080524197045
 30
0.0
  0
SPLINE
  5
2A08
330
A
100
AcDbEntity
  8
図枠
 62
     0
370
     0
100
AcDbSpline
210
0.0
220
0.0
230
1.0
 70
    11
 71
     3
 72
    68
 73
    64
 74
     0
 42
0.000000001
 43
0.0000000001
 40
0.0
 40
0.0
 40
0.0
 40
0.0
 40
1.0
 40
1.0
 40
1.0
 40
2.0
 40
2.0
 40
2.0
 40
3.0
 40
3.0
 40
3.0
 40
4.0
 40
4.0
 40
4.0
 40
5.0
 40
5.0
 40
5.0
 40
6.0
 40
6.0
 40
6.0
 40
7.0
 40
7.0
 40
7.0
 40
8.0
 40
8.0
 40
8.0
 40
9.0
 40
9.0
 40
9.0
 40
10.0
 40
10.0
 40
10.0
 40
11.0
 40
11.0
 40
11.0
 40
12.0
 40
12.0
 40
12.0
 40
13.0
 40
13.0
 40
13.0
 40
14.0
 40
14.0
 40
14.0
 40
15.0
 40
15.0
 40
15.0
 40
16.0
 40
16.0
 40
16.0
 40
17.0
 40
17.0
 40
17.0
 40
18.0
 40
18.0
 40
18.0
 40
19.0
 40
19.0
 40
19.0
 40
20.0
 40
20.0
 40
20.0
 40
21.0
 40
21.0
 40
21.0
 40
21.0
 10
793.9159039224036
 20
25.63080524197045
 30
0.0
 10
793.9159039224036
 20
25.63080524197045
 30
0.0
 10
792.9256910324164
 20
25.63080524197045
 30
0.0
 10
792.9256910324164
 20
25.63080524197045
 30
0.0
 10
792.9246405201211
 20
25.73853527518122
 30
0.0
 10
792.9246405201211
 20
25.99422996150833
 30
0.0
 10
792.9246405201211
 20
25.99422996150833
 30
0.0
 10
792.9246405201211
 20
25.99422996150833
 30
0.0
 10
792.8449066368732
 20
25.99422996150833
 30
0.0
 10
792.8449066368732
 20
25.99422996150833
 30
0.0
 10
792.8449066368732
 20
25.99422996150833
 30
0.0
 10
791.871606994848
 20
25.99422996150833
 30
0.0
 10
791.871606994848
 20
25.99422996150833
 30
0.0
 10
791.871606994848
 20
25.99422996150833
 30
0.0
 10
791.8726049815273
 20
25.69236526094803
 30
0.0
 10
791.8726049815273
 20
25.63080524197045
 30
0.0
 10
791.8726049815273
 20
25.63080524197045
 30
0.0
 10
790.974469494266
 20
25.63080524197045
 30
0.0
 10
790.974469494266
 20
25.63080524197045
 30
0.0
 10
790.974469494266
 20
25.63080524197045
 30
0.0
 10
790.974469494266
 20
24.49204994212802
 30
0.0
 10
790.974469494266
 20
24.49204994212802
 30
0.0
 10
790.974469494266
 20
24.49204994212802
 30
0.0
 10
791.871606994848
 20
24.49204994212802
 30
0.0
 10
791.871606994848
 20
24.49204994212802
 30
0.0
 10
791.85054422332
 20
23.15532560515602
 30
0.0
 10
791.859526103447
 20
22.00659043875729
 30
0.0
 10
791.0349790025034
 20
21.43621480218199
 30
0.0
 10
791.0349790025034
 20
21.43621480218199
 30
0.0
 10
790.9718957391448
 20
21.39361652966533
 30
0.0
 10
790.9718957391448
 20
21.39361652966533
 30
0.0
 10
790.9718957391448
 20
21.39361652966533
 30
0.0
 10
790.9718957391448
 20
20.3425790043049
 30
0.0
 10
790.9718957391448
 20
20.3425790043049
 30
0.0
 10
790.9718957391448
 20
20.3425790043049
 30
0.0
 10
791.1719132802575
 20
20.43082203492001
 30
0.0
 10
791.1719132802575
 20
20.43082203492001
 30
0.0
 10
792.7607606019828
 20
21.12405508138344
 30
0.0
 10
792.8574602588079
 20
22.87935603202762
 30
0.0
 10
792.9115616420402
 20
24.49204994212802
 30
0.0
 10
792.9115616420402
 20
24.49204994212802
 30
0.0
 10
793.4178560429838
 20
24.49204994212802
 30
0.0
 10
793.4178560429838
 20
24.49204994212802
 30
0.0
 10
793.4178560429838
 20
24.49204994212802
 30
0.0
 10
793.4178560429838
 20
21.51752445181842
 30
0.0
 10
793.4178560429838
 20
21.51752445181842
 30
0.0
 10
793.4178560429838
 20
21.51752445181842
 30
0.0
 10
792.627398066037
 20
21.51752445181842
 30
0.0
 10
792.627398066037
 20
21.51752445181842
 30
0.0
 10
792.627398066037
 20
21.51752445181842
 30
0.0
 10
792.627398066037
 20
20.38827628801921
 30
0.0
 10
792.627398066037
 20
20.38827628801921
 30
0.0
 10
792.627398066037
 20
20.38827628801921
 30
0.0
 10
793.8161577799203
 20
20.38827628801921
 30
0.0
 10
793.8161577799203
 20
20.38827628801921
 30
0.0
 10
794.2588436613552
 20
20.38827628801921
 30
0.0
 10
794.5578719863415
 20
20.71498560374452
 30
0.0
 10
794.5578719863415
 20
21.21382861572447
 30
0.0
 10
794.5578719863415
 20
21.21382861572447
 30
0.0
 10
794.5578719863415
 20
24.96220670822436
 30
0.0
 10
794.5578719863415
 20
24.96220670822436
 30
0.0
 10
794.5578719863415
 20
25.38766417726032
 30
0.0
 10
794.3234501675431
 20
25.63080524197045
 30
0.0
 10
793.9159039224036
 20
25.63080524197045
 30
0.0
  0
HATCH
  5
2A09
330
A
100
AcDbEntity
  8
図枠
 62
     0
100
AcDbHatch
 10
0.0
 20
0.0
 30
0.0
210
0.0
220
0.0
230
1.0
  2
SOLID
 70
     1
 71
     0
 91
        4
 92
        1
 93
       13
 72
     1
 10
787.812374958407
 20
28.65255125878012
 11
786.9326759619353
 21
28.65255125878012
 72
     1
 10
786.9326759619353
 20
28.65255125878012
 11
786.9326759619353
 21
30.90285359068694
 72
     1
 10
786.9326759619353
 20
30.90285359068694
 11
786.8506309516364
 21
30.90285359068694
 72
     1
 10
786.8506309516363
 20
30.90285359068694
 11
785.7254797572605
 21
30.90285359068694
 72
     1
 10
785.7254797572605
 20
30.90285359068694
 11
785.7254797572605
 21
28.65255125878012
 72
     1
 10
785.7254797572605
 20
28.65255125878012
 11
784.9806665395647
 21
28.65255125878012
 72
     1
 10
784.9806665395647
 20
28.65255125878012
 11
784.9806665395647
 21
27.51432121507596
 72
     1
 10
784.9806665395647
 20
27.51432121507596
 11
785.7254797572605
 21
27.51432121507596
 72
     1
 10
785.7254797572605
 20
27.51432121507596
 11
785.7254797572605
 21
20.38827628801921
 72
     1
 10
785.7254797572605
 20
20.38827628801921
 11
786.9326759619353
 21
20.38827628801921
 72
     1
 10
786.9326759619353
 20
20.38827628801921
 11
786.9326759619353
 21
27.51432121507596
 72
     1
 10
786.9326759619353
 20
27.51432121507596
 11
787.812374958407
 21
27.51432121507596
 72
     1
 10
787.812374958407
 20
27.51432121507596
 11
787.812374958407
 21
28.65255125878012
 97
        0
 92
        1
 93
        2
 72
     4
 94
        3
 73
     0
 74
     0
 95
       77
 96
       73
 40
0.0
 40
0.0
 40
0.0
 40
0.0
 40
0.3527777776895833
 40
0.3527777776895833
 40
0.3527777776895833
 40
0.7055555553791667
 40
0.7055555553791667
 40
0.7055555553791667
 40
1.05833333306875
 40
1.05833333306875
 40
1.05833333306875
 40
1.411111110758333
 40
1.411111110758333
 40
1.411111110758333
 40
1.763888888447917
 40
1.763888888447917
 40
1.763888888447917
 40
2.1166666661375
 40
2.1166666661375
 40
2.1166666661375
 40
2.469444443827083
 40
2.469444443827083
 40
2.469444443827083
 40
2.822222221516667
 40
2.822222221516667
 40
2.822222221516667
 40
3.17499999920625
 40
3.17499999920625
 40
3.17499999920625
 40
3.527777776895833
 40
3.527777776895833
 40
3.527777776895833
 40
3.880555554585417
 40
3.880555554585417
 40
3.880555554585417
 40
4.233333332275
 40
4.233333332275
 40
4.233333332275
 40
4.586111109964584
 40
4.586111109964584
 40
4.586111109964584
 40
4.938888887654167
 40
4.938888887654167
 40
4.938888887654167
 40
5.29166666534375
 40
5.29166666534375
 40
5.29166666534375
 40
5.644444443033334
 40
5.644444443033334
 40
5.644444443033334
 40
5.997222220722917
 40
5.997222220722917
 40
5.997222220722917
 40
6.349999998412501
 40
6.349999998412501
 40
6.349999998412501
 40
6.702777776102083
 40
6.702777776102083
 40
6.702777776102083
 40
7.055555553791667
 40
7.055555553791667
 40
7.055555553791667
 40
7.40833333148125
 40
7.40833333148125
 40
7.40833333148125
 40
7.761111109170834
 40
7.761111109170834
 40
7.761111109170834
 40
8.113888886860417
 40
8.113888886860417
 40
8.113888886860417
 40
8.46666666455
 40
8.46666666455
 40
8.46666666455
 40
8.46666666455
 10
788.1942887035323
 20
27.29839583278311
 10
788.1942887035323
 20
27.29839583278311
 10
788.1942887035323
 20
27.29839583278311
 10
788.1942887035323
 20
27.29839583278311
 10
788.1942887035323
 20
27.29839583278311
 10
788.0809384268186
 20
27.27480441769437
 10
788.0809384268186
 20
27.27480441769437
 10
788.0809384268186
 20
27.27480441769437
 10
788.0809384268186
 20
26.23737841406292
 10
788.0809384268186
 20
26.23737841406292
 10
788.0809384268186
 20
26.23737841406292
 10
788.2427698459818
 20
26.25891391612774
 10
788.2427698459818
 20
26.25891391612774
 10
790.0716592272881
 20
26.51796285333028
 10
791.0600862463726
 20
27.29991166092899
 10
791.4435232343261
 20
28.94265022192841
 10
791.4435232343261
 20
28.94265022192841
 10
793.1657330919979
 20
28.94265022192841
 10
793.1657330919979
 20
28.94265022192841
 10
793.1657330919979
 20
28.94265022192841
 10
793.1657330919979
 20
27.42408221115106
 10
793.1657330919979
 20
27.42408221115106
 10
793.1657330919979
 20
27.42408221115106
 10
791.869558495873
 20
27.42408221115106
 10
791.869558495873
 20
27.42408221115106
 10
791.869558495873
 20
27.42408221115106
 10
791.869558495873
 20
26.28532691131152
 10
791.869558495873
 20
26.28532691131152
 10
791.869558495873
 20
26.28532691131152
 10
793.6553768730529
 20
26.28532691131152
 10
793.6553768730529
 20
26.28532691131152
 10
793.8979926877591
 20
26.28532691131152
 10
794.3052763048258
 20
26.37714168364253
 10
794.3052763048258
 20
26.99500047478752
 10
794.3052763048258
 20
26.99500047478752
 10
794.3052763048258
 20
29.47305386666006
 10
794.3052763048258
 20
29.47305386666006
 10
794.3052763048258
 20
29.7666720459084
 10
794.0749514839815
 20
30.08187825228747
 10
793.7014943628375
 20
30.08187825228747
 10
793.7014943628375
 20
30.08187825228747
 10
791.6048293973398
 20
30.08187825228747
 10
791.6048293973398
 20
30.08187825228747
 10
791.6089789209058
 20
30.21781453992604
 10
791.6305144229711
 20
30.75998392207355
 10
791.6305144229711
 20
30.75998392207355
 10
791.6305144229711
 20
30.75998392207355
 10
791.6305144229711
 20
30.90285359068694
 10
791.6305144229711
 20
30.90285359068694
 10
791.6305144229711
 20
30.90285359068694
 10
791.5507280141076
 20
30.90285359068694
 10
791.5507280141076
 20
30.90285359068694
 10
791.5507280141076
 20
30.90285359068694
 10
790.3725259487965
 20
30.90285359068694
 10
790.3725259487965
 20
30.90285359068694
 10
790.3725259487965
 20
30.90285359068694
 10
790.3725259487965
 20
30.75998392207355
 10
790.3725259487965
 20
30.75998392207355
 10
790.3725259487965
 20
30.75998392207355
 10
790.3594470707155
 20
30.20421040603766
 10
790.3552975471457
 20
30.08187825228747
 10
790.3552975471457
 20
30.08187825228747
 10
787.7587988313242
 20
30.08187825228747
 10
787.7587988313242
 20
30.08187825228747
 10
787.7587988313242
 20
30.08187825228747
 10
787.7587988313242
 20
28.94265022192841
 10
787.7587988313242
 20
28.94265022192841
 10
787.7587988313242
 20
28.94265022192841
 10
790.2011873933568
 20
28.94265022192841
 10
790.2011873933568
 20
28.94265022192841
 10
789.9503250571269
 20
27.97239709007226
 10
789.3640341448627
 20
27.54001366080938
 10
788.1942887035323
 20
27.29839583278311
 97
        0
 72
     1
 10
788.1942887035323
 20
27.29839583278311
 11
788.1942887035323
 21
27.29839583278311
 97
        0
 92
        1
 93
        2
 72
     4
 94
        3
 73
     0
 74
     0
 95
       74
 96
       70
 40
0.0
 40
0.0
 40
0.0
 40
0.0
 40
0.3527777776895833
 40
0.3527777776895833
 40
0.3527777776895833
 40
0.7055555553791667
 40
0.7055555553791667
 40
0.7055555553791667
 40
1.05833333306875
 40
1.05833333306875
 40
1.05833333306875
 40
1.411111110758333
 40
1.411111110758333
 40
1.411111110758333
 40
1.763888888447917
 40
1.763888888447917
 40
1.763888888447917
 40
2.1166666661375
 40
2.1166666661375
 40
2.1166666661375
 40
2.469444443827083
 40
2.469444443827083
 40
2.469444443827083
 40
2.822222221516667
 40
2.822222221516667
 40
2.822222221516667
 40
3.17499999920625
 40
3.17499999920625
 40
3.17499999920625
 40
3.527777776895833
 40
3.527777776895833
 40
3.527777776895833
 40
3.880555554585417
 40
3.880555554585417
 40
3.880555554585417
 40
4.233333332275
 40
4.233333332275
 40
4.233333332275
 40
4.586111109964584
 40
4.586111109964584
 40
4.586111109964584
 40
4.938888887654167
 40
4.938888887654167
 40
4.938888887654167
 40
5.29166666534375
 40
5.29166666534375
 40
5.29166666534375
 40
5.644444443033334
 40
5.644444443033334
 40
5.644444443033334
 40
5.997222220722917
 40
5.997222220722917
 40
5.997222220722917
 40
6.349999998412501
 40
6.349999998412501
 40
6.349999998412501
 40
6.702777776102083
 40
6.702777776102083
 40
6.702777776102083
 40
7.055555553791667
 40
7.055555553791667
 40
7.055555553791667
 40
7.40833333148125
 40
7.40833333148125
 40
7.40833333148125
 40
7.761111109170834
 40
7.761111109170834
 40
7.761111109170834
 40
8.113888886860417
 40
8.113888886860417
 40
8.113888886860417
 40
8.113888886860417
 10
790.1273363789651
 20
25.63080524197045
 10
790.1273363789651
 20
25.63080524197045
 10
789.137596219512
 20
25.63080524197045
 10
789.137596219512
 20
25.63080524197045
 10
789.137596219512
 20
25.63080524197045
 10
789.137596219512
 20
25.99422996150833
 10
789.137596219512
 20
25.99422996150833
 10
789.137596219512
 20
25.99422996150833
 10
789.0572845545021
 20
25.99422996150833
 10
789.0572845545021
 20
25.99422996150833
 10
789.0572845545021
 20
25.99422996150833
 10
788.1637713213404
 20
25.99422996150833
 10
788.1637713213404
 20
25.99422996150833
 10
788.1637713213404
 20
25.99422996150833
 10
788.0829869257956
 20
25.99422996150833
 10
788.0829869257956
 20
25.99422996150833
 10
788.0829869257956
 20
25.99422996150833
 10
788.0834596563292
 20
25.7656983932651
 10
788.0834596563292
 20
25.7656983932651
 10
788.0834596563292
 20
25.7656983932651
 10
788.0850354247732
 20
25.6928905170834
 10
788.0850354247732
 20
25.63080524197045
 10
788.0850354247732
 20
25.63080524197045
 10
787.1847989129185
 20
25.63080524197045
 10
787.1847989129185
 20
25.63080524197045
 10
787.1847989129185
 20
25.63080524197045
 10
787.1847989129185
 20
24.49204994212802
 10
787.1847989129185
 20
24.49204994212802
 10
787.1847989129185
 20
24.49204994212802
 10
788.0850354247732
 20
24.49204994212802
 10
788.0850354247732
 20
24.49204994212802
 10
788.0693827915665
 20
23.15275185009502
 10
788.0850354247732
 20
22.00123282618473
 10
787.2645853217816
 20
21.43621480218199
 10
787.2645853217816
 20
21.43621480218199
 10
787.2042859160051
 20
21.39361652966533
 10
787.2042859160051
 20
21.39361652966533
 10
787.2042859160051
 20
21.39361652966533
 10
787.2042859160051
 20
20.3425790043049
 10
787.2042859160051
 20
20.3425790043049
 10
787.2042859160051
 20
20.3425790043049
 10
787.4048812388812
 20
20.43082203492001
 10
787.4048812388812
 20
20.43082203492001
 10
788.9852194110126
 20
21.12100859580292
 10
789.0757735709055
 20
22.80755351842829
 10
789.1245173414311
 20
24.49204994212802
 10
789.1245173414311
 20
24.49204994212802
 10
789.6292359739294
 20
24.49204994212802
 10
789.6292359739294
 20
24.49204994212802
 10
789.6292359739294
 20
24.49204994212802
 10
789.6292359739294
 20
21.51752445181842
 10
789.6292359739294
 20
21.51752445181842
 10
789.6292359739294
 20
21.51752445181842
 10
788.8393032531321
 20
21.51752445181842
 10
788.8393032531321
 20
21.51752445181842
 10
788.8393032531321
 20
21.51752445181842
 10
788.8393032531321
 20
20.38827628801921
 10
788.8393032531321
 20
20.38827628801921
 10
788.8393032531321
 20
20.38827628801921
 10
790.027537710866
 20
20.38827628801921
 10
790.027537710866
 20
20.38827628801921
 10
790.4696983361551
 20
20.38827628801921
 10
790.7679913025344
 20
20.71498560374452
 10
790.7679913025344
 20
21.21382861572447
 10
790.7679913025344
 20
21.21382861572447
 10
790.7679913025344
 20
24.96220670822436
 10
790.7679913025344
 20
24.96220670822436
 10
790.7679913025344
 20
25.38766417726032
 10
790.5348300984926
 20
25.63080524197045
 10
790.1273363789651
 20
25.63080524197045
 97
        0
 72
     1
 10
790.1273363789651
 20
25.63080524197045
 11
790.1273363789651
 21
25.63080524197045
 97
        0
 92
        1
 93
        2
 72
     4
 94
        3
 73
     0
 74
     0
 95
       68
 96
       64
 40
0.0
 40
0.0
 40
0.0
 40
0.0
 40
0.3527777776895833
 40
0.3527777776895833
 40
0.3527777776895833
 40
0.7055555553791667
 40
0.7055555553791667
 40
0.7055555553791667
 40
1.05833333306875
 40
1.05833333306875
 40
1.05833333306875
 40
1.411111110758333
 40
1.411111110758333
 40
1.411111110758333
 40
1.763888888447917
 40
1.763888888447917
 40
1.763888888447917
 40
2.1166666661375
 40
2.1166666661375
 40
2.1166666661375
 40
2.469444443827083
 40
2.469444443827083
 40
2.469444443827083
 40
2.822222221516667
 40
2.822222221516667
 40
2.822222221516667
 40
3.17499999920625
 40
3.17499999920625
 40
3.17499999920625
 40
3.527777776895833
 40
3.527777776895833
 40
3.527777776895833
 40
3.880555554585417
 40
3.880555554585417
 40
3.880555554585417
 40
4.233333332275
 40
4.233333332275
 40
4.233333332275
 40
4.586111109964584
 40
4.586111109964584
 40
4.586111109964584
 40
4.938888887654167
 40
4.938888887654167
 40
4.938888887654167
 40
5.29166666534375
 40
5.29166666534375
 40
5.29166666534375
 40
5.644444443033334
 40
5.644444443033334
 40
5.644444443033334
 40
5.997222220722917
 40
5.997222220722917
 40
5.997222220722917
 40
6.349999998412501
 40
6.349999998412501
 40
6.349999998412501
 40
6.702777776102083
 40
6.702777776102083
 40
6.702777776102083
 40
7.055555553791667
 40
7.055555553791667
 40
7.055555553791667
 40
7.40833333148125
 40
7.40833333148125
 40
7.40833333148125
 40
7.40833333148125
 10
793.9159039224036
 20
25.63080524197045
 10
793.9159039224036
 20
25.63080524197045
 10
792.9256910324164
 20
25.63080524197045
 10
792.9256910324164
 20
25.63080524197045
 10
792.9246405201211
 20
25.73853527518122
 10
792.9246405201211
 20
25.99422996150833
 10
792.9246405201211
 20
25.99422996150833
 10
792.9246405201211
 20
25.99422996150833
 10
792.8449066368732
 20
25.99422996150833
 10
792.8449066368732
 20
25.99422996150833
 10
792.8449066368732
 20
25.99422996150833
 10
791.871606994848
 20
25.99422996150833
 10
791.871606994848
 20
25.99422996150833
 10
791.871606994848
 20
25.99422996150833
 10
791.8726049815273
 20
25.69236526094803
 10
791.8726049815273
 20
25.63080524197045
 10
791.8726049815273
 20
25.63080524197045
 10
790.974469494266
 20
25.63080524197045
 10
790.974469494266
 20
25.63080524197045
 10
790.974469494266
 20
25.63080524197045
 10
790.974469494266
 20
24.49204994212802
 10
790.974469494266
 20
24.49204994212802
 10
790.974469494266
 20
24.49204994212802
 10
791.871606994848
 20
24.49204994212802
 10
791.871606994848
 20
24.49204994212802
 10
791.85054422332
 20
23.15532560515602
 10
791.859526103447
 20
22.00659043875729
 10
791.0349790025034
 20
21.43621480218199
 10
791.0349790025034
 20
21.43621480218199
 10
790.9718957391448
 20
21.39361652966533
 10
790.9718957391448
 20
21.39361652966533
 10
790.9718957391448
 20
21.39361652966533
 10
790.9718957391448
 20
20.3425790043049
 10
790.9718957391448
 20
20.3425790043049
 10
790.9718957391448
 20
20.3425790043049
 10
791.1719132802575
 20
20.43082203492001
 10
791.1719132802575
 20
20.43082203492001
 10
792.7607606019828
 20
21.12405508138344
 10
792.8574602588079
 20
22.87935603202762
 10
792.9115616420402
 20
24.49204994212802
 10
792.9115616420402
 20
24.49204994212802
 10
793.4178560429838
 20
24.49204994212802
 10
793.4178560429838
 20
24.49204994212802
 10
793.4178560429838
 20
24.49204994212802
 10
793.4178560429838
 20
21.51752445181842
 10
793.4178560429838
 20
21.51752445181842
 10
793.4178560429838
 20
21.51752445181842
 10
792.627398066037
 20
21.51752445181842
 10
792.627398066037
 20
21.51752445181842
 10
792.627398066037
 20
21.51752445181842
 10
792.627398066037
 20
20.38827628801921
 10
792.627398066037
 20
20.38827628801921
 10
792.627398066037
 20
20.38827628801921
 10
793.8161577799203
 20
20.38827628801921
 10
793.8161577799203
 20
20.38827628801921
 10
794.2588436613552
 20
20.38827628801921
 10
794.5578719863415
 20
20.71498560374452
 10
794.5578719863415
 20
21.21382861572447
 10
794.5578719863415
 20
21.21382861572447
 10
794.5578719863415
 20
24.96220670822436
 10
794.5578719863415
 20
24.96220670822436
 10
794.5578719863415
 20
25.38766417726032
 10
794.3234501675431
 20
25.63080524197045
 10
793.9159039224036
 20
25.63080524197045
 97
        0
 72
     1
 10
793.9159039224036
 20
25.63080524197045
 11
793.9159039224036
 21
25.63080524197045
 97
        0
 75
     2
 76
     1
 98
        0
  0
POLYLINE
  5
2A0A
330
A
100
AcDbEntity
  8
図枠
 62
     0
370
     0
100
AcDb2dPolyline
 66
     1
 10
0.0
 20
0.0
 30
0.0
  0
VERTEX
  5
2A0B
330
2A0A
100
AcDbEntity
  8
図枠
 62
     0
370
     0
100
AcDbVertex
100
AcDb2dVertex
 10
784.2525564673714
 20
30.20168917659251
 30
0.0
  0
VERTEX
  5
2A0C
330
2A0A
100
AcDbEntity
  8
図枠
 62
     0
370
     0
100
AcDbVertex
100
AcDb2dVertex
 10
776.1236397971468
 20
30.20168917659251
 30
0.0
  0
VERTEX
  5
2A0D
330
2A0A
100
AcDbEntity
  8
図枠
 62
     0
370
     0
100
AcDbVertex
100
AcDb2dVertex
 10
776.1236397971468
 20
29.06293387675297
 30
0.0
  0
VERTEX
  5
2A0E
330
2A0A
100
AcDbEntity
  8
図枠
 62
     0
370
     0
100
AcDbVertex
100
AcDb2dVertex
 10
784.2525564673714
 20
29.06293387675297
 30
0.0
  0
VERTEX
  5
2A0F
330
2A0A
100
AcDbEntity
  8
図枠
 62
     0
370
     0
100
AcDbVertex
100
AcDb2dVertex
 10
784.2525564673714
 20
30.20168917659251
 30
0.0
  0
SEQEND
  5
2A10
330
2A0A
100
AcDbEntity
  8
図枠
 62
     0
370
     0
  0
HATCH
  5
2A11
330
A
100
AcDbEntity
  8
図枠
 62
     0
100
AcDbHatch
 10
0.0
 20
0.0
 30
0.0
210
0.0
220
0.0
230
1.0
  2
SOLID
 70
     1
 71
     0
 91
        1
 92
        1
 93
        4
 72
     1
 10
784.2525564673714
 20
30.20168917659251
 11
776.1236397971468
 21
30.20168917659251
 72
     1
 10
776.1236397971468
 20
30.20168917659251
 11
776.1236397971468
 21
29.06293387675297
 72
     1
 10
776.1236397971468
 20
29.06293387675297
 11
784.2525564673714
 21
29.06293387675297
 72
     1
 10
784.2525564673714
 20
29.06293387675297
 11
784.2525564673714
 21
30.20168917659251
 97
        0
 75
     2
 76
     1
 98
        0
  0
POLYLINE
  5
2A12
330
A
100
AcDbEntity
  8
図枠
 62
     0
370
     0
100
AcDb2dPolyline
 66
     1
 10
0.0
 20
0.0
 30
0.0
  0
VERTEX
  5
2A13
330
2A12
100
AcDbEntity
  8
図枠
 62
     0
370
     0
100
AcDbVertex
100
AcDb2dVertex
 10
783.9683928913688
 20
26.0104078504545
 30
0.0
  0
VERTEX
  5
2A14
330
2A12
100
AcDbEntity
  8
図枠
 62
     0
370
     0
100
AcDbVertex
100
AcDb2dVertex
 10
776.4062801303212
 20
26.0104078504545
 30
0.0
  0
VERTEX
  5
2A15
330
2A12
100
AcDbEntity
  8
図枠
 62
     0
370
     0
100
AcDbVertex
100
AcDb2dVertex
 10
776.4062801303212
 20
24.87217780674937
 30
0.0
  0
VERTEX
  5
2A16
330
2A12
100
AcDbEntity
  8
図枠
 62
     0
370
     0
100
AcDbVertex
100
AcDb2dVertex
 10
783.9683928913688
 20
24.87217780674937
 30
0.0
  0
VERTEX
  5
2A17
330
2A12
100
AcDbEntity
  8
図枠
 62
     0
370
     0
100
AcDbVertex
100
AcDb2dVertex
 10
783.9683928913688
 20
26.0104078504545
 30
0.0
  0
SEQEND
  5
2A18
330
2A12
100
AcDbEntity
  8
図枠
 62
     0
370
     0
  0
HATCH
  5
2A19
330
A
100
AcDbEntity
  8
図枠
 62
     0
100
AcDbHatch
 10
0.0
 20
0.0
 30
0.0
210
0.0
220
0.0
230
1.0
  2
SOLID
 70
     1
 71
     0
 91
        1
 92
        1
 93
        4
 72
     1
 10
783.9683928913688
 20
26.0104078504545
 11
776.4062801303212
 21
26.0104078504545
 72
     1
 10
776.4062801303212
 20
26.0104078504545
 11
776.4062801303212
 21
24.87217780674937
 72
     1
 10
776.4062801303212
 20
24.87217780674937
 11
783.9683928913688
 21
24.87217780674937
 72
     1
 10
783.9683928913688
 20
24.87217780674937
 11
783.9683928913688
 21
26.0104078504545
 97
        0
 75
     2
 76
     1
 98
        0
  0
POLYLINE
  5
2A1A
330
A
100
AcDbEntity
  8
図枠
 62
     0
370
     0
100
AcDb2dPolyline
 66
     1
 10
0.0
 20
0.0
 30
0.0
  0
VERTEX
  5
2A1B
330
2A1A
100
AcDbEntity
  8
図枠
 62
     0
370
     0
100
AcDbVertex
100
AcDb2dVertex
 10
775.6111998992742
 20
20.6085687108741
 30
0.0
  0
VERTEX
  5
2A1C
330
2A1A
100
AcDbEntity
  8
図枠
 62
     0
370
     0
100
AcDbVertex
100
AcDb2dVertex
 10
784.7642084810223
 20
20.6085687108741
 30
0.0
  0
VERTEX
  5
2A1D
330
2A1A
100
AcDbEntity
  8
図枠
 62
     0
370
     0
100
AcDbVertex
100
AcDb2dVertex
 10
784.7642084810223
 20
21.74679875457826
 30
0.0
  0
VERTEX
  5
2A1E
330
2A1A
100
AcDbEntity
  8
図枠
 62
     0
370
     0
100
AcDbVertex
100
AcDb2dVertex
 10
775.6111998992742
 20
21.74679875457826
 30
0.0
  0
VERTEX
  5
2A1F
330
2A1A
100
AcDbEntity
  8
図枠
 62
     0
370
     0
100
AcDbVertex
100
AcDb2dVertex
 10
775.6111998992742
 20
20.6085687108741
 30
0.0
  0
SEQEND
  5
2A20
330
2A1A
100
AcDbEntity
  8
図枠
 62
     0
370
     0
  0
HATCH
  5
2A21
330
A
100
AcDbEntity
  8
図枠
 62
     0
100
AcDbHatch
 10
0.0
 20
0.0
 30
0.0
210
0.0
220
0.0
230
1.0
  2
SOLID
 70
     1
 71
     0
 91
        1
 92
        1
 93
        4
 72
     1
 10
775.6111998992742
 20
20.6085687108741
 11
784.7642084810223
 21
20.6085687108741
 72
     1
 10
784.7642084810223
 20
20.6085687108741
 11
784.7642084810223
 21
21.74679875457826
 72
     1
 10
784.7642084810223
 20
21.74679875457826
 11
775.6111998992742
 21
21.74679875457826
 72
     1
 10
775.6111998992742
 20
21.74679875457826
 11
775.6111998992742
 21
20.6085687108741
 97
        0
 75
     2
 76
     1
 98
        0
  0
SPLINE
  5
2A22
330
A
100
AcDbEntity
  8
図枠
 62
     0
370
     0
100
AcDbSpline
210
0.0
220
0.0
230
1.0
 70
    11
 71
     3
 72
    59
 73
    55
 74
     0
 42
0.000000001
 43
0.0000000001
 40
0.0
 40
0.0
 40
0.0
 40
0.0
 40
1.0
 40
1.0
 40
1.0
 40
2.0
 40
2.0
 40
2.0
 40
3.0
 40
3.0
 40
3.0
 40
4.0
 40
4.0
 40
4.0
 40
5.0
 40
5.0
 40
5.0
 40
6.0
 40
6.0
 40
6.0
 40
7.0
 40
7.0
 40
7.0
 40
8.0
 40
8.0
 40
8.0
 40
9.0
 40
9.0
 40
9.0
 40
10.0
 40
10.0
 40
10.0
 40
11.0
 40
11.0
 40
11.0
 40
12.0
 40
12.0
 40
12.0
 40
13.0
 40
13.0
 40
13.0
 40
14.0
 40
14.0
 40
14.0
 40
15.0
 40
15.0
 40
15.0
 40
16.0
 40
16.0
 40
16.0
 40
17.0
 40
17.0
 40
17.0
 40
18.0
 40
18.0
 40
18.0
 40
18.0
 10
795.3942373506165
 20
30.41888258825423
 30
0.0
 10
795.3942373506165
 20
30.41888258825423
 30
0.0
 10
795.3149761978991
 20
30.41888258825423
 30
0.0
 10
795.3149761978991
 20
30.41888258825423
 30
0.0
 10
795.3149761978991
 20
30.41888258825423
 30
0.0
 10
795.3149761978991
 20
29.24504017862473
 30
0.0
 10
795.3149761978991
 20
29.24504017862473
 30
0.0
 10
795.3149761978991
 20
29.24504017862473
 30
0.0
 10
802.5949738819166
 20
29.24504017862473
 30
0.0
 10
802.5949738819166
 20
29.24504017862473
 30
0.0
 10
802.5103551164958
 20
27.82931731900511
 30
0.0
 10
801.1220505920295
 20
26.16478062841799
 30
0.0
 10
799.8840743770869
 20
25.69362587567253
 30
0.0
 10
799.8873834908186
 20
25.76826477239863
 30
0.0
 10
799.8840743770869
 20
26.0203877170137
 30
0.0
 10
799.8840743770869
 20
26.0203877170137
 30
0.0
 10
799.8840743770869
 20
26.0203877170137
 30
0.0
 10
799.8840743770869
 20
27.67846375714231
 30
0.0
 10
799.8840743770869
 20
27.67846375714231
 30
0.0
 10
799.8840743770869
 20
27.67846375714231
 30
0.0
 10
798.5963038793268
 20
27.67846375714231
 30
0.0
 10
798.5963038793268
 20
27.67846375714231
 30
0.0
 10
798.5963038793268
 20
27.67846375714231
 30
0.0
 10
798.5963038793268
 20
26.39484281537896
 30
0.0
 10
798.5963038793268
 20
26.39484281537896
 30
0.0
 10
798.5963038793268
 20
23.65137749868234
 30
0.0
 10
798.2190123883062
 20
22.43925120873241
 30
0.0
 10
795.4624681242249
 20
21.48853758106448
 30
0.0
 10
795.4624681242249
 20
21.48853758106448
 30
0.0
 10
795.4172960955075
 20
21.47698194581298
 30
0.0
 10
795.4172960955075
 20
21.47698194581298
 30
0.0
 10
795.4172960955075
 20
21.47698194581298
 30
0.0
 10
795.3590977143213
 20
21.45953617456059
 30
0.0
 10
795.3590977143213
 20
21.45953617456059
 30
0.0
 10
795.3590977143213
 20
21.45953617456059
 30
0.0
 10
795.3590977143213
 20
20.34877702669508
 30
0.0
 10
795.3590977143213
 20
20.34877702669508
 30
0.0
 10
795.3590977143213
 20
20.34877702669508
 30
0.0
 10
795.5365817666893
 20
20.39390376888105
 30
0.0
 10
795.5365817666893
 20
20.39390376888105
 30
0.0
 10
797.9889501955308
 20
21.06711731638992
 30
0.0
 10
799.2690519535331
 20
21.97376193034607
 30
0.0
 10
799.7807039671866
 20
24.31535377844467
 30
0.0
 10
802.3128588048917
 20
25.16096362956149
 30
0.0
 10
804.0183655170623
 20
27.66128788154125
 30
0.0
 10
804.0183655170623
 20
29.82645367253752
 30
0.0
 10
804.0237756553848
 20
29.82439769510048
 30
0.0
 10
804.0484101687205
 20
30.0416436323787
 30
0.0
 10
803.8965586163674
 20
30.21886505219357
 30
0.0
 10
803.7816850968281
 20
30.35118456426866
 30
0.0
 10
803.6028879040878
 20
30.41888258825423
 30
0.0
 10
803.3661549582376
 20
30.41888258825423
 30
0.0
 10
803.3661549582376
 20
30.41888258825423
 30
0.0
 10
795.3942373506165
 20
30.41888258825423
 30
0.0
 10
795.3942373506165
 20
30.41888258825423
 30
0.0
  0
HATCH
  5
2A23
330
A
100
AcDbEntity
  8
図枠
 62
     0
100
AcDbHatch
 10
0.0
 20
0.0
 30
0.0
210
0.0
220
0.0
230
1.0
  2
SOLID
 70
     1
 71
     0
 91
        1
 92
        1
 93
        1
 72
     4
 94
        3
 73
     0
 74
     1
 95
       59
 96
       55
 40
0.0
 40
0.0
 40
0.0
 40
0.0
 40
1.0
 40
1.0
 40
1.0
 40
2.0
 40
2.0
 40
2.0
 40
3.0
 40
3.0
 40
3.0
 40
4.0
 40
4.0
 40
4.0
 40
5.0
 40
5.0
 40
5.0
 40
6.0
 40
6.0
 40
6.0
 40
7.0
 40
7.0
 40
7.0
 40
8.0
 40
8.0
 40
8.0
 40
9.0
 40
9.0
 40
9.0
 40
10.0
 40
10.0
 40
10.0
 40
11.0
 40
11.0
 40
11.0
 40
12.0
 40
12.0
 40
12.0
 40
13.0
 40
13.0
 40
13.0
 40
14.0
 40
14.0
 40
14.0
 40
15.0
 40
15.0
 40
15.0
 40
16.0
 40
16.0
 40
16.0
 40
17.0
 40
17.0
 40
17.0
 40
18.0
 40
18.0
 40
18.0
 40
18.0
 10
795.3942373506165
 20
30.41888258825423
 10
795.3942373506165
 20
30.41888258825423
 10
795.3149761978991
 20
30.41888258825423
 10
795.3149761978991
 20
30.41888258825423
 10
795.3149761978991
 20
30.41888258825423
 10
795.3149761978991
 20
29.24504017862473
 10
795.3149761978991
 20
29.24504017862473
 10
795.3149761978991
 20
29.24504017862473
 10
802.5949738819166
 20
29.24504017862473
 10
802.5949738819166
 20
29.24504017862473
 10
802.5103551164958
 20
27.82931731900511
 10
801.1220505920295
 20
26.16478062841799
 10
799.8840743770869
 20
25.69362587567253
 10
799.8873834908186
 20
25.76826477239863
 10
799.8840743770869
 20
26.0203877170137
 10
799.8840743770869
 20
26.0203877170137
 10
799.8840743770869
 20
26.0203877170137
 10
799.8840743770869
 20
27.67846375714231
 10
799.8840743770869
 20
27.67846375714231
 10
799.8840743770869
 20
27.67846375714231
 10
798.5963038793268
 20
27.67846375714231
 10
798.5963038793268
 20
27.67846375714231
 10
798.5963038793268
 20
27.67846375714231
 10
798.5963038793268
 20
26.39484281537896
 10
798.5963038793268
 20
26.39484281537896
 10
798.5963038793268
 20
23.65137749868234
 10
798.2190123883062
 20
22.43925120873241
 10
795.4624681242249
 20
21.48853758106448
 10
795.4624681242249
 20
21.48853758106448
 10
795.4172960955075
 20
21.47698194581298
 10
795.4172960955075
 20
21.47698194581298
 10
795.4172960955075
 20
21.47698194581298
 10
795.3590977143213
 20
21.45953617456059
 10
795.3590977143213
 20
21.45953617456059
 10
795.3590977143213
 20
21.45953617456059
 10
795.3590977143213
 20
20.34877702669508
 10
795.3590977143213
 20
20.34877702669508
 10
795.3590977143213
 20
20.34877702669508
 10
795.5365817666893
 20
20.39390376888105
 10
795.5365817666893
 20
20.39390376888105
 10
797.9889501955308
 20
21.06711731638992
 10
799.2690519535331
 20
21.97376193034607
 10
799.7807039671866
 20
24.31535377844467
 10
802.3128588048917
 20
25.16096362956149
 10
804.0183655170623
 20
27.66128788154125
 10
804.0183655170623
 20
29.82645367253752
 10
804.0237756553848
 20
29.82439769510048
 10
804.0484101687205
 20
30.0416436323787
 10
803.8965586163674
 20
30.21886505219357
 10
803.7816850968281
 20
30.35118456426866
 10
803.6028879040878
 20
30.41888258825423
 10
803.3661549582376
 20
30.41888258825423
 10
803.3661549582376
 20
30.41888258825423
 10
795.3942373506165
 20
30.41888258825423
 10
795.3942373506165
 20
30.41888258825423
 97
        0
 97
        0
 75
     2
 76
     1
 98
        0
  0
SPLINE
  5
2A24
330
A
100
AcDbEntity
  8
図枠
 62
     0
370
     0
100
AcDbSpline
210
0.0
220
0.0
230
1.0
 70
    11
 71
     3
 72
    35
 73
    31
 74
     0
 42
0.000000001
 43
0.0000000001
 40
0.0
 40
0.0
 40
0.0
 40
0.0
 40
1.0
 40
1.0
 40
1.0
 40
2.0
 40
2.0
 40
2.0
 40
3.0
 40
3.0
 40
3.0
 40
4.0
 40
4.0
 40
4.0
 40
5.0
 40
5.0
 40
5.0
 40
6.0
 40
6.0
 40
6.0
 40
7.0
 40
7.0
 40
7.0
 40
8.0
 40
8.0
 40
8.0
 40
9.0
 40
9.0
 40
9.0
 40
10.0
 40
10.0
 40
10.0
 40
10.0
 10
806.5143827317955
 20
30.40275722492134
 30
0.0
 10
806.5143827317955
 20
30.40275722492134
 30
0.0
 10
805.2679498928723
 20
30.40275722492134
 30
0.0
 10
805.2679498928723
 20
30.40275722492134
 30
0.0
 10
805.2679498928723
 20
30.40275722492134
 30
0.0
 10
805.2679498928723
 20
25.60081311668663
 30
0.0
 10
805.2679498928723
 20
25.60081311668663
 30
0.0
 10
805.2679498928723
 20
23.43260831861771
 30
0.0
 10
804.5652096926198
 20
22.15098335016094
 30
0.0
 10
803.5598168999613
 20
21.68187709634111
 30
0.0
 10
803.5598168999613
 20
21.68187709634111
 30
0.0
 10
803.5241520075198
 20
21.66522647687221
 30
0.0
 10
803.5241520075198
 20
21.66522647687221
 30
0.0
 10
803.5241520075198
 20
21.66522647687221
 30
0.0
 10
803.4756708650708
 20
21.64468896200902
 30
0.0
 10
803.4756708650708
 20
21.64468896200902
 30
0.0
 10
803.4756708650708
 20
21.64468896200902
 30
0.0
 10
803.4756708650708
 20
20.31952025999655
 30
0.0
 10
803.4756708650708
 20
20.31952025999655
 30
0.0
 10
803.4756708650708
 20
20.31952025999655
 30
0.0
 10
803.7096199533355
 20
20.40030465350083
 30
0.0
 10
803.7096199533355
 20
20.40030465350083
 30
0.0
 10
805.568501460688
 20
21.15457246280327
 30
0.0
 10
806.5554052369437
 20
22.61315622300915
 30
0.0
 10
806.594169140656
 20
25.27841090125864
 30
0.0
 10
806.594169140656
 20
25.27841090125864
 30
0.0
 10
806.594169140656
 20
30.40275722492134
 30
0.0
 10
806.594169140656
 20
30.40275722492134
 30
0.0
 10
806.594169140656
 20
30.40275722492134
 30
0.0
 10
806.5143827317955
 20
30.40275722492134
 30
0.0
 10
806.5143827317955
 20
30.40275722492134
 30
0.0
  0
HATCH
  5
2A25
330
A
100
AcDbEntity
  8
図枠
 62
     0
100
AcDbHatch
 10
0.0
 20
0.0
 30
0.0
210
0.0
220
0.0
230
1.0
  2
SOLID
 70
     1
 71
     0
 91
        1
 92
        1
 93
        1
 72
     4
 94
        3
 73
     0
 74
     1
 95
       35
 96
       31
 40
0.0
 40
0.0
 40
0.0
 40
0.0
 40
1.0
 40
1.0
 40
1.0
 40
2.0
 40
2.0
 40
2.0
 40
3.0
 40
3.0
 40
3.0
 40
4.0
 40
4.0
 40
4.0
 40
5.0
 40
5.0
 40
5.0
 40
6.0
 40
6.0
 40
6.0
 40
7.0
 40
7.0
 40
7.0
 40
8.0
 40
8.0
 40
8.0
 40
9.0
 40
9.0
 40
9.0
 40
10.0
 40
10.0
 40
10.0
 40
10.0
 10
806.5143827317955
 20
30.40275722492134
 10
806.5143827317955
 20
30.40275722492134
 10
805.2679498928723
 20
30.40275722492134
 10
805.2679498928723
 20
30.40275722492134
 10
805.2679498928723
 20
30.40275722492134
 10
805.2679498928723
 20
25.60081311668663
 10
805.2679498928723
 20
25.60081311668663
 10
805.2679498928723
 20
23.43260831861771
 10
804.5652096926198
 20
22.15098335016094
 10
803.5598168999613
 20
21.68187709634111
 10
803.5598168999613
 20
21.68187709634111
 10
803.5241520075198
 20
21.66522647687221
 10
803.5241520075198
 20
21.66522647687221
 10
803.5241520075198
 20
21.66522647687221
 10
803.4756708650708
 20
21.64468896200902
 10
803.4756708650708
 20
21.64468896200902
 10
803.4756708650708
 20
21.64468896200902
 10
803.4756708650708
 20
20.31952025999655
 10
803.4756708650708
 20
20.31952025999655
 10
803.4756708650708
 20
20.31952025999655
 10
803.7096199533355
 20
20.40030465350083
 10
803.7096199533355
 20
20.40030465350083
 10
805.568501460688
 20
21.15457246280327
 10
806.5554052369437
 20
22.61315622300915
 10
806.594169140656
 20
25.27841090125864
 10
806.594169140656
 20
25.27841090125864
 10
806.594169140656
 20
30.40275722492134
 10
806.594169140656
 20
30.40275722492134
 10
806.594169140656
 20
30.40275722492134
 10
806.5143827317955
 20
30.40275722492134
 10
806.5143827317955
 20
30.40275722492134
 97
        0
 97
        0
 75
     2
 76
     1
 98
        0
  0
SPLINE
  5
2A26
330
A
100
AcDbEntity
  8
図枠
 62
     0
370
     0
100
AcDbSpline
210
0.0
220
0.0
230
1.0
 70
    11
 71
     3
 72
    38
 73
    34
 74
     0
 42
0.000000001
 43
0.0000000001
 40
0.0
 40
0.0
 40
0.0
 40
0.0
 40
1.0
 40
1.0
 40
1.0
 40
2.0
 40
2.0
 40
2.0
 40
3.0
 40
3.0
 40
3.0
 40
4.0
 40
4.0
 40
4.0
 40
5.0
 40
5.0
 40
5.0
 40
6.0
 40
6.0
 40
6.0
 40
7.0
 40
7.0
 40
7.0
 40
8.0
 40
8.0
 40
8.0
 40
9.0
 40
9.0
 40
9.0
 40
10.0
 40
10.0
 40
10.0
 40
11.0
 40
11.0
 40
11.0
 40
11.0
 10
809.1252734660654
 20
30.40275722492134
 30
0.0
 10
809.1252734660654
 20
30.40275722492134
 30
0.0
 10
807.8788406271453
 20
30.40275722492134
 30
0.0
 10
807.8788406271453
 20
30.40275722492134
 30
0.0
 10
807.8788406271453
 20
30.40275722492134
 30
0.0
 10
807.8788406271453
 20
21.08844271545489
 30
0.0
 10
807.8788406271453
 20
21.08844271545489
 30
0.0
 10
807.8788406271453
 20
20.86195227020982
 30
0.0
 10
807.9434471333334
 20
20.68446822232534
 30
0.0
 10
808.0706641723509
 20
20.55830894316881
 30
0.0
 10
808.2360673333211
 20
20.39720564230766
 30
0.0
 10
808.4440687678778
 20
20.38874901853809
 30
0.0
 10
808.4838306582731
 20
20.38874901853809
 30
0.0
 10
810.9185504805499
 20
20.38874901853809
 30
0.0
 10
813.3755411634949
 20
22.2802488848898
 30
0.0
 10
813.3755411634949
 20
26.66441166229227
 30
0.0
 10
813.3755411634949
 20
26.66441166229227
 30
0.0
 10
813.3755411634949
 20
26.87776330554028
 30
0.0
 10
813.3755411634949
 20
26.87776330554028
 30
0.0
 10
813.3755411634949
 20
26.87776330554028
 30
0.0
 10
812.1519044413891
 20
26.87776330554028
 30
0.0
 10
812.1519044413891
 20
26.87776330554028
 30
0.0
 10
812.1519044413891
 20
26.87776330554028
 30
0.0
 10
812.1519044413891
 20
26.77055852846487
 30
0.0
 10
812.1519044413891
 20
26.77055852846487
 30
0.0
 10
812.1519044413891
 20
23.69523638592414
 30
0.0
 10
810.6935832724123
 20
22.04813819900641
 30
0.0
 10
809.205059874929
 20
21.81219314333751
 30
0.0
 10
809.205059874929
 20
21.81219314333751
 30
0.0
 10
809.205059874929
 20
30.40275722492134
 30
0.0
 10
809.205059874929
 20
30.40275722492134
 30
0.0
 10
809.205059874929
 20
30.40275722492134
 30
0.0
 10
809.1252734660654
 20
30.40275722492134
 30
0.0
 10
809.1252734660654
 20
30.40275722492134
 30
0.0
  0
HATCH
  5
2A27
330
A
100
AcDbEntity
  8
図枠
 62
     0
100
AcDbHatch
 10
0.0
 20
0.0
 30
0.0
210
0.0
220
0.0
230
1.0
  2
SOLID
 70
     1
 71
     0
 91
        1
 92
        1
 93
        1
 72
     4
 94
        3
 73
     0
 74
     1
 95
       38
 96
       34
 40
0.0
 40
0.0
 40
0.0
 40
0.0
 40
1.0
 40
1.0
 40
1.0
 40
2.0
 40
2.0
 40
2.0
 40
3.0
 40
3.0
 40
3.0
 40
4.0
 40
4.0
 40
4.0
 40
5.0
 40
5.0
 40
5.0
 40
6.0
 40
6.0
 40
6.0
 40
7.0
 40
7.0
 40
7.0
 40
8.0
 40
8.0
 40
8.0
 40
9.0
 40
9.0
 40
9.0
 40
10.0
 40
10.0
 40
10.0
 40
11.0
 40
11.0
 40
11.0
 40
11.0
 10
809.1252734660654
 20
30.40275722492134
 10
809.1252734660654
 20
30.40275722492134
 10
807.8788406271453
 20
30.40275722492134
 10
807.8788406271453
 20
30.40275722492134
 10
807.8788406271453
 20
30.40275722492134
 10
807.8788406271453
 20
21.08844271545489
 10
807.8788406271453
 20
21.08844271545489
 10
807.8788406271453
 20
20.86195227020982
 10
807.9434471333334
 20
20.68446822232534
 10
808.0706641723509
 20
20.55830894316881
 10
808.2360673333211
 20
20.39720564230766
 10
808.4440687678778
 20
20.38874901853809
 10
808.4838306582731
 20
20.38874901853809
 10
810.9185504805499
 20
20.38874901853809
 10
813.3755411634949
 20
22.2802488848898
 10
813.3755411634949
 20
26.66441166229227
 10
813.3755411634949
 20
26.66441166229227
 10
813.3755411634949
 20
26.87776330554028
 10
813.3755411634949
 20
26.87776330554028
 10
813.3755411634949
 20
26.87776330554028
 10
812.1519044413891
 20
26.87776330554028
 10
812.1519044413891
 20
26.87776330554028
 10
812.1519044413891
 20
26.87776330554028
 10
812.1519044413891
 20
26.77055852846487
 10
812.1519044413891
 20
26.77055852846487
 10
812.1519044413891
 20
23.69523638592414
 10
810.6935832724123
 20
22.04813819900641
 10
809.205059874929
 20
21.81219314333751
 10
809.205059874929
 20
21.81219314333751
 10
809.205059874929
 20
30.40275722492134
 10
809.205059874929
 20
30.40275722492134
 10
809.205059874929
 20
30.40275722492134
 10
809.1252734660654
 20
30.40275722492134
 10
809.1252734660654
 20
30.40275722492134
 97
        0
 97
        0
 75
     2
 76
     1
 98
        0
  0
SPLINE
  5
2A28
330
A
100
AcDbEntity
  8
図枠
 62
     0
370
     0
100
AcDbSpline
210
0.0
220
0.0
230
1.0
 70
    11
 71
     3
 72
    35
 73
    31
 74
     0
 42
0.000000001
 43
0.0000000001
 40
0.0
 40
0.0
 40
0.0
 40
0.0
 40
1.0
 40
1.0
 40
1.0
 40
2.0
 40
2.0
 40
2.0
 40
3.0
 40
3.0
 40
3.0
 40
4.0
 40
4.0
 40
4.0
 40
5.0
 40
5.0
 40
5.0
 40
6.0
 40
6.0
 40
6.0
 40
7.0
 40
7.0
 40
7.0
 40
8.0
 40
8.0
 40
8.0
 40
9.0
 40
9.0
 40
9.0
 40
10.0
 40
10.0
 40
10.0
 40
10.0
 10
814.3511519325687
 20
30.36504383445709
 30
0.0
 10
814.3511519325687
 20
30.36504383445709
 30
0.0
 10
814.2067590175131
 20
30.36504383445709
 30
0.0
 10
814.2067590175131
 20
30.36504383445709
 30
0.0
 10
814.2067590175131
 20
30.36504383445709
 30
0.0
 10
814.2067590175131
 20
29.10653013592837
 30
0.0
 10
814.2067590175131
 20
29.10653013592837
 30
0.0
 10
814.2067590175131
 20
29.10653013592837
 30
0.0
 10
816.2252119966613
 20
29.10653013592837
 30
0.0
 10
816.2252119966613
 20
29.10653013592837
 30
0.0
 10
819.0774578588328
 20
29.10653013592837
 30
0.0
 10
820.918900815557
 20
28.28608005366106
 30
0.0
 10
821.1179203649633
 20
28.19247941047403
 30
0.0
 10
821.1179203649633
 20
28.19247941047403
 30
0.0
 10
821.3159419277079
 20
28.10066463814302
 30
0.0
 10
821.3159419277079
 20
28.10066463814302
 30
0.0
 10
821.3159419277079
 20
28.10066463814302
 30
0.0
 10
821.3259217942671
 20
28.31659743508409
 30
0.0
 10
821.3259217942671
 20
28.31659743508409
 30
0.0
 10
821.3259217942671
 20
28.31659743508409
 30
0.0
 10
821.327236409423
 20
29.32403870126914
 30
0.0
 10
821.327236409423
 20
29.32403870126914
 30
0.0
 10
821.327236409423
 20
29.32403870126914
 30
0.0
 10
821.2556425234579
 20
29.3655864615189
 30
0.0
 10
821.2556425234579
 20
29.3655864615189
 30
0.0
 10
821.2387292759233
 20
29.37477844387312
 30
0.0
 10
819.4888398918401
 20
30.36504383445709
 30
0.0
 10
815.959012187639
 20
30.36504383445709
 30
0.0
 10
815.959012187639
 20
30.36504383445709
 30
0.0
 10
814.3511519325687
 20
30.36504383445709
 30
0.0
 10
814.3511519325687
 20
30.36504383445709
 30
0.0
  0
HATCH
  5
2A29
330
A
100
AcDbEntity
  8
図枠
 62
     0
100
AcDbHatch
 10
0.0
 20
0.0
 30
0.0
210
0.0
220
0.0
230
1.0
  2
SOLID
 70
     1
 71
     0
 91
        1
 92
        1
 93
        1
 72
     4
 94
        3
 73
     0
 74
     1
 95
       35
 96
       31
 40
0.0
 40
0.0
 40
0.0
 40
0.0
 40
1.0
 40
1.0
 40
1.0
 40
2.0
 40
2.0
 40
2.0
 40
3.0
 40
3.0
 40
3.0
 40
4.0
 40
4.0
 40
4.0
 40
5.0
 40
5.0
 40
5.0
 40
6.0
 40
6.0
 40
6.0
 40
7.0
 40
7.0
 40
7.0
 40
8.0
 40
8.0
 40
8.0
 40
9.0
 40
9.0
 40
9.0
 40
10.0
 40
10.0
 40
10.0
 40
10.0
 10
814.3511519325687
 20
30.36504383445709
 10
814.3511519325687
 20
30.36504383445709
 10
814.2067590175131
 20
30.36504383445709
 10
814.2067590175131
 20
30.36504383445709
 10
814.2067590175131
 20
30.36504383445709
 10
814.2067590175131
 20
29.10653013592837
 10
814.2067590175131
 20
29.10653013592837
 10
814.2067590175131
 20
29.10653013592837
 10
816.2252119966613
 20
29.10653013592837
 10
816.2252119966613
 20
29.10653013592837
 10
819.0774578588328
 20
29.10653013592837
 10
820.918900815557
 20
28.28608005366106
 10
821.1179203649633
 20
28.19247941047403
 10
821.1179203649633
 20
28.19247941047403
 10
821.3159419277079
 20
28.10066463814302
 10
821.3159419277079
 20
28.10066463814302
 10
821.3159419277079
 20
28.10066463814302
 10
821.3259217942671
 20
28.31659743508409
 10
821.3259217942671
 20
28.31659743508409
 10
821.3259217942671
 20
28.31659743508409
 10
821.327236409423
 20
29.32403870126914
 10
821.327236409423
 20
29.32403870126914
 10
821.327236409423
 20
29.32403870126914
 10
821.2556425234579
 20
29.3655864615189
 10
821.2556425234579
 20
29.3655864615189
 10
821.2387292759233
 20
29.37477844387312
 10
819.4888398918401
 20
30.36504383445709
 10
815.959012187639
 20
30.36504383445709
 10
815.959012187639
 20
30.36504383445709
 10
814.3511519325687
 20
30.36504383445709
 10
814.3511519325687
 20
30.36504383445709
 97
        0
 97
        0
 75
     2
 76
     1
 98
        0
  0
SPLINE
  5
2A2A
330
A
100
AcDbEntity
  8
図枠
 62
     0
370
     0
100
AcDbSpline
210
0.0
220
0.0
230
1.0
 70
    11
 71
     3
 72
    35
 73
    31
 74
     0
 42
0.000000001
 43
0.0000000001
 40
0.0
 40
0.0
 40
0.0
 40
0.0
 40
1.0
 40
1.0
 40
1.0
 40
2.0
 40
2.0
 40
2.0
 40
3.0
 40
3.0
 40
3.0
 40
4.0
 40
4.0
 40
4.0
 40
5.0
 40
5.0
 40
5.0
 40
6.0
 40
6.0
 40
6.0
 40
7.0
 40
7.0
 40
7.0
 40
8.0
 40
8.0
 40
8.0
 40
9.0
 40
9.0
 40
9.0
 40
10.0
 40
10.0
 40
10.0
 40
10.0
 10
814.6055860106023
 20
26.89572706534568
 30
0.0
 10
814.6055860106023
 20
26.89572706534568
 30
0.0
 10
814.4632415945264
 20
26.89572706534568
 30
0.0
 10
814.4632415945264
 20
26.89572706534568
 30
0.0
 10
814.4632415945264
 20
26.89572706534568
 30
0.0
 10
814.4632415945264
 20
25.67182774608484
 30
0.0
 10
814.4632415945264
 20
25.67182774608484
 30
0.0
 10
814.4632415945264
 20
25.67182774608484
 30
0.0
 10
815.9241351803021
 20
25.67182774608484
 30
0.0
 10
815.9241351803021
 20
25.67182774608484
 30
0.0
 10
818.792506405807
 20
25.67182774608484
 30
0.0
 10
820.6624182450241
 20
24.86550705383967
 30
0.0
 10
820.8655873178914
 20
24.77316702537714
 30
0.0
 10
820.8655873178914
 20
24.77316702537714
 30
0.0
 10
821.0656048539527
 20
24.68492399476139
 30
0.0
 10
821.0656048539527
 20
24.68492399476139
 30
0.0
 10
821.0656048539527
 20
24.68492399476139
 30
0.0
 10
821.0699644798704
 20
24.90038406118038
 30
0.0
 10
821.0699644798704
 20
24.90038406118038
 30
0.0
 10
821.0699644798704
 20
24.90038406118038
 30
0.0
 10
821.0720129787959
 20
25.84059254213398
 30
0.0
 10
821.0720129787959
 20
25.84059254213398
 30
0.0
 10
821.0720129787959
 20
25.84059254213398
 30
0.0
 10
821.0184368530645
 20
25.8824029304495
 30
0.0
 10
821.0184368530645
 20
25.8824029304495
 30
0.0
 10
820.9679072129175
 20
25.92447594683142
 30
0.0
 10
819.739912330527
 20
26.89572706534568
 30
0.0
 10
815.7032649756986
 20
26.89572706534568
 30
0.0
 10
815.7032649756986
 20
26.89572706534568
 30
0.0
 10
814.6055860106023
 20
26.89572706534568
 30
0.0
 10
814.6055860106023
 20
26.89572706534568
 30
0.0
  0
HATCH
  5
2A2B
330
A
100
AcDbEntity
  8
図枠
 62
     0
100
AcDbHatch
 10
0.0
 20
0.0
 30
0.0
210
0.0
220
0.0
230
1.0
  2
SOLID
 70
     1
 71
     0
 91
        1
 92
        1
 93
        1
 72
     4
 94
        3
 73
     0
 74
     1
 95
       35
 96
       31
 40
0.0
 40
0.0
 40
0.0
 40
0.0
 40
1.0
 40
1.0
 40
1.0
 40
2.0
 40
2.0
 40
2.0
 40
3.0
 40
3.0
 40
3.0
 40
4.0
 40
4.0
 40
4.0
 40
5.0
 40
5.0
 40
5.0
 40
6.0
 40
6.0
 40
6.0
 40
7.0
 40
7.0
 40
7.0
 40
8.0
 40
8.0
 40
8.0
 40
9.0
 40
9.0
 40
9.0
 40
10.0
 40
10.0
 40
10.0
 40
10.0
 10
814.6055860106023
 20
26.89572706534568
 10
814.6055860106023
 20
26.89572706534568
 10
814.4632415945264
 20
26.89572706534568
 10
814.4632415945264
 20
26.89572706534568
 10
814.4632415945264
 20
26.89572706534568
 10
814.4632415945264
 20
25.67182774608484
 10
814.4632415945264
 20
25.67182774608484
 10
814.4632415945264
 20
25.67182774608484
 10
815.9241351803021
 20
25.67182774608484
 10
815.9241351803021
 20
25.67182774608484
 10
818.792506405807
 20
25.67182774608484
 10
820.6624182450241
 20
24.86550705383967
 10
820.8655873178914
 20
24.77316702537714
 10
820.8655873178914
 20
24.77316702537714
 10
821.0656048539527
 20
24.68492399476139
 10
821.0656048539527
 20
24.68492399476139
 10
821.0656048539527
 20
24.68492399476139
 10
821.0699644798704
 20
24.90038406118038
 10
821.0699644798704
 20
24.90038406118038
 10
821.0699644798704
 20
24.90038406118038
 10
821.0720129787959
 20
25.84059254213398
 10
821.0720129787959
 20
25.84059254213398
 10
821.0720129787959
 20
25.84059254213398
 10
821.0184368530645
 20
25.8824029304495
 10
821.0184368530645
 20
25.8824029304495
 10
820.9679072129175
 20
25.92447594683142
 10
819.739912330527
 20
26.89572706534568
 10
815.7032649756986
 20
26.89572706534568
 10
815.7032649756986
 20
26.89572706534568
 10
814.6055860106023
 20
26.89572706534568
 10
814.6055860106023
 20
26.89572706534568
 97
        0
 97
        0
 75
     2
 76
     1
 98
        0
  0
SPLINE
  5
2A2C
330
A
100
AcDbEntity
  8
図枠
 62
     0
370
     0
100
AcDbSpline
210
0.0
220
0.0
230
1.0
 70
    11
 71
     3
 72
    38
 73
    34
 74
     0
 42
0.000000001
 43
0.0000000001
 40
0.0
 40
0.0
 40
0.0
 40
0.0
 40
1.0
 40
1.0
 40
1.0
 40
2.0
 40
2.0
 40
2.0
 40
3.0
 40
3.0
 40
3.0
 40
4.0
 40
4.0
 40
4.0
 40
5.0
 40
5.0
 40
5.0
 40
6.0
 40
6.0
 40
6.0
 40
7.0
 40
7.0
 40
7.0
 40
8.0
 40
8.0
 40
8.0
 40
9.0
 40
9.0
 40
9.0
 40
10.0
 40
10.0
 40
10.0
 40
11.0
 40
11.0
 40
11.0
 40
11.0
 10
814.0803298627186
 20
22.59881673053164
 30
0.0
 10
814.0803298627186
 20
22.59881673053164
 30
0.0
 10
813.9359369476668
 20
22.59881673053164
 30
0.0
 10
813.9359369476668
 20
22.59881673053164
 30
0.0
 10
813.9359369476668
 20
22.59881673053164
 30
0.0
 10
813.9359369476668
 20
21.30668663938736
 30
0.0
 10
813.9359369476668
 20
21.30668663938736
 30
0.0
 10
813.9359369476668
 20
21.30668663938736
 30
0.0
 10
816.3452330234195
 20
21.30668663938736
 30
0.0
 10
816.3452330234195
 20
21.30668663938736
 30
0.0
 10
819.2046763158331
 20
21.30668663938736
 30
0.0
 10
821.3356915583693
 20
20.49290731003297
 30
0.0
 10
821.5706386273839
 20
20.40004202543122
 30
0.0
 10
821.5672784690046
 20
20.40156526822148
 30
0.0
 10
821.6555215018491
 20
20.3659529022955
 30
0.0
 10
821.6555215018491
 20
20.3659529022955
 30
0.0
 10
821.6555215018491
 20
20.3659529022955
 30
0.0
 10
821.7632500519463
 20
20.32183138698794
 30
0.0
 10
821.7632500519463
 20
20.32183138698794
 30
0.0
 10
821.7632500519463
 20
20.32183138698794
 30
0.0
 10
821.767609677864
 20
20.53083080295034
 30
0.0
 10
821.767609677864
 20
20.53083080295034
 30
0.0
 10
821.767609677864
 20
20.53083080295034
 30
0.0
 10
821.767609677864
 20
21.56138333905958
 30
0.0
 10
821.767609677864
 20
21.56138333905958
 30
0.0
 10
821.767609677864
 20
21.56138333905958
 30
0.0
 10
821.6934435116568
 20
21.60545232875514
 30
0.0
 10
821.6934435116568
 20
21.60545232875514
 30
0.0
 10
821.6167561160006
 20
21.64547684621079
 30
0.0
 10
819.8088770262799
 20
22.59881673053164
 30
0.0
 10
816.2295716225783
 20
22.59881673053164
 30
0.0
 10
816.2295716225783
 20
22.59881673053164
 30
0.0
 10
814.0803298627186
 20
22.59881673053164
 30
0.0
 10
814.0803298627186
 20
22.59881673053164
 30
0.0
  0
HATCH
  5
2A2D
330
A
100
AcDbEntity
  8
図枠
 62
     0
100
AcDbHatch
 10
0.0
 20
0.0
 30
0.0
210
0.0
220
0.0
230
1.0
  2
SOLID
 70
     1
 71
     0
 91
        1
 92
        1
 93
        1
 72
     4
 94
        3
 73
     0
 74
     1
 95
       38
 96
       34
 40
0.0
 40
0.0
 40
0.0
 40
0.0
 40
1.0
 40
1.0
 40
1.0
 40
2.0
 40
2.0
 40
2.0
 40
3.0
 40
3.0
 40
3.0
 40
4.0
 40
4.0
 40
4.0
 40
5.0
 40
5.0
 40
5.0
 40
6.0
 40
6.0
 40
6.0
 40
7.0
 40
7.0
 40
7.0
 40
8.0
 40
8.0
 40
8.0
 40
9.0
 40
9.0
 40
9.0
 40
10.0
 40
10.0
 40
10.0
 40
11.0
 40
11.0
 40
11.0
 40
11.0
 10
814.0803298627186
 20
22.59881673053164
 10
814.0803298627186
 20
22.59881673053164
 10
813.9359369476668
 20
22.59881673053164
 10
813.9359369476668
 20
22.59881673053164
 10
813.9359369476668
 20
22.59881673053164
 10
813.9359369476668
 20
21.30668663938736
 10
813.9359369476668
 20
21.30668663938736
 10
813.9359369476668
 20
21.30668663938736
 10
816.3452330234195
 20
21.30668663938736
 10
816.3452330234195
 20
21.30668663938736
 10
819.2046763158331
 20
21.30668663938736
 10
821.3356915583693
 20
20.49290731003297
 10
821.5706386273839
 20
20.40004202543122
 10
821.5672784690046
 20
20.40156526822148
 10
821.6555215018491
 20
20.3659529022955
 10
821.6555215018491
 20
20.3659529022955
 10
821.6555215018491
 20
20.3659529022955
 10
821.7632500519463
 20
20.32183138698794
 10
821.7632500519463
 20
20.32183138698794
 10
821.7632500519463
 20
20.32183138698794
 10
821.767609677864
 20
20.53083080295034
 10
821.767609677864
 20
20.53083080295034
 10
821.767609677864
 20
20.53083080295034
 10
821.767609677864
 20
21.56138333905958
 10
821.767609677864
 20
21.56138333905958
 10
821.767609677864
 20
21.56138333905958
 10
821.6934435116568
 20
21.60545232875514
 10
821.6934435116568
 20
21.60545232875514
 10
821.6167561160006
 20
21.64547684621079
 10
819.8088770262799
 20
22.59881673053164
 10
816.2295716225783
 20
22.59881673053164
 10
816.2295716225783
 20
22.59881673053164
 10
814.0803298627186
 20
22.59881673053164
 10
814.0803298627186
 20
22.59881673053164
 97
        0
 97
        0
 75
     2
 76
     1
 98
        0
  0
VIEWPORT
  5
50C
330
B
100
AcDbEntity
 67
     1
  8
0
100
AcDbViewport
 10
0.0
 20
0.0
 30
0.0
 40
87.52768277709984
 41
50.8248981504
 68
     1
 69
     1
 12
144.2757933275833
 22
138.4691507916286
 13
0.0
 23
0.0
 14
0.5
 24
0.5
 15
0.0
 25
0.0
 16
0.0
 26
0.0
 36
1.0
 17
0.0
 27
0.0
 37
0.0
 42
50.0
 43
0.0
 44
0.0
 45
50.8248981504
 50
0.0
 51
0.0
 72
   100
 90
   557168
  1

281
     0
 71
     1
 74
     0
110
0.0
120
0.0
130
0.0
111
1.0
121
0.0
131
0.0
112
0.0
122
1.0
132
0.0
 79
     0
146
0.0
170
     0
 61
     5
348
D27
292
     1
282
     1
141
0.0
142
0.0
 63
   256
361
E27
  0
VIEWPORT
  5
50D
102
{ACAD_XDICTIONARY
360
50E
102
}
330
B
100
AcDbEntity
 67
     1
  8
0
100
AcDbViewport
 10
202.5
 20
128.5
 30
0.0
 40
324.0
 41
205.6
 68
     2
 69
     2
 12
644.4250200184739
 22
155.5872072606362
 13
0.0
 23
0.0
 14
0.5
 24
0.5
 15
0.0
 25
0.0
 16
0.0
 26
0.0
 36
1.0
 17
0.0
 27
0.0
 37
0.0
 42
50.0
 43
0.0
 44
0.0
 45
302.94
 50
0.0
 51
0.0
 72
   100
 90
   557152
  1

281
     0
 71
     1
 74
     0
110
0.0
120
0.0
130
0.0
111
1.0
121
0.0
131
0.0
112
0.0
122
1.0
132
0.0
 79
     0
146
0.0
170
     0
 61
     5
348
D27
292
     1
282
     1
141
0.0
142
0.0
 63
   256
  0
ENDSEC
  0
SECTION
  2
OBJECTS
  0
DICTIONARY
  5
19
330
0
100
AcDbDictionary
281
     1
  3
ACAD_COLOR
350
1584
  3
ACAD_DETAILVIEWSTYLE
350
1CF
  3
ACAD_GROUP
350
1A
  3
ACAD_IMAGE_VARS
350
1C6
  3
ACAD_LAYOUT
350
D60
  3
ACAD_MATERIAL
350
D63
  3
ACAD_MLEADERSTYLE
350
D69
  3
ACAD_MLINESTYLE
350
1B
  3
ACAD_PLOTSETTINGS
350
D3B
  3
ACAD_PLOTSTYLENAME
350
D3C
  3
ACAD_SCALELIST
350
D3E
  3
ACAD_SECTIONVIEWSTYLE
350
1D0
  3
ACAD_TABLESTYLE
350
D67
  3
ACAD_VISUALSTYLE
350
D22
  3
ACAD_WIPEOUT_VARS
350
23
  3
ACDB_RECOMPOSE_DATA
350
2A30
  3
ACDBVARIABLEDICTIONARY
350
1C7
  3
ACSTSTANDARD
350
DE2
  3
APPDATA
350
1C4
  3
CENTERLINE
350
347
  3
DIMOFFSETDICTIONARY
350
342
  0
SUN
  5
D6B
330
15
100
AcDbSun
 90
        1
290
     0
 63
     7
421
 16777215
 40
1.0
291
     1
 91
  2455826
 92
 54000000
292
     0
 70
     2
 71
   256
280
     1
  0
DICTIONARY
  5
29A
330
2
100
AcDbDictionary
280
     1
281
     1
  3
ACAD_LAYERSTATES
360
29B
  0
DICTIONARY
  5
296C
330
A
100
AcDbDictionary
280
     1
281
     1
  3
ACAD_SORTENTS
360
296D
  0
DICTIONARY
  5
28A9
330
28A8
100
AcDbDictionary
280
     1
281
     1
  0
DICTIONARY
  5
28AB
330
28AA
100
AcDbDictionary
280
     1
281
     1
  3
ACAD_DIMASSOC
360
28AC
  0
DICTIONARY
  5
28AE
330
28AD
100
AcDbDictionary
280
     1
281
     1
  3
ACAD_DIMASSOC
360
28AF
  0
DICTIONARY
  5
28B8
330
28B7
100
AcDbDictionary
280
     1
281
     1
  0
DICTIONARY
  5
28C8
330
28C7
100
AcDbDictionary
280
     1
281
     1
  0
DICTIONARY
  5
2903
330
2902
100
AcDbDictionary
280
     1
281
     1
  3
ACAD_DIMASSOC
360
2904
  0
DICTIONARY
  5
2908
330
2907
100
AcDbDictionary
280
     1
281
     1
  0
DICTIONARY
  5
2915
330
2914
100
AcDbDictionary
280
     1
281
     1
  3
ACAD_DIMASSOC
360
2916
  0
DICTIONARY
  5
2919
330
2918
100
AcDbDictionary
280
     1
281
     1
  3
ACAD_DIMASSOC
360
291A
  0
SUN
  5
E27
330
50C
100
AcDbSun
 90
        1
290
     0
 63
     7
421
 16777215
 40
1.0
291
     1
 91
  2455826
 92
 54000000
292
     0
 70
     2
 71
   256
280
     1
  0
DICTIONARY
  5
50E
330
50D
100
AcDbDictionary
280
     1
281
     1
  3
ASDK_XREC_ANNOTATION_SCALE_INFO
360
50F
  0
DICTIONARY
  5
1584
102
{ACAD_REACTORS
330
19
102
}
330
19
100
AcDbDictionary
281
     1
  0
DICTIONARY
  5
1CF
102
{ACAD_REACTORS
330
19
102
}
330
19
100
AcDbDictionary
281
     1
  0
DICTIONARY
  5
1A
102
{ACAD_REACTORS
330
19
102
}
330
19
100
AcDbDictionary
281
     1
  0
RASTERVARIABLES
  5
1C6
102
{ACAD_REACTORS
330
19
102
}
330
19
100
AcDbRasterVariables
 90
        0
 70
     1
 71
     1
 72
     0
  0
DICTIONARY
  5
D60
102
{ACAD_REACTORS
330
19
102
}
330
19
100
AcDbDictionary
281
     1
  3
Model
350
D61
  3
シート 1
350
D62
  0
DICTIONARY
  5
D63
102
{ACAD_REACTORS
330
19
102
}
330
19
100
AcDbDictionary
281
     1
  3
ByBlock
350
D65
  3
ByLayer
350
D64
  3
Global
350
D66
  0
DICTIONARY
  5
D69
102
{ACAD_REACTORS
330
19
102
}
330
19
100
AcDbDictionary
281
     1
  3
Standard
350
D6A
  0
DICTIONARY
  5
1B
102
{ACAD_REACTORS
330
19
102
}
330
19
100
AcDbDictionary
281
     1
  3
STANDARD
350
1C
  0
DICTIONARY
  5
D3B
102
{ACAD_REACTORS
330
19
102
}
330
19
100
AcDbDictionary
281
     1
  0
ACDBDICTIONARYWDFLT
  5
D3C
102
{ACAD_REACTORS
330
19
102
}
330
19
100
AcDbDictionary
281
     1
  3
Normal
350
D3D
100
AcDbDictionaryWithDefault
340
D3D
  0
DICTIONARY
  5
D3E
102
{ACAD_REACTORS
330
19
102
}
330
19
100
AcDbDictionary
281
     1
  3
A0
350
D3F
  3
A1
350
D40
  3
A2
350
D41
  3
A3
350
D42
  3
A4
350
D43
  3
A5
350
D44
  3
A6
350
D45
  3
A7
350
D46
  3
A8
350
D47
  3
A9
350
D48
  3
B0
350
D49
  3
B1
350
D4A
  3
B2
350
D4B
  3
B3
350
D4C
  3
B4
350
D4D
  3
B5
350
D4E
  3
B6
350
D4F
  3
B7
350
D50
  3
B8
350
D51
  3
B9
350
D52
  3
C0
350
D53
  3
C1
350
D54
  3
C2
350
D55
  3
C3
350
D56
  3
C4
350
D57
  3
C5
350
D58
  3
C6
350
D59
  3
C7
350
D5A
  3
C8
350
D5B
  3
C9
350
D5C
  3
D0
350
D5D
  3
D1
350
D5E
  3
D2
350
D5F
  0
DICTIONARY
  5
1D0
102
{ACAD_REACTORS
330
19
102
}
330
19
100
AcDbDictionary
281
     1
  0
DICTIONARY
  5
D67
102
{ACAD_REACTORS
330
19
102
}
330
19
100
AcDbDictionary
281
     1
  3
Standard
350
D68
  0
DICTIONARY
  5
D22
102
{ACAD_REACTORS
330
19
102
}
330
19
100
AcDbDictionary
281
     1
  3
2dWireframe
350
D27
  3
Basic
350
D2A
  3
Brighten
350
D2E
  3
ColorChange
350
D32
  3
Conceptual
350
D2C
  3
Dim
350
D2D
  3
EdgeColorOff
350
D35
  3
Facepattern
350
D31
  3
Flat
350
D23
  3
FlatWithEdges
350
D24
  3
Gouraud
350
D25
  3
GouraudWithEdges
350
D26
  3
Hidden
350
D29
  3
JitterOff
350
D33
  3
Linepattern
350
D30
  3
OverhangOff
350
D34
  3
Realistic
350
D2B
  3
Shaded
350
D3A
  3
Shaded with edges
350
D39
  3
Shades of Gray
350
D36
  3
Sketchy
350
D37
  3
Thicken
350
D2F
  3
Wireframe
350
D28
  3
X-Ray
350
D38
  0
WIPEOUTVARIABLES
  5
23
330
19
100
AcDbWipeoutVariables
 70
     1
  0
XRECORD
  5
2A30
102
{ACAD_REACTORS
330
19
102
}
330
19
100
AcDbXrecord
280
     1
 90
        1
330
D68
  0
DICTIONARY
  5
1C7
102
{ACAD_REACTORS
330
19
102
}
330
19
100
AcDbDictionary
281
     1
  3
CANNOSCALE
350
E23
  3
CMLEADERSTYLE
350
E25
  3
CTABLESTYLE
350
E24
  3
HPTRANSPARENCY
350
DCD
  3
MSLTSCALE
350
E26
  0
DICTIONARY
  5
DE2
102
{ACAD_REACTORS
330
19
102
}
330
19
100
AcDbDictionary
281
     1
  0
DICTIONARY
  5
1C4
102
{ACAD_REACTORS
330
19
102
}
330
19
100
AcDbDictionary
281
     1
  0
DICTIONARY
  5
347
102
{ACAD_REACTORS
330
19
102
}
330
19
100
AcDbDictionary
281
     1
  3
CLEXTENSION
350
DE7
  0
DICTIONARY
  5
342
102
{ACAD_REACTORS
330
19
102
}
330
19
100
AcDbDictionary
281
     1
  3
DIMRAILANGLE
350
DE5
  3
DIMRAILFIRSTOFFSET
350
DE3
  3
DIMRAILOFFSET
350
DE4
  3
DIMRAILSENABLED
350
DE6
  0
DICTIONARY
  5
29B
102
{ACAD_REACTORS
330
29A
102
}
330
29A
100
AcDbDictionary
281
     1
  0
SORTENTSTABLE
  5
296D
102
{ACAD_REACTORS
330
296C
102
}
330
296C
100
AcDbSortentsTable
330
A
331
0
  5
28C0
331
2C1
  5
2C2
331
2C2
  5
2C3
331
2C3
  5
2C4
331
2C4
  5
2C5
331
2C5
  5
2C6
331
2C6
  5
2C7
331
2C7
  5
2C8
331
2C8
  5
2C9
331
2C9
  5
2CA
331
2CA
  5
2CB
331
2CB
  5
2CC
331
2CC
  5
2CD
331
2CD
  5
2CE
331
2CE
  5
2CF
331
2CF
  5
2D0
331
2D0
  5
2D1
331
2D1
  5
2D2
331
2D2
  5
2D3
331
2D3
  5
2D4
331
2D4
  5
2D5
331
2D5
  5
2D6
331
2D6
  5
2D7
331
2D7
  5
2D8
331
2D8
  5
2D9
331
2D9
  5
2DA
331
2DA
  5
2DB
331
2DB
  5
2DC
331
2DC
  5
2DD
331
2DD
  5
2DE
331
2DE
  5
2DF
331
2DF
  5
2E0
331
2E0
  5
2E1
331
2E1
  5
2E2
331
2E2
  5
2E3
331
2E3
  5
2E4
331
2E4
  5
2E5
331
2E5
  5
2E6
331
2E6
  5
2E7
331
2E7
  5
2E8
331
2E8
  5
2E9
331
2E9
  5
2EA
331
2EA
  5
2EB
331
2EB
  5
2EC
331
2EC
  5
2ED
331
2ED
  5
2EE
331
2EE
  5
2EF
331
2EF
  5
2F0
331
2F0
  5
2F1
331
2F1
  5
2F2
331
2F2
  5
2F3
331
2F3
  5
2F4
331
2F4
  5
2F5
331
2F5
  5
2F6
331
2F6
  5
2F7
331
2F7
  5
2F8
331
2F8
  5
2F9
331
2F9
  5
2FA
331
2FA
  5
2FB
331
2FB
  5
2FC
331
2FC
  5
2FD
331
2FD
  5
2FE
331
2FE
  5
300
331
300
  5
301
331
301
  5
302
331
302
  5
303
331
303
  5
304
331
304
  5
305
331
305
  5
306
331
306
  5
307
331
307
  5
308
331
308
  5
309
331
309
  5
30A
331
30A
  5
30B
331
30B
  5
30C
331
30C
  5
30D
331
30D
  5
30E
331
30E
  5
30F
331
30F
  5
310
331
310
  5
311
331
311
  5
312
331
312
  5
313
331
313
  5
314
331
314
  5
315
331
315
  5
316
331
316
  5
317
331
317
  5
318
331
318
  5
319
331
319
  5
31A
331
31A
  5
31B
331
31B
  5
31C
331
31C
  5
31D
331
31D
  5
31E
331
31E
  5
31F
331
31F
  5
320
331
320
  5
321
331
321
  5
322
331
322
  5
323
331
323
  5
324
331
324
  5
325
331
325
  5
326
331
326
  5
327
331
327
  5
328
331
328
  5
329
331
329
  5
32A
331
32A
  5
32B
331
32B
  5
32C
331
32C
  5
32D
331
32D
  5
32E
331
32E
  5
32F
331
32F
  5
330
331
330
  5
331
331
331
  5
332
331
332
  5
333
331
333
  5
334
331
334
  5
337
331
337
  5
338
331
338
  5
339
331
339
  5
33A
331
33A
  5
33B
331
33B
  5
33C
331
33C
  5
33D
331
33D
  5
5DA
331
5DA
  5
5DD
331
5DD
  5
627
331
627
  5
628
331
628
  5
673
331
675
  5
676
331
678
  5
679
331
682
  5
683
331
68B
  5
68C
331
1005
  5
1006
331
1006
  5
1030
331
1030
  5
105E
331
105E
  5
11E3
331
11E3
  5
288E
331
288E
  5
288F
331
288F
  5
2890
331
2890
  5
2891
331
2891
  5
2892
331
2892
  5
2893
331
2893
  5
2894
331
2894
  5
2895
331
2895
  5
2896
331
2896
  5
2897
331
2897
  5
2898
331
2898
  5
2899
331
2899
  5
289A
331
289A
  5
289B
331
289B
  5
289C
331
289C
  5
289D
331
289D
  5
289E
331
289E
  5
28A3
331
289F
  5
28A4
331
28A0
  5
28A5
331
28A1
  5
28A6
331
28A2
  5
28A7
331
28A3
  5
28A8
331
28A4
  5
28AA
331
28A5
  5
28AD
331
28A6
  5
28B0
331
28A7
  5
28B1
331
28A8
  5
28B2
331
28AA
  5
28B3
331
28AD
  5
28B4
331
28B0
  5
28B5
331
28B1
  5
28B6
331
28B2
  5
28B7
331
28B3
  5
28BB
331
28B4
  5
28BC
331
28B5
  5
28BD
331
28B6
  5
28BE
331
28B7
  5
28BF
331
28BD
  5
28C4
331
28BE
  5
28C5
331
28BF
  5
28C6
331
28C0
  5
28C7
331
28C1
  5
28C9
331
28C2
  5
28CA
331
28C3
  5
28CB
331
28C4
  5
28CD
331
28C5
  5
28CE
331
28C6
  5
28CF
331
28C7
  5
28D0
331
28CE
  5
28D5
331
28CF
  5
28D6
331
28D0
  5
28D7
331
28D1
  5
28D8
331
28D2
  5
28D9
331
28D3
  5
28DA
331
28D4
  5
28DC
331
28D5
  5
28DD
331
28D6
  5
28DE
331
28D7
  5
28DF
331
28D8
  5
28E0
331
28E4
  5
28EC
331
28E5
  5
28ED
331
28E6
  5
28EE
331
28E7
  5
28EF
331
28E8
  5
28F0
331
28EE
  5
28F6
331
28F4
  5
28FC
331
28F5
  5
28FD
331
28F6
  5
28FE
331
28F7
  5
28FF
331
28F8
  5
2900
331
28F9
  5
2901
331
28FA
  5
2902
331
28FB
  5
2905
331
28FC
  5
2906
331
28FD
  5
2907
331
28FE
  5
2909
331
28FF
  5
290A
331
2900
  5
290B
331
2901
  5
290C
331
2902
  5
290F
331
2905
  5
2910
331
2906
  5
2913
331
2907
  5
2914
331
2909
  5
2917
331
2913
  5
2961
331
2914
  5
2962
331
2917
  5
2963
331
2918
  5
2964
331
295D
  5
2965
331
295E
  5
2966
331
295F
  5
2967
331
2960
  5
2968
331
2961
  5
2969
331
2962
  5
296A
331
2963
  5
296E
331
2964
  5
296F
331
2965
  5
2970
331
2966
  5
2971
331
2967
  5
2972
331
2968
  5
2973
331
2969
  5
2974
331
2974
  5
28A2
  0
DIMASSOC
  5
28AC
102
{ACAD_REACTORS
330
28AB
102
}
330
28AB
100
AcDbDimAssoc
330
28AA
 90
        2
 70
     0
 71
     1
  1
AcDbOsnapPointRef
 72
     1
331
289E
 73
     0
 91
        0
 40
0.0
 10
0.0
 20
0.0
 30
0.0
 75
     0
  0
DIMASSOC
  5
28AF
102
{ACAD_REACTORS
330
28AE
102
}
330
28AE
100
AcDbDimAssoc
330
28AD
 90
        2
 70
     0
 71
     1
  1
AcDbOsnapPointRef
 72
     1
331
28A1
 73
     0
 91
        0
 40
0.0
 10
0.0
 20
0.0
 30
0.0
 75
     0
  0
DIMASSOC
  5
2904
102
{ACAD_REACTORS
330
2903
102
}
330
2903
100
AcDbDimAssoc
330
2902
 90
        1
 70
     0
 71
     1
  1
AcDbOsnapPointRef
 72
     3
331
2900
 73
     2
 91
        1
 40
0.0
 10
0.0
 20
0.0
 30
0.0
 75
     0
  0
DIMASSOC
  5
2916
102
{ACAD_REACTORS
330
2915
102
}
330
2915
100
AcDbDimAssoc
330
2914
 90
        0
 70
     0
 71
     1
  0
DIMASSOC
  5
291A
102
{ACAD_REACTORS
330
2919
102
}
330
2919
100
AcDbDimAssoc
330
2918
 90
        0
 70
     0
 71
     1
  0
XRECORD
  5
50F
102
{ACAD_REACTORS
330
50E
102
}
330
50E
100
AcDbXrecord
280
     1
 90
        1
340
0
  0
LAYOUT
  5
D61
102
{ACAD_REACTORS
330
D60
102
}
330
D60
100
AcDbPlotSettings
  1

  2
none_device
  4
Letter_(8.50_x_11.00_Inches)
  6

 40
6.35
 41
6.35
 42
6.35
 43
6.35
 44
215.9
 45
279.4
 46
0.0
 47
0.0
 48
0.0
 49
0.0
140
0.0
141
0.0
142
1.0
143
94.20939657471693
 70
  1712
 72
     0
 73
     0
 74
     0
  7

 75
     0
 76
     0
 77
     2
 78
   300
147
0.010614652427021
148
-8120.521216095871
149
435.1168314980068
100
AcDbLayout
  1
Model
 70
     1
 71
     0
 10
0.0
 20
0.0
 11
404.680208
 21
287.734375
 12
0.0
 22
0.0
 32
0.0
 14
434.4250200184739
 24
7.087207260636177
 34
0.0
 15
854.4250200184739
 25
304.0872072606362
 35
0.0
146
0.0
 13
0.0
 23
0.0
 33
0.0
 16
1.0
 26
0.0
 36
0.0
 17
0.0
 27
1.0
 37
0.0
 76
     0
330
A
331
15
  0
LAYOUT
  5
D62
102
{ACAD_REACTORS
330
D60
102
}
330
D60
100
AcDbPlotSettings
  1

  2
none_device
  4
ISO_A3_(420.00_x_297.00_MM)
  6

 40
7.5
 41
20.0
 42
7.5
 43
20.0
 44
420.0
 45
297.0
 46
0.0
 47
0.0
 48
0.0
 49
0.0
140
0.0
141
0.0
142
1.0
143
0.8
 70
   688
 72
     1
 73
     0
 74
     1
  7

 75
     0
 76
     0
 77
     2
 78
   300
147
1.25
148
-40.5
149
-25.69999999999999
100
AcDbLayout
  1
シート 1
 70
     0
 71
     1
 10
0.0
 20
0.0
 11
0.0
 21
0.0
 12
0.0
 22
0.0
 32
0.0
 14
40.5
 24
25.69999999999999
 34
0.0
 15
364.5
 25
231.3
 35
0.0
146
0.0
 13
0.0
 23
0.0
 33
0.0
 16
1.0
 26
0.0
 36
0.0
 17
0.0
 27
1.0
 37
0.0
 76
     0
330
B
331
50C
  0
MATERIAL
  5
D65
102
{ACAD_REACTORS
330
D63
102
}
330
D63
100
AcDbMaterial
  1
ByBlock
 72
     1
 94
      127
  0
MATERIAL
  5
D64
102
{ACAD_REACTORS
330
D63
102
}
330
D63
100
AcDbMaterial
  1
ByLayer
 72
     1
 94
      127
  0
MATERIAL
  5
D66
102
{ACAD_REACTORS
330
D63
102
}
330
D63
100
AcDbMaterial
  1
Global
 72
     1
 94
      127
  0
MLEADERSTYLE
  5
D6A
102
{ACAD_REACTORS
330
D69
102
}
330
D69
100
AcDbMLeaderStyle
179
     2
170
     2
171
     1
172
     0
 90
        2
 40
0.0
 41
0.0
173
     1
 91
-1056964608
340
11
 92
       -2
290
     1
 42
2.0
291
     1
 43
8.0
  3
Standard
341
0
 44
4.0
300

342
17
174
     1
178
     1
175
     1
176
     0
 93
-1056964608
 45
4.0
292
     0
297
     0
 46
4.0
343
0
 94
-1056964608
 47
1.0
 49
1.0
140
1.0
293
     1
141
0.0
294
     1
177
     0
142
1.0
295
     0
296
     0
143
3.75
271
     0
272
     9
273
     9
298
     0
  0
MLINESTYLE
  5
1C
102
{ACAD_REACTORS
330
1B
102
}
330
1B
100
AcDbMlineStyle
  2
Standard
 70
     0
  3

 62
     0
 51
90.0
 52
90.0
 71
     2
 49
0.5
 62
   256
  6
BYLAYER
 49
-0.5
 62
   256
  6
BYLAYER
  0
ACDBPLACEHOLDER
  5
D3D
102
{ACAD_REACTORS
330
D3C
102
}
330
D3C
  0
SCALE
  5
D3F
102
{ACAD_REACTORS
330
D3E
102
}
330
D3E
100
AcDbScale
 70
     0
300
1:1
140
1.0
141
1.0
290
     1
  0
SCALE
  5
D40
102
{ACAD_REACTORS
330
D3E
102
}
330
D3E
100
AcDbScale
 70
     0
300
1:2
140
1.0
141
2.0
290
     0
  0
SCALE
  5
D41
102
{ACAD_REACTORS
330
D3E
102
}
330
D3E
100
AcDbScale
 70
     0
300
1:4
140
1.0
141
4.0
290
     0
  0
SCALE
  5
D42
102
{ACAD_REACTORS
330
D3E
102
}
330
D3E
100
AcDbScale
 70
     0
300
1:5
140
1.0
141
5.0
290
     0
  0
SCALE
  5
D43
102
{ACAD_REACTORS
330
D3E
102
}
330
D3E
100
AcDbScale
 70
     0
300
1:8
140
1.0
141
8.0
290
     0
  0
SCALE
  5
D44
102
{ACAD_REACTORS
330
D3E
102
}
330
D3E
100
AcDbScale
 70
     0
300
1:10
140
1.0
141
10.0
290
     0
  0
SCALE
  5
D45
102
{ACAD_REACTORS
330
D3E
102
}
330
D3E
100
AcDbScale
 70
     0
300
1:16
140
1.0
141
16.0
290
     0
  0
SCALE
  5
D46
102
{ACAD_REACTORS
330
D3E
102
}
330
D3E
100
AcDbScale
 70
     0
300
1:20
140
1.0
141
20.0
290
     0
  0
SCALE
  5
D47
102
{ACAD_REACTORS
330
D3E
102
}
330
D3E
100
AcDbScale
 70
     0
300
1:30
140
1.0
141
30.0
290
     0
  0
SCALE
  5
D48
102
{ACAD_REACTORS
330
D3E
102
}
330
D3E
100
AcDbScale
 70
     0
300
1:40
140
1.0
141
40.0
290
     0
  0
SCALE
  5
D49
102
{ACAD_REACTORS
330
D3E
102
}
330
D3E
100
AcDbScale
 70
     0
300
1:50
140
1.0
141
50.0
290
     0
  0
SCALE
  5
D4A
102
{ACAD_REACTORS
330
D3E
102
}
330
D3E
100
AcDbScale
 70
     0
300
1:100
140
1.0
141
100.0
290
     0
  0
SCALE
  5
D4B
102
{ACAD_REACTORS
330
D3E
102
}
330
D3E
100
AcDbScale
 70
     0
300
2:1
140
2.0
141
1.0
290
     0
  0
SCALE
  5
D4C
102
{ACAD_REACTORS
330
D3E
102
}
330
D3E
100
AcDbScale
 70
     0
300
4:1
140
4.0
141
1.0
290
     0
  0
SCALE
  5
D4D
102
{ACAD_REACTORS
330
D3E
102
}
330
D3E
100
AcDbScale
 70
     0
300
8:1
140
8.0
141
1.0
290
     0
  0
SCALE
  5
D4E
102
{ACAD_REACTORS
330
D3E
102
}
330
D3E
100
AcDbScale
 70
     0
300
10:1
140
10.0
141
1.0
290
     0
  0
SCALE
  5
D4F
102
{ACAD_REACTORS
330
D3E
102
}
330
D3E
100
AcDbScale
 70
     0
300
100:1
140
100.0
141
1.0
290
     0
  0
SCALE
  5
D50
102
{ACAD_REACTORS
330
D3E
102
}
330
D3E
100
AcDbScale
 70
     0
300
1/128" = 1'-0"
140
0.0078125
141
12.0
290
     0
  0
SCALE
  5
D51
102
{ACAD_REACTORS
330
D3E
102
}
330
D3E
100
AcDbScale
 70
     0
300
1/64" = 1'-0"
140
0.015625
141
12.0
290
     0
  0
SCALE
  5
D52
102
{ACAD_REACTORS
330
D3E
102
}
330
D3E
100
AcDbScale
 70
     0
300
1/32" = 1'-0"
140
0.03125
141
12.0
290
     0
  0
SCALE
  5
D53
102
{ACAD_REACTORS
330
D3E
102
}
330
D3E
100
AcDbScale
 70
     0
300
1/16" = 1'-0"
140
0.0625
141
12.0
290
     0
  0
SCALE
  5
D54
102
{ACAD_REACTORS
330
D3E
102
}
330
D3E
100
AcDbScale
 70
     0
300
3/32" = 1'-0"
140
0.09375
141
12.0
290
     0
  0
SCALE
  5
D55
102
{ACAD_REACTORS
330
D3E
102
}
330
D3E
100
AcDbScale
 70
     0
300
1/8" = 1'-0"
140
0.125
141
12.0
290
     0
  0
SCALE
  5
D56
102
{ACAD_REACTORS
330
D3E
102
}
330
D3E
100
AcDbScale
 70
     0
300
3/16" = 1'-0"
140
0.1875
141
12.0
290
     0
  0
SCALE
  5
D57
102
{ACAD_REACTORS
330
D3E
102
}
330
D3E
100
AcDbScale
 70
     0
300
1/4" = 1'-0"
140
0.25
141
12.0
290
     0
  0
SCALE
  5
D58
102
{ACAD_REACTORS
330
D3E
102
}
330
D3E
100
AcDbScale
 70
     0
300
3/8" = 1'-0"
140
0.375
141
12.0
290
     0
  0
SCALE
  5
D59
102
{ACAD_REACTORS
330
D3E
102
}
330
D3E
100
AcDbScale
 70
     0
300
1/2" = 1'-0"
140
0.5
141
12.0
290
     0
  0
SCALE
  5
D5A
102
{ACAD_REACTORS
330
D3E
102
}
330
D3E
100
AcDbScale
 70
     0
300
3/4" = 1'-0"
140
0.75
141
12.0
290
     0
  0
SCALE
  5
D5B
102
{ACAD_REACTORS
330
D3E
102
}
330
D3E
100
AcDbScale
 70
     0
300
1" = 1'-0"
140
1.0
141
12.0
290
     0
  0
SCALE
  5
D5C
102
{ACAD_REACTORS
330
D3E
102
}
330
D3E
100
AcDbScale
 70
     0
300
1-1/2" = 1'-0"
140
1.5
141
12.0
290
     0
  0
SCALE
  5
D5D
102
{ACAD_REACTORS
330
D3E
102
}
330
D3E
100
AcDbScale
 70
     0
300
3" = 1'-0"
140
3.0
141
12.0
290
     0
  0
SCALE
  5
D5E
102
{ACAD_REACTORS
330
D3E
102
}
330
D3E
100
AcDbScale
 70
     0
300
6" = 1'-0"
140
6.0
141
12.0
290
     0
  0
SCALE
  5
D5F
102
{ACAD_REACTORS
330
D3E
102
}
330
D3E
100
AcDbScale
 70
     0
300
1'-0" = 1'-0"
140
12.0
141
12.0
290
     0
  0
TABLESTYLE
  5
D68
102
{ACAD_REACTORS
330
D67
102
}
102
{ACAD_XDICTIONARY
360
2A2E
102
}
330
D67
100
AcDbTableStyle
  3
Standard
 70
     0
 71
     0
 40
1.5
 41
1.5
280
     0
281
     0
  7
STANDARD
140
4.5
170
     2
 62
     0
 63
   257
283
     0
 90
        4
 91
        0
  1

274
    -2
284
     1
 64
     0
275
    -2
285
     1
 65
     0
276
    -2
286
     1
 66
     0
277
    -2
287
     1
 67
     0
278
    -2
288
     1
 68
     0
279
    -2
289
     1
 69
     0
  7
STANDARD
140
6.0
170
     5
 62
     0
 63
   257
283
     0
 90
        4
 91
        0
  1

274
    -2
284
     1
 64
     0
275
    -2
285
     1
 65
     0
276
    -2
286
     1
 66
     0
277
    -2
287
     1
 67
     0
278
    -2
288
     1
 68
     0
279
    -2
289
     1
 69
     0
  7
STANDARD
140
4.5
170
     5
 62
     0
 63
   257
283
     0
 90
        4
 91
        0
  1

274
    -2
284
     1
 64
     0
275
    -2
285
     1
 65
     0
276
    -2
286
     1
 66
     0
277
    -2
287
     1
 67
     0
278
    -2
288
     1
 68
     0
279
    -2
289
     1
 69
     0
  0
VISUALSTYLE
  5
D27
102
{ACAD_REACTORS
330
D22
102
}
330
D22
100
AcDbVisualStyle
  2
2dWireframe
 70
     4
177
     3
291
     0
 70
    58
 90
        0
176
     1
 90
        2
176
     1
 90
        0
176
     1
 90
        0
176
     1
 40
0.6
176
     1
 40
30.0
176
     1
 62
     7
420
 16777215
176
     1
 90
        1
176
     1
 90
        4
176
     1
 62
     7
176
     1
 62
   257
176
     1
 90
        1
176
     1
 90
        1
176
     1
 40
1.0
176
     1
 90
        0
176
     1
 62
   257
176
     1
 40
1.0
176
     1
 90
        1
176
     1
 90
        6
176
     1
 90
        2
176
     1
 62
     7
176
     1
 90
        5
176
     1
 90
        0
176
     1
 90
        0
176
     1
290
     0
176
     1
 90
        1
176
     1
 40
0.0
176
     1
 90
        0
176
     1
290
     1
176
     1
290
     1
176
     1
290
     0
176
     1
290
     0
176
     1
290
     0
176
     1
290
     0
176
     1
290
     0
176
     1
290
     0
176
     1
290
     0
176
     1
 90
       50
176
     1
 40
0.0
176
     1
 40
1.0
176
     1
 90
        0
176
     1
 62
    18
420
        0
176
     1
 90
       50
176
     1
 90
        3
176
     1
 62
     5
420
      255
176
     1
290
     0
176
     1
 90
       50
176
     1
 90
       50
176
     1
 90
       50
176
     1
290
     0
176
     1
 90
       50
176
     1
 62
   256
176
     0
 40
1.0
176
     0
 90
        2
176
     1
  1
strokes_ogs.tif
176
     1
290
     0
176
     1
 40
1.0
176
     1
 40
1.0
176
     1
  0
VISUALSTYLE
  5
D2A
102
{ACAD_REACTORS
330
D22
102
}
330
D22
100
AcDbVisualStyle
  2
Basic
 70
     7
177
     3
291
     1
 70
    58
 90
        1
176
     1
 90
        0
176
     1
 90
        1
176
     1
 90
        0
176
     1
 40
0.6
176
     1
 40
30.0
176
     1
 62
     7
420
 16777215
176
     1
 90
        0
176
     1
 90
        4
176
     1
 62
     7
176
     1
 62
   257
176
     1
 90
        1
176
     1
 90
        1
176
     1
 40
1.0
176
     1
 90
        8
176
     1
 62
     7
176
     1
 40
1.0
176
     1
 90
        1
176
     1
 90
        6
176
     1
 90
        2
176
     1
 62
     7
176
     1
 90
        5
176
     1
 90
        0
176
     1
 90
        0
176
     1
290
     0
176
     1
 90
        1
176
     1
 40
0.0
176
     1
 90
        0
176
     1
290
     0
176
     1
290
     1
176
     1
290
     1
176
     1
290
     0
176
     1
290
     0
176
     1
290
     0
176
     1
290
     0
176
     1
290
     0
176
     1
290
     0
176
     1
 90
       50
176
     1
 40
0.0
176
     1
 40
1.0
176
     1
 90
        0
176
     1
 62
    18
420
        0
176
     1
 90
       50
176
     1
 90
        3
176
     1
 62
     5
420
      255
176
     1
290
     0
176
     1
 90
       50
176
     1
 90
       50
176
     1
 90
       50
176
     1
290
     0
176
     1
 90
       50
176
     1
 62
   256
176
     0
 40
1.0
176
     0
 90
        2
176
     1
  1
strokes_ogs.tif
176
     1
290
     0
176
     1
 40
1.0
176
     1
 40
1.0
176
     1
  0
VISUALSTYLE
  5
D2E
102
{ACAD_REACTORS
330
D22
102
}
330
D22
100
AcDbVisualStyle
  2
Brighten
 70
    12
177
     3
291
     1
 70
    58
 90
        2
176
     1
 90
        2
176
     1
 90
        0
176
     1
 90
        0
176
     1
 40
0.6
176
     1
 40
30.0
176
     1
 62
     7
420
 16777215
176
     1
 90
        1
176
     1
 90
        4
176
     1
 62
     7
176
     1
 62
   257
176
     1
 90
        1
176
     1
 90
        1
176
     1
 40
1.0
176
     1
 90
        8
176
     1
 62
     7
176
     1
 40
1.0
176
     1
 90
        1
176
     1
 90
        6
176
     1
 90
        2
176
     1
 62
     7
176
     1
 90
        5
176
     1
 90
        0
176
     1
 90
        0
176
     1
290
     0
176
     1
 90
        1
176
     1
 40
50.0
176
     1
 90
        0
176
     1
290
     0
176
     1
290
     1
176
     1
290
     1
176
     1
290
     0
176
     1
290
     0
176
     1
290
     0
176
     1
290
     0
176
     1
290
     0
176
     1
290
     0
176
     1
 90
       50
176
     1
 40
0.0
176
     1
 40
1.0
176
     1
 90
        0
176
     1
 62
    18
420
        0
176
     1
 90
       50
176
     1
 90
        3
176
     1
 62
     5
420
      255
176
     1
290
     0
176
     1
 90
       50
176
     1
 90
       50
176
     1
 90
       50
176
     1
290
     0
176
     1
 90
       50
176
     1
 62
   256
176
     0
 40
1.0
176
     0
 90
        2
176
     1
  1
strokes_ogs.tif
176
     1
290
     0
176
     1
 40
1.0
176
     1
 40
1.0
176
     1
  0
VISUALSTYLE
  5
D32
102
{ACAD_REACTORS
330
D22
102
}
330
D22
100
AcDbVisualStyle
  2
ColorChange
 70
    16
177
     3
291
     1
 70
    58
 90
        2
176
     1
 90
        2
176
     1
 90
        3
176
     1
 90
        0
176
     1
 40
0.6
176
     1
 40
30.0
176
     1
 62
     8
420
  8421504
176
     1
 90
        1
176
     1
 90
        4
176
     1
 62
     7
176
     1
 62
   257
176
     1
 90
        1
176
     1
 90
        1
176
     1
 40
1.0
176
     1
 90
        8
176
     1
 62
     8
420
  8421504
176
     1
 40
1.0
176
     1
 90
        1
176
     1
 90
        6
176
     1
 90
        2
176
     1
 62
     7
176
     1
 90
        5
176
     1
 90
        0
176
     1
 90
        0
176
     1
290
     0
176
     1
 90
        1
176
     1
 40
0.0
176
     1
 90
        0
176
     1
290
     0
176
     1
290
     1
176
     1
290
     1
176
     1
290
     0
176
     1
290
     0
176
     1
290
     0
176
     1
290
     0
176
     1
290
     0
176
     1
290
     0
176
     1
 90
       50
176
     1
 40
0.0
176
     1
 40
1.0
176
     1
 90
        0
176
     1
 62
    18
420
        0
176
     1
 90
       50
176
     1
 90
        3
176
     1
 62
     5
420
      255
176
     1
290
     0
176
     1
 90
       50
176
     1
 90
       50
176
     1
 90
       50
176
     1
290
     0
176
     1
 90
       50
176
     1
 62
   256
176
     0
 40
1.0
176
     0
 90
        2
176
     1
  1
strokes_ogs.tif
176
     1
290
     0
176
     1
 40
1.0
176
     1
 40
1.0
176
     1
  0
VISUALSTYLE
  5
D2C
102
{ACAD_REACTORS
330
D22
102
}
330
D22
100
AcDbVisualStyle
  2
Conceptual
 70
     9
177
     3
291
     0
 70
    58
 90
        3
176
     1
 90
        2
176
     1
 90
        0
176
     1
 90
        0
176
     1
 40
0.6
176
     1
 40
30.0
176
     1
 62
     7
420
 16777215
176
     1
 90
        2
176
     1
 90
        2
176
     1
 62
     7
176
     1
 62
   257
176
     1
 90
        1
176
     1
 90
        1
176
     1
 40
179.0
176
     1
 90
        8
176
     1
 62
     7
176
     1
 40
1.0
176
     1
 90
        1
176
     1
 90
        6
176
     1
 90
        2
176
     1
 62
     7
176
     1
 90
        3
176
     1
 90
        0
176
     1
 90
        0
176
     1
290
     0
176
     1
 90
        1
176
     1
 40
0.0
176
     1
 90
        0
176
     1
290
     0
176
     1
290
     1
176
     1
290
     1
176
     1
290
     0
176
     1
290
     0
176
     1
290
     0
176
     1
290
     0
176
     1
290
     0
176
     1
290
     0
176
     1
 90
       50
176
     1
 40
0.0
176
     1
 40
1.0
176
     1
 90
        0
176
     1
 62
    18
420
        0
176
     1
 90
       50
176
     1
 90
        3
176
     1
 62
     5
420
      255
176
     1
290
     0
176
     1
 90
       50
176
     1
 90
       50
176
     1
 90
       50
176
     1
290
     0
176
     1
 90
       50
176
     1
 62
   256
176
     0
 40
1.0
176
     0
 90
        2
176
     1
  1
strokes_ogs.tif
176
     1
290
     0
176
     1
 40
1.0
176
     1
 40
1.0
176
     1
  0
VISUALSTYLE
  5
D2D
102
{ACAD_REACTORS
330
D22
102
}
330
D22
100
AcDbVisualStyle
  2
Dim
 70
    11
177
     3
291
     1
 70
    58
 90
        2
176
     1
 90
        2
176
     1
 90
        0
176
     1
 90
        0
176
     1
 40
0.6
176
     1
 40
30.0
176
     1
 62
     7
420
 16777215
176
     1
 90
        1
176
     1
 90
        4
176
     1
 62
     7
176
     1
 62
   257
176
     1
 90
        1
176
     1
 90
        1
176
     1
 40
1.0
176
     1
 90
        8
176
     1
 62
     7
176
     1
 40
1.0
176
     1
 90
        1
176
     1
 90
        6
176
     1
 90
        2
176
     1
 62
     7
176
     1
 90
        5
176
     1
 90
        0
176
     1
 90
        0
176
     1
290
     0
176
     1
 90
        1
176
     1
 40
-50.0
176
     1
 90
        0
176
     1
290
     0
176
     1
290
     1
176
     1
290
     1
176
     1
290
     0
176
     1
290
     0
176
     1
290
     0
176
     1
290
     0
176
     1
290
     0
176
     1
290
     0
176
     1
 90
       50
176
     1
 40
0.0
176
     1
 40
1.0
176
     1
 90
        0
176
     1
 62
    18
420
        0
176
     1
 90
       50
176
     1
 90
        3
176
     1
 62
     5
420
      255
176
     1
290
     0
176
     1
 90
       50
176
     1
 90
       50
176
     1
 90
       50
176
     1
290
     0
176
     1
 90
       50
176
     1
 62
   256
176
     0
 40
1.0
176
     0
 90
        2
176
     1
  1
strokes_ogs.tif
176
     1
290
     0
176
     1
 40
1.0
176
     1
 40
1.0
176
     1
  0
VISUALSTYLE
  5
D35
102
{ACAD_REACTORS
330
D22
102
}
330
D22
100
AcDbVisualStyle
  2
EdgeColorOff
 70
    22
177
     3
291
     1
 70
    58
 90
        2
176
     0
 90
        2
176
     0
 90
        0
176
     0
 90
        0
176
     0
 40
0.6
176
     0
 40
30.0
176
     0
 62
     7
420
 16777215
176
     0
 90
        1
176
     0
 90
        4
176
     0
 62
     7
176
     0
 62
   257
176
     0
 90
        1
176
     0
 90
        1
176
     0
 40
1.0
176
     0
 90
        8
176
     2
 62
     7
176
     0
 40
1.0
176
     0
 90
        1
176
     0
 90
        6
176
     0
 90
        2
176
     0
 62
     7
176
     0
 90
        5
176
     0
 90
        0
176
     0
 90
        0
176
     0
290
     0
176
     0
 90
        1
176
     0
 40
0.0
176
     0
 90
        0
176
     0
290
     0
176
     0
290
     1
176
     0
290
     1
176
     0
290
     0
176
     0
290
     0
176
     0
290
     0
176
     0
290
     0
176
     0
290
     0
176
     0
290
     0
176
     0
 90
       50
176
     0
 40
0.0
176
     0
 40
1.0
176
     0
 90
        0
176
     0
 62
    18
420
        0
176
     0
 90
       50
176
     0
 90
        3
176
     0
 62
     5
420
      255
176
     0
290
     0
176
     0
 90
       50
176
     0
 90
       50
176
     0
 90
       50
176
     0
290
     0
176
     0
 90
       50
176
     0
 62
   256
176
     0
 40
1.0
176
     0
 90
        2
176
     0
  1
strokes_ogs.tif
176
     0
290
     0
176
     0
 40
1.0
176
     0
 40
1.0
176
     0
  0
VISUALSTYLE
  5
D31
102
{ACAD_REACTORS
330
D22
102
}
330
D22
100
AcDbVisualStyle
  2
Facepattern
 70
    15
177
     3
291
     1
 70
    58
 90
        2
176
     1
 90
        2
176
     1
 90
        0
176
     1
 90
        0
176
     1
 40
0.6
176
     1
 40
30.0
176
     1
 62
     7
420
 16777215
176
     1
 90
        1
176
     1
 90
        4
176
     1
 62
     7
176
     1
 62
   257
176
     1
 90
        1
176
     1
 90
        1
176
     1
 40
1.0
176
     1
 90
        8
176
     1
 62
     7
176
     1
 40
1.0
176
     1
 90
        1
176
     1
 90
        6
176
     1
 90
        2
176
     1
 62
     7
176
     1
 90
        5
176
     1
 90
        0
176
     1
 90
        0
176
     1
290
     0
176
     1
 90
        1
176
     1
 40
0.0
176
     1
 90
        0
176
     1
290
     0
176
     1
290
     1
176
     1
290
     1
176
     1
290
     0
176
     1
290
     0
176
     1
290
     0
176
     1
290
     0
176
     1
290
     0
176
     1
290
     0
176
     1
 90
       50
176
     1
 40
0.0
176
     1
 40
1.0
176
     1
 90
        0
176
     1
 62
    18
420
        0
176
     1
 90
       50
176
     1
 90
        3
176
     1
 62
     5
420
      255
176
     1
290
     0
176
     1
 90
       50
176
     1
 90
       50
176
     1
 90
       50
176
     1
290
     0
176
     1
 90
       50
176
     1
 62
   256
176
     0
 40
1.0
176
     0
 90
        2
176
     1
  1
strokes_ogs.tif
176
     1
290
     0
176
     1
 40
1.0
176
     1
 40
1.0
176
     1
  0
VISUALSTYLE
  5
D23
102
{ACAD_REACTORS
330
D22
102
}
330
D22
100
AcDbVisualStyle
  2
Flat
 70
     0
177
     3
291
     1
 70
    58
 90
        2
176
     1
 90
        1
176
     1
 90
        1
176
     1
 90
        2
176
     1
 40
0.6
176
     1
 40
30.0
176
     1
 62
     7
420
 16777215
176
     1
 90
        0
176
     1
 90
        0
176
     1
 62
     7
176
     1
 62
   257
176
     1
 90
        1
176
     1
 90
        1
176
     1
 40
1.0
176
     1
 90
        8
176
     1
 62
     7
176
     1
 40
1.0
176
     1
 90
        1
176
     1
 90
        6
176
     1
 90
        2
176
     1
 62
     7
176
     1
 90
        5
176
     1
 90
        0
176
     1
 90
        0
176
     1
290
     0
176
     1
 90
       13
176
     1
 40
0.0
176
     1
 90
        0
176
     1
290
     0
176
     1
290
     1
176
     1
290
     1
176
     1
290
     0
176
     1
290
     0
176
     1
290
     0
176
     1
290
     0
176
     1
290
     0
176
     1
290
     0
176
     1
 90
       50
176
     1
 40
0.0
176
     1
 40
1.0
176
     1
 90
        0
176
     1
 62
    18
420
        0
176
     1
 90
       50
176
     1
 90
        3
176
     1
 62
     5
420
      255
176
     1
290
     0
176
     1
 90
       50
176
     1
 90
       50
176
     1
 90
       50
176
     1
290
     0
176
     1
 90
       50
176
     1
 62
   256
176
     0
 40
1.0
176
     0
 90
        2
176
     1
  1
strokes_ogs.tif
176
     1
290
     0
176
     1
 40
1.0
176
     1
 40
1.0
176
     1
  0
VISUALSTYLE
  5
D24
102
{ACAD_REACTORS
330
D22
102
}
330
D22
100
AcDbVisualStyle
  2
FlatWithEdges
 70
     1
177
     3
291
     1
 70
    58
 90
        2
176
     1
 90
        1
176
     1
 90
        1
176
     1
 90
        2
176
     1
 40
0.6
176
     1
 40
30.0
176
     1
 62
     7
420
 16777215
176
     1
 90
        1
176
     1
 90
        0
176
     1
 62
     7
176
     1
 62
   257
176
     1
 90
        1
176
     1
 90
        1
176
     1
 40
1.0
176
     1
 90
        0
176
     1
 62
   257
176
     1
 40
1.0
176
     1
 90
        1
176
     1
 90
        6
176
     1
 90
        2
176
     1
 62
     7
176
     1
 90
        5
176
     1
 90
        0
176
     1
 90
        0
176
     1
290
     0
176
     1
 90
       13
176
     1
 40
0.0
176
     1
 90
        0
176
     1
290
     0
176
     1
290
     1
176
     1
290
     1
176
     1
290
     0
176
     1
290
     0
176
     1
290
     0
176
     1
290
     0
176
     1
290
     0
176
     1
290
     0
176
     1
 90
       50
176
     1
 40
0.0
176
     1
 40
1.0
176
     1
 90
        0
176
     1
 62
    18
420
        0
176
     1
 90
       50
176
     1
 90
        3
176
     1
 62
     5
420
      255
176
     1
290
     0
176
     1
 90
       50
176
     1
 90
       50
176
     1
 90
       50
176
     1
290
     0
176
     1
 90
       50
176
     1
 62
   256
176
     0
 40
1.0
176
     0
 90
        2
176
     1
  1
strokes_ogs.tif
176
     1
290
     0
176
     1
 40
1.0
176
     1
 40
1.0
176
     1
  0
VISUALSTYLE
  5
D25
102
{ACAD_REACTORS
330
D22
102
}
330
D22
100
AcDbVisualStyle
  2
Gouraud
 70
     2
177
     3
291
     1
 70
    58
 90
        2
176
     1
 90
        2
176
     1
 90
        1
176
     1
 90
        2
176
     1
 40
0.6
176
     1
 40
30.0
176
     1
 62
     7
420
 16777215
176
     1
 90
        0
176
     1
 90
        0
176
     1
 62
     7
176
     1
 62
   257
176
     1
 90
        1
176
     1
 90
        1
176
     1
 40
1.0
176
     1
 90
        0
176
     1
 62
     7
176
     1
 40
1.0
176
     1
 90
        1
176
     1
 90
        6
176
     1
 90
        2
176
     1
 62
     7
176
     1
 90
        5
176
     1
 90
        0
176
     1
 90
        0
176
     1
290
     0
176
     1
 90
       13
176
     1
 40
0.0
176
     1
 90
        0
176
     1
290
     0
176
     1
290
     1
176
     1
290
     1
176
     1
290
     0
176
     1
290
     0
176
     1
290
     0
176
     1
290
     0
176
     1
290
     0
176
     1
290
     0
176
     1
 90
       50
176
     1
 40
0.0
176
     1
 40
1.0
176
     1
 90
        0
176
     1
 62
    18
420
        0
176
     1
 90
       50
176
     1
 90
        3
176
     1
 62
     5
420
      255
176
     1
290
     0
176
     1
 90
       50
176
     1
 90
       50
176
     1
 90
       50
176
     1
290
     0
176
     1
 90
       50
176
     1
 62
   256
176
     0
 40
1.0
176
     0
 90
        2
176
     1
  1
strokes_ogs.tif
176
     1
290
     0
176
     1
 40
1.0
176
     1
 40
1.0
176
     1
  0
VISUALSTYLE
  5
D26
102
{ACAD_REACTORS
330
D22
102
}
330
D22
100
AcDbVisualStyle
  2
GouraudWithEdges
 70
     3
177
     3
291
     1
 70
    58
 90
        2
176
     1
 90
        2
176
     1
 90
        1
176
     1
 90
        2
176
     1
 40
0.6
176
     1
 40
30.0
176
     1
 62
     7
420
 16777215
176
     1
 90
        1
176
     1
 90
        0
176
     1
 62
     7
176
     1
 62
   257
176
     1
 90
        1
176
     1
 90
        1
176
     1
 40
1.0
176
     1
 90
        0
176
     1
 62
   257
176
     1
 40
1.0
176
     1
 90
        1
176
     1
 90
        6
176
     1
 90
        2
176
     1
 62
     7
176
     1
 90
        5
176
     1
 90
        0
176
     1
 90
        0
176
     1
290
     0
176
     1
 90
       13
176
     1
 40
0.0
176
     1
 90
        0
176
     1
290
     0
176
     1
290
     1
176
     1
290
     1
176
     1
290
     0
176
     1
290
     0
176
     1
290
     0
176
     1
290
     0
176
     1
290
     0
176
     1
290
     0
176
     1
 90
       50
176
     1
 40
0.0
176
     1
 40
1.0
176
     1
 90
        0
176
     1
 62
    18
420
        0
176
     1
 90
       50
176
     1
 90
        3
176
     1
 62
     5
420
      255
176
     1
290
     0
176
     1
 90
       50
176
     1
 90
       50
176
     1
 90
       50
176
     1
290
     0
176
     1
 90
       50
176
     1
 62
   256
176
     0
 40
1.0
176
     0
 90
        2
176
     1
  1
strokes_ogs.tif
176
     1
290
     0
176
     1
 40
1.0
176
     1
 40
1.0
176
     1
  0
VISUALSTYLE
  5
D29
102
{ACAD_REACTORS
330
D22
102
}
330
D22
100
AcDbVisualStyle
  2
Hidden
 70
     6
177
     3
291
     0
 70
    58
 90
        1
176
     1
 90
        2
176
     1
 90
        2
176
     1
 90
        0
176
     1
 40
0.6
176
     1
 40
30.0
176
     1
 62
     7
420
 16777215
176
     1
 90
        2
176
     1
 90
        2
176
     1
 62
     7
176
     1
 62
   257
176
     1
 90
        2
176
     1
 90
        1
176
     1
 40
40.0
176
     1
 90
        0
176
     1
 62
   257
176
     1
 40
1.0
176
     1
 90
        1
176
     1
 90
        6
176
     1
 90
        2
176
     1
 62
     7
176
     1
 90
        3
176
     1
 90
        0
176
     1
 90
        0
176
     1
290
     0
176
     1
 90
        1
176
     1
 40
0.0
176
     1
 90
        0
176
     1
290
     0
176
     1
290
     1
176
     1
290
     1
176
     1
290
     0
176
     1
290
     0
176
     1
290
     0
176
     1
290
     0
176
     1
290
     0
176
     1
290
     0
176
     1
 90
       50
176
     1
 40
0.0
176
     1
 40
1.0
176
     1
 90
        0
176
     1
 62
    18
420
        0
176
     1
 90
       50
176
     1
 90
        3
176
     1
 62
     5
420
      255
176
     1
290
     0
176
     1
 90
       50
176
     1
 90
       50
176
     1
 90
       50
176
     1
290
     0
176
     1
 90
       50
176
     1
 62
   256
176
     0
 40
1.0
176
     0
 90
        2
176
     1
  1
strokes_ogs.tif
176
     1
290
     0
176
     1
 40
1.0
176
     1
 40
1.0
176
     1
  0
VISUALSTYLE
  5
D33
102
{ACAD_REACTORS
330
D22
102
}
330
D22
100
AcDbVisualStyle
  2
JitterOff
 70
    20
177
     3
291
     1
 70
    58
 90
        2
176
     0
 90
        2
176
     0
 90
        0
176
     0
 90
        0
176
     0
 40
0.6
176
     0
 40
30.0
176
     0
 62
     7
420
 16777215
176
     0
 90
        1
176
     0
 90
        4
176
     0
 62
     7
176
     0
 62
   257
176
     0
 90
        1
176
     0
 90
        1
176
     0
 40
1.0
176
     0
 90
       10
176
     2
 62
     7
176
     0
 40
1.0
176
     0
 90
        1
176
     0
 90
        6
176
     0
 90
        2
176
     0
 62
     7
176
     0
 90
        5
176
     0
 90
        0
176
     0
 90
        0
176
     0
290
     0
176
     0
 90
        1
176
     0
 40
0.0
176
     0
 90
        0
176
     0
290
     0
176
     0
290
     1
176
     0
290
     1
176
     0
290
     0
176
     0
290
     0
176
     0
290
     0
176
     0
290
     0
176
     0
290
     0
176
     0
290
     0
176
     0
 90
       50
176
     0
 40
0.0
176
     0
 40
1.0
176
     0
 90
        0
176
     0
 62
    18
420
        0
176
     0
 90
       50
176
     0
 90
        3
176
     0
 62
     5
420
      255
176
     0
290
     0
176
     0
 90
       50
176
     0
 90
       50
176
     0
 90
       50
176
     0
290
     0
176
     0
 90
       50
176
     0
 62
   256
176
     0
 40
1.0
176
     0
 90
        2
176
     0
  1
strokes_ogs.tif
176
     0
290
     0
176
     0
 40
1.0
176
     0
 40
1.0
176
     0
  0
VISUALSTYLE
  5
D30
102
{ACAD_REACTORS
330
D22
102
}
330
D22
100
AcDbVisualStyle
  2
Linepattern
 70
    14
177
     3
291
     1
 70
    58
 90
        2
176
     1
 90
        2
176
     1
 90
        0
176
     1
 90
        0
176
     1
 40
0.6
176
     1
 40
30.0
176
     1
 62
     7
420
 16777215
176
     1
 90
        1
176
     1
 90
        4
176
     1
 62
     7
176
     1
 62
   257
176
     1
 90
        7
176
     1
 90
        7
176
     1
 40
1.0
176
     1
 90
        8
176
     1
 62
     7
176
     1
 40
1.0
176
     1
 90
        1
176
     1
 90
        6
176
     1
 90
        2
176
     1
 62
     7
176
     1
 90
        5
176
     1
 90
        0
176
     1
 90
        0
176
     1
290
     0
176
     1
 90
        1
176
     1
 40
0.0
176
     1
 90
        0
176
     1
290
     0
176
     1
290
     1
176
     1
290
     1
176
     1
290
     0
176
     1
290
     0
176
     1
290
     0
176
     1
290
     0
176
     1
290
     0
176
     1
290
     0
176
     1
 90
       50
176
     1
 40
0.0
176
     1
 40
1.0
176
     1
 90
        0
176
     1
 62
    18
420
        0
176
     1
 90
       50
176
     1
 90
        3
176
     1
 62
     5
420
      255
176
     1
290
     0
176
     1
 90
       50
176
     1
 90
       50
176
     1
 90
       50
176
     1
290
     0
176
     1
 90
       50
176
     1
 62
   256
176
     0
 40
1.0
176
     0
 90
        2
176
     1
  1
strokes_ogs.tif
176
     1
290
     0
176
     1
 40
1.0
176
     1
 40
1.0
176
     1
  0
VISUALSTYLE
  5
D34
102
{ACAD_REACTORS
330
D22
102
}
330
D22
100
AcDbVisualStyle
  2
OverhangOff
 70
    21
177
     3
291
     1
 70
    58
 90
        2
176
     0
 90
        2
176
     0
 90
        0
176
     0
 90
        0
176
     0
 40
0.6
176
     0
 40
30.0
176
     0
 62
     7
420
 16777215
176
     0
 90
        1
176
     0
 90
        4
176
     0
 62
     7
176
     0
 62
   257
176
     0
 90
        1
176
     0
 90
        1
176
     0
 40
1.0
176
     0
 90
        9
176
     2
 62
     7
176
     0
 40
1.0
176
     0
 90
        1
176
     0
 90
        6
176
     0
 90
        2
176
     0
 62
     7
176
     0
 90
        5
176
     0
 90
        0
176
     0
 90
        0
176
     0
290
     0
176
     0
 90
        1
176
     0
 40
0.0
176
     0
 90
        0
176
     0
290
     0
176
     0
290
     1
176
     0
290
     1
176
     0
290
     0
176
     0
290
     0
176
     0
290
     0
176
     0
290
     0
176
     0
290
     0
176
     0
290
     0
176
     0
 90
       50
176
     0
 40
0.0
176
     0
 40
1.0
176
     0
 90
        0
176
     0
 62
    18
420
        0
176
     0
 90
       50
176
     0
 90
        3
176
     0
 62
     5
420
      255
176
     0
290
     0
176
     0
 90
       50
176
     0
 90
       50
176
     0
 90
       50
176
     0
290
     0
176
     0
 90
       50
176
     0
 62
   256
176
     0
 40
1.0
176
     0
 90
        2
176
     0
  1
strokes_ogs.tif
176
     0
290
     0
176
     0
 40
1.0
176
     0
 40
1.0
176
     0
  0
VISUALSTYLE
  5
D2B
102
{ACAD_REACTORS
330
D22
102
}
330
D22
100
AcDbVisualStyle
  2
Realistic
 70
     8
177
     3
291
     0
 70
    58
 90
        2
176
     1
 90
        3
176
     1
 90
        0
176
     1
 90
        2
176
     1
 40
0.6
176
     1
 40
30.0
176
     1
 62
     7
420
 16777215
176
     1
 90
        0
176
     1
 90
        0
176
     1
 62
     7
176
     1
 62
   257
176
     1
 90
        1
176
     1
 90
        1
176
     1
 40
1.0
176
     1
 90
        8
176
     1
 62
   257
176
     1
 40
1.0
176
     1
 90
        1
176
     1
 90
        6
176
     1
 90
        2
176
     1
 62
     7
176
     1
 90
        3
176
     1
 90
        0
176
     1
 90
        0
176
     1
290
     0
176
     1
 90
       13
176
     1
 40
0.0
176
     1
 90
        0
176
     1
290
     0
176
     1
290
     1
176
     1
290
     1
176
     1
290
     0
176
     1
290
     0
176
     1
290
     0
176
     1
290
     0
176
     1
290
     0
176
     1
290
     0
176
     1
 90
       50
176
     1
 40
0.0
176
     1
 40
1.0
176
     1
 90
        0
176
     1
 62
    18
420
        0
176
     1
 90
       50
176
     1
 90
        3
176
     1
 62
     5
420
      255
176
     1
290
     0
176
     1
 90
       50
176
     1
 90
       50
176
     1
 90
       50
176
     1
290
     0
176
     1
 90
       50
176
     1
 62
   256
176
     0
 40
1.0
176
     0
 90
        2
176
     1
  1
strokes_ogs.tif
176
     1
290
     0
176
     1
 40
1.0
176
     1
 40
1.0
176
     1
  0
VISUALSTYLE
  5
D3A
102
{ACAD_REACTORS
330
D22
102
}
330
D22
100
AcDbVisualStyle
  2
Shaded
 70
    27
177
     3
291
     0
 70
    58
 90
        2
176
     1
 90
        2
176
     1
 90
        1
176
     1
 90
        2
176
     1
 40
0.6
176
     1
 40
30.0
176
     1
 62
     7
420
 16777215
176
     1
 90
        0
176
     1
 90
        4
176
     1
 62
     7
176
     1
 62
   257
176
     1
 90
        1
176
     1
 90
        1
176
     1
 40
1.0
176
     1
 90
        8
176
     1
 62
   257
176
     1
 40
1.0
176
     1
 90
        1
176
     1
 90
        6
176
     1
 90
        2
176
     1
 62
     8
420
  7895160
176
     1
 90
        3
176
     1
 90
        0
176
     1
 90
        0
176
     1
290
     0
176
     1
 90
        5
176
     1
 40
0.0
176
     1
 90
        0
176
     1
290
     0
176
     1
290
     1
176
     1
290
     1
176
     1
290
     0
176
     1
290
     0
176
     1
290
     0
176
     1
290
     0
176
     1
290
     0
176
     1
290
     0
176
     1
 90
       50
176
     1
 40
0.0
176
     1
 40
1.0
176
     1
 90
        0
176
     1
 62
    18
420
        0
176
     1
 90
       50
176
     1
 90
        3
176
     1
 62
     5
420
      255
176
     1
290
     0
176
     1
 90
       50
176
     1
 90
       50
176
     1
 90
       50
176
     1
290
     0
176
     1
 90
       50
176
     1
 62
   256
176
     0
 40
1.0
176
     0
 90
        2
176
     1
  1
strokes_ogs.tif
176
     1
290
     0
176
     1
 40
1.0
176
     1
 40
1.0
176
     1
  0
VISUALSTYLE
  5
D39
102
{ACAD_REACTORS
330
D22
102
}
330
D22
100
AcDbVisualStyle
  2
Shaded with edges
 70
    26
177
     3
291
     0
 70
    58
 90
        2
176
     1
 90
        2
176
     1
 90
        1
176
     1
 90
        2
176
     1
 40
0.6
176
     1
 40
30.0
176
     1
 62
     7
420
 16777215
176
     1
 90
        1
176
     1
 90
       10
176
     1
 62
     7
176
     1
 62
   257
176
     1
 90
        2
176
     1
 90
        1
176
     1
 40
1.0
176
     1
 90
        8
176
     1
 62
   257
176
     1
 40
1.0
176
     1
 90
        1
176
     1
 90
        6
176
     1
 90
        2
176
     1
 62
     7
176
     1
 90
        3
176
     1
 90
        0
176
     1
 90
        0
176
     1
290
     0
176
     1
 90
        5
176
     1
 40
0.0
176
     1
 90
        0
176
     1
290
     0
176
     1
290
     1
176
     1
290
     1
176
     1
290
     0
176
     1
290
     0
176
     1
290
     0
176
     1
290
     0
176
     1
290
     0
176
     1
290
     0
176
     1
 90
       50
176
     1
 40
0.0
176
     1
 40
1.0
176
     1
 90
        0
176
     1
 62
    18
420
        0
176
     1
 90
       50
176
     1
 90
        3
176
     1
 62
     5
420
      255
176
     1
290
     0
176
     1
 90
       50
176
     1
 90
       50
176
     1
 90
       50
176
     1
290
     0
176
     1
 90
       50
176
     1
 62
   256
176
     0
 40
1.0
176
     0
 90
        2
176
     1
  1
strokes_ogs.tif
176
     1
290
     0
176
     1
 40
1.0
176
     1
 40
1.0
176
     1
  0
VISUALSTYLE
  5
D36
102
{ACAD_REACTORS
330
D22
102
}
330
D22
100
AcDbVisualStyle
  2
Shades of Gray
 70
    23
177
     3
291
     0
 70
    58
 90
        2
176
     1
 90
        2
176
     1
 90
        3
176
     1
 90
        0
176
     1
 40
0.6
176
     1
 40
30.0
176
     1
 62
     7
420
 16777215
176
     1
 90
        2
176
     1
 90
        2
176
     1
 62
     7
176
     1
 62
     7
176
     1
 90
        1
176
     1
 90
        1
176
     1
 40
40.0
176
     1
 90
        8
176
     1
 62
     7
176
     1
 40
1.0
176
     1
 90
        1
176
     1
 90
        6
176
     1
 90
        2
176
     1
 62
     7
176
     1
 90
        3
176
     1
 90
        0
176
     1
 90
        0
176
     1
290
     0
176
     1
 90
        1
176
     1
 40
0.0
176
     1
 90
        0
176
     1
290
     0
176
     1
290
     1
176
     1
290
     1
176
     1
290
     0
176
     1
290
     0
176
     1
290
     0
176
     1
290
     0
176
     1
290
     0
176
     1
290
     0
176
     1
 90
       50
176
     1
 40
0.0
176
     1
 40
1.0
176
     1
 90
        0
176
     1
 62
    18
420
        0
176
     1
 90
       50
176
     1
 90
        3
176
     1
 62
     5
420
      255
176
     1
290
     0
176
     1
 90
       50
176
     1
 90
       50
176
     1
 90
       50
176
     1
290
     0
176
     1
 90
       50
176
     1
 62
   256
176
     0
 40
1.0
176
     0
 90
        2
176
     1
  1
strokes_ogs.tif
176
     1
290
     0
176
     1
 40
1.0
176
     1
 40
1.0
176
     1
  0
VISUALSTYLE
  5
D37
102
{ACAD_REACTORS
330
D22
102
}
330
D22
100
AcDbVisualStyle
  2
Sketchy
 70
    24
177
     3
291
     0
 70
    58
 90
        1
176
     1
 90
        2
176
     1
 90
        2
176
     1
 90
        0
176
     1
 40
0.6
176
     1
 40
30.0
176
     1
 62
     7
420
 16777215
176
     1
 90
        2
176
     1
 90
        2
176
     1
 62
     7
176
     1
 62
     7
176
     1
 90
        1
176
     1
 90
        1
176
     1
 40
40.0
176
     1
 90
       11
176
     1
 62
     7
176
     1
 40
1.0
176
     1
 90
        1
176
     1
 90
        6
176
     1
 90
        2
176
     1
 62
     7
176
     1
 90
        6
176
     1
 90
        0
176
     1
 90
        0
176
     1
290
     0
176
     1
 90
        1
176
     1
 40
0.0
176
     1
 90
        0
176
     1
290
     0
176
     1
290
     1
176
     1
290
     1
176
     1
290
     0
176
     1
290
     0
176
     1
290
     0
176
     1
290
     0
176
     1
290
     0
176
     1
290
     0
176
     1
 90
       50
176
     1
 40
0.0
176
     1
 40
1.0
176
     1
 90
        0
176
     1
 62
    18
420
        0
176
     1
 90
       50
176
     1
 90
        3
176
     1
 62
     5
420
      255
176
     1
290
     0
176
     1
 90
       50
176
     1
 90
       50
176
     1
 90
       50
176
     1
290
     0
176
     1
 90
       50
176
     1
 62
   256
176
     0
 40
1.0
176
     0
 90
        2
176
     1
  1
strokes_ogs.tif
176
     1
290
     0
176
     1
 40
1.0
176
     1
 40
1.0
176
     1
  0
VISUALSTYLE
  5
D2F
102
{ACAD_REACTORS
330
D22
102
}
330
D22
100
AcDbVisualStyle
  2
Thicken
 70
    13
177
     3
291
     1
 70
    58
 90
        2
176
     1
 90
        2
176
     1
 90
        0
176
     1
 90
        0
176
     1
 40
0.6
176
     1
 40
30.0
176
     1
 62
     7
420
 16777215
176
     1
 90
        1
176
     1
 90
        4
176
     1
 62
     7
176
     1
 62
   257
176
     1
 90
        1
176
     1
 90
        1
176
     1
 40
1.0
176
     1
 90
       12
176
     1
 62
     7
176
     1
 40
1.0
176
     1
 90
        1
176
     1
 90
        6
176
     1
 90
        2
176
     1
 62
     7
176
     1
 90
        5
176
     1
 90
        0
176
     1
 90
        0
176
     1
290
     0
176
     1
 90
        1
176
     1
 40
0.0
176
     1
 90
        0
176
     1
290
     0
176
     1
290
     1
176
     1
290
     1
176
     1
290
     0
176
     1
290
     0
176
     1
290
     0
176
     1
290
     0
176
     1
290
     0
176
     1
290
     0
176
     1
 90
       50
176
     1
 40
0.0
176
     1
 40
1.0
176
     1
 90
        0
176
     1
 62
    18
420
        0
176
     1
 90
       50
176
     1
 90
        3
176
     1
 62
     5
420
      255
176
     1
290
     0
176
     1
 90
       50
176
     1
 90
       50
176
     1
 90
       50
176
     1
290
     0
176
     1
 90
       50
176
     1
 62
   256
176
     0
 40
1.0
176
     0
 90
        2
176
     1
  1
strokes_ogs.tif
176
     1
290
     0
176
     1
 40
1.0
176
     1
 40
1.0
176
     1
  0
VISUALSTYLE
  5
D28
102
{ACAD_REACTORS
330
D22
102
}
330
D22
100
AcDbVisualStyle
  2
Wireframe
 70
     5
177
     3
291
     0
 70
    58
 90
        0
176
     1
 90
        2
176
     1
 90
        0
176
     1
 90
        0
176
     1
 40
0.6
176
     1
 40
30.0
176
     1
 62
     7
420
 16777215
176
     1
 90
        1
176
     1
 90
        4
176
     1
 62
     7
176
     1
 62
   257
176
     1
 90
        1
176
     1
 90
        1
176
     1
 40
1.0
176
     1
 90
        0
176
     1
 62
   257
176
     1
 40
1.0
176
     1
 90
        1
176
     1
 90
        6
176
     1
 90
        2
176
     1
 62
     7
176
     1
 90
        3
176
     1
 90
        0
176
     1
 90
        0
176
     1
290
     0
176
     1
 90
        1
176
     1
 40
0.0
176
     1
 90
        0
176
     1
290
     0
176
     1
290
     1
176
     1
290
     1
176
     1
290
     0
176
     1
290
     0
176
     1
290
     0
176
     1
290
     0
176
     1
290
     0
176
     1
290
     0
176
     1
 90
       50
176
     1
 40
0.0
176
     1
 40
1.0
176
     1
 90
        0
176
     1
 62
    18
420
        0
176
     1
 90
       50
176
     1
 90
        3
176
     1
 62
     5
420
      255
176
     1
290
     0
176
     1
 90
       50
176
     1
 90
       50
176
     1
 90
       50
176
     1
290
     0
176
     1
 90
       50
176
     1
 62
   256
176
     0
 40
1.0
176
     0
 90
        2
176
     1
  1
strokes_ogs.tif
176
     1
290
     0
176
     1
 40
1.0
176
     1
 40
1.0
176
     1
  0
VISUALSTYLE
  5
D38
102
{ACAD_REACTORS
330
D22
102
}
330
D22
100
AcDbVisualStyle
  2
X-Ray
 70
    25
177
     3
291
     0
 70
    58
 90
        2
176
     1
 90
        2
176
     1
 90
        1
176
     1
 90
        1
176
     1
 40
0.5
176
     1
 40
30.0
176
     1
 62
     7
420
 16777215
176
     1
 90
        1
176
     1
 90
        0
176
     1
 62
     7
176
     1
 62
   257
176
     1
 90
        1
176
     1
 90
        1
176
     1
 40
1.0
176
     1
 90
        8
176
     1
 62
     7
176
     1
 40
1.0
176
     1
 90
        1
176
     1
 90
        6
176
     1
 90
        2
176
     1
 62
     7
176
     1
 90
        3
176
     1
 90
        0
176
     1
 90
        0
176
     1
290
     0
176
     1
 90
       13
176
     1
 40
0.0
176
     1
 90
        0
176
     1
290
     0
176
     1
290
     1
176
     1
290
     1
176
     1
290
     0
176
     1
290
     0
176
     1
290
     0
176
     1
290
     0
176
     1
290
     0
176
     1
290
     0
176
     1
 90
       50
176
     1
 40
0.0
176
     1
 40
1.0
176
     1
 90
        0
176
     1
 62
    18
420
        0
176
     1
 90
       50
176
     1
 90
        3
176
     1
 62
     5
420
      255
176
     1
290
     0
176
     1
 90
       50
176
     1
 90
       50
176
     1
 90
       50
176
     1
290
     0
176
     1
 90
       50
176
     1
 62
   256
176
     0
 40
1.0
176
     0
 90
        2
176
     1
  1
strokes_ogs.tif
176
     1
290
     0
176
     1
 40
1.0
176
     1
 40
1.0
176
     1
  0
DICTIONARYVAR
  5
E23
102
{ACAD_REACTORS
330
1C7
102
}
330
1C7
100
DictionaryVariables
280
     0
  1
1:1
  0
DICTIONARYVAR
  5
E25
102
{ACAD_REACTORS
330
1C7
102
}
330
1C7
100
DictionaryVariables
280
     0
  1
Standard
  0
DICTIONARYVAR
  5
E24
102
{ACAD_REACTORS
330
1C7
102
}
330
1C7
100
DictionaryVariables
280
     0
  1
Standard
  0
DICTIONARYVAR
  5
DCD
102
{ACAD_REACTORS
330
1C7
102
}
330
1C7
100
DictionaryVariables
280
     0
  1
.
  0
DICTIONARYVAR
  5
E26
102
{ACAD_REACTORS
330
1C7
102
}
330
1C7
100
DictionaryVariables
280
     0
  1
0
  0
DICTIONARYVAR
  5
DE7
102
{ACAD_REACTORS
330
347
102
}
330
347
100
DictionaryVariables
280
     0
  1
0.250000
  0
DICTIONARYVAR
  5
DE5
102
{ACAD_REACTORS
330
342
102
}
330
342
100
DictionaryVariables
280
     0
  1
0.261799
  0
DICTIONARYVAR
  5
DE3
102
{ACAD_REACTORS
330
342
102
}
330
342
100
DictionaryVariables
280
     0
  1
0.400000
  0
DICTIONARYVAR
  5
DE4
102
{ACAD_REACTORS
330
342
102
}
330
342
100
DictionaryVariables
280
     0
  1
0.250000
  0
DICTIONARYVAR
  5
DE6
102
{ACAD_REACTORS
330
342
102
}
330
342
100
DictionaryVariables
280
     0
  1
0
  0
DICTIONARY
  5
2A2E
330
D68
100
AcDbDictionary
280
     1
281
     1
  3
ACAD_ROUNDTRIP_2008_TABLESTYLE_CELLSTYLEMAP
360
2A2F
  0
CELLSTYLEMAP
  5
2A2F
102
{ACAD_REACTORS
330
2A2E
102
}
330
2A2E
100
AcDbCellStyleMap
 90
        3
300
CELLSTYLE
  1
TABLEFORMAT_BEGIN
 90
        5
170
     1
 91
        0
 92
    32768
 62
   257
 93
        1
300
CONTENTFORMAT
  1
CONTENTFORMAT_BEGIN
 90
        0
 91
        0
 92
        4
 93
        0
300

 40
0.0
140
1.0
 94
        5
 62
     0
340
17
144
6.0
309
CONTENTFORMAT_END
171
     1
301
MARGIN
  1
CELLMARGIN_BEGIN
 40
1.5
 40
1.5
 40
1.5
 40
1.5
 40
1.5
 40
1.5
309
CELLMARGIN_END
 94
        6
 95
        1
302
GRIDFORMAT
  1
GRIDFORMAT_BEGIN
 90
        0
 91
        1
 62
     0
 92
       -2
340
11
 93
        0
 40
0.045
309
GRIDFORMAT_END
 95
        2
302
GRIDFORMAT
  1
GRIDFORMAT_BEGIN
 90
        0
 91
        1
 62
     0
 92
       -2
340
11
 93
        0
 40
0.045
309
GRIDFORMAT_END
 95
        4
302
GRIDFORMAT
  1
GRIDFORMAT_BEGIN
 90
        0
 91
        1
 62
     0
 92
       -2
340
11
 93
        0
 40
0.045
309
GRIDFORMAT_END
 95
        8
302
GRIDFORMAT
  1
GRIDFORMAT_BEGIN
 90
        0
 91
        1
 62
     0
 92
       -2
340
11
 93
        0
 40
0.045
309
GRIDFORMAT_END
 95
       16
302
GRIDFORMAT
  1
GRIDFORMAT_BEGIN
 90
        0
 91
        1
 62
     0
 92
       -2
340
11
 93
        0
 40
0.045
309
GRIDFORMAT_END
 95
       32
302
GRIDFORMAT
  1
GRIDFORMAT_BEGIN
 90
        0
 91
        1
 62
     0
 92
       -2
340
11
 93
        0
 40
0.045
309
GRIDFORMAT_END
309
TABLEFORMAT_END
  1
CELLSTYLE_BEGIN
 90
        1
 91
        1
300
_TITLE
309
CELLSTYLE_END
300
CELLSTYLE
  1
TABLEFORMAT_BEGIN
 90
        5
170
     1
 91
        0
 92
        0
 62
   257
 93
        1
300
CONTENTFORMAT
  1
CONTENTFORMAT_BEGIN
 90
        0
 91
        0
 92
        4
 93
        0
300

 40
0.0
140
1.0
 94
        5
 62
     0
340
17
144
4.5
309
CONTENTFORMAT_END
171
     1
301
MARGIN
  1
CELLMARGIN_BEGIN
 40
1.5
 40
1.5
 40
1.5
 40
1.5
 40
1.5
 40
1.5
309
CELLMARGIN_END
 94
        6
 95
        1
302
GRIDFORMAT
  1
GRIDFORMAT_BEGIN
 90
        0
 91
        1
 62
     0
 92
       -2
340
11
 93
        0
 40
0.045
309
GRIDFORMAT_END
 95
        2
302
GRIDFORMAT
  1
GRIDFORMAT_BEGIN
 90
        0
 91
        1
 62
     0
 92
       -2
340
11
 93
        0
 40
0.045
309
GRIDFORMAT_END
 95
        4
302
GRIDFORMAT
  1
GRIDFORMAT_BEGIN
 90
        0
 91
        1
 62
     0
 92
       -2
340
11
 93
        0
 40
0.045
309
GRIDFORMAT_END
 95
        8
302
GRIDFORMAT
  1
GRIDFORMAT_BEGIN
 90
        0
 91
        1
 62
     0
 92
       -2
340
11
 93
        0
 40
0.045
309
GRIDFORMAT_END
 95
       16
302
GRIDFORMAT
  1
GRIDFORMAT_BEGIN
 90
        0
 91
        1
 62
     0
 92
       -2
340
11
 93
        0
 40
0.045
309
GRIDFORMAT_END
 95
       32
302
GRIDFORMAT
  1
GRIDFORMAT_BEGIN
 90
        0
 91
        1
 62
     0
 92
       -2
340
11
 93
        0
 40
0.045
309
GRIDFORMAT_END
309
TABLEFORMAT_END
  1
CELLSTYLE_BEGIN
 90
        2
 91
        1
300
_HEADER
309
CELLSTYLE_END
300
CELLSTYLE
  1
TABLEFORMAT_BEGIN
 90
        5
170
     1
 91
        0
 92
        0
 62
   257
 93
        1
300
CONTENTFORMAT
  1
CONTENTFORMAT_BEGIN
 90
        0
 91
        0
 92
        4
 93
        0
300

 40
0.0
140
1.0
 94
        2
 62
     0
340
17
144
4.5
309
CONTENTFORMAT_END
171
     1
301
MARGIN
  1
CELLMARGIN_BEGIN
 40
1.5
 40
1.5
 40
1.5
 40
1.5
 40
1.5
 40
1.5
309
CELLMARGIN_END
 94
        6
 95
        1
302
GRIDFORMAT
  1
GRIDFORMAT_BEGIN
 90
        0
 91
        1
 62
     0
 92
       -2
340
11
 93
        0
 40
0.045
309
GRIDFORMAT_END
 95
        2
302
GRIDFORMAT
  1
GRIDFORMAT_BEGIN
 90
        0
 91
        1
 62
     0
 92
       -2
340
11
 93
        0
 40
0.045
309
GRIDFORMAT_END
 95
        4
302
GRIDFORMAT
  1
GRIDFORMAT_BEGIN
 90
        0
 91
        1
 62
     0
 92
       -2
340
11
 93
        0
 40
0.045
309
GRIDFORMAT_END
 95
        8
302
GRIDFORMAT
  1
GRIDFORMAT_BEGIN
 90
        0
 91
        1
 62
     0
 92
       -2
340
11
 93
        0
 40
0.045
309
GRIDFORMAT_END
 95
       16
302
GRIDFORMAT
  1
GRIDFORMAT_BEGIN
 90
        0
 91
        1
 62
     0
 92
       -2
340
11
 93
        0
 40
0.045
309
GRIDFORMAT_END
 95
       32
302
GRIDFORMAT
  1
GRIDFORMAT_BEGIN
 90
        0
 91
        1
 62
     0
 92
       -2
340
11
 93
        0
 40
0.045
309
GRIDFORMAT_END
309
TABLEFORMAT_END
  1
CELLSTYLE_BEGIN
 90
        3
 91
        2
300
_DATA
309
CELLSTYLE_END
  0
ENDSEC
  0
SECTION
  2
ACDSDATA
 70
     2
 71
     2
  0
ACDSSCHEMA
 90
        0
  1
AcDb_Thumbnail_Schema
  2
AcDbDs::ID
280
    10
 91
        8
  2
Thumbnail_Data
280
    15
 91
        0
101
ACDSRECORD
 95
        0
 90
        2
  2
AcDbDs::TreatedAsObjectData
280
     1
291
     1
101
ACDSRECORD
 95
        0
 90
        3
  2
AcDbDs::Legacy
280
     1
291
     1
101
ACDSRECORD
  1
AcDbDs::ID
 90
        4
  2
AcDs:Indexable
280
     1
291
     1
101
ACDSRECORD
  1
AcDbDs::ID
 90
        5
  2
AcDbDs::HandleAttribute
280
     7
282
     1
  0
ACDSSCHEMA
 90
        1
  1
AcDb3DSolid_ASM_Data
  2
AcDbDs::ID
280
    10
 91
        8
  2
ASM_Data
280
    15
 91
        0
101
ACDSRECORD
 95
        1
 90
        2
  2
AcDbDs::TreatedAsObjectData
280
     1
291
     1
101
ACDSRECORD
 95
        1
 90
        3
  2
AcDbDs::Legacy
280
     1
291
     1
101
ACDSRECORD
  1
AcDbDs::ID
 90
        4
  2
AcDs:Indexable
280
     1
291
     1
101
ACDSRECORD
  1
AcDbDs::ID
 90
        5
  2
AcDbDs::HandleAttribute
280
     7
282
     1
  0
ACDSSCHEMA
 90
        2
  1
AcDbDs::TreatedAsObjectDataSchema
  2
AcDbDs::TreatedAsObjectData
280
     1
 91
        0
  0
ACDSSCHEMA
 90
        3
  1
AcDbDs::LegacySchema
  2
AcDbDs::Legacy
280
     1
 91
        0
  0
ACDSSCHEMA
 90
        4
  1
AcDbDs::IndexedPropertySchema
  2
AcDs:Indexable
280
     1
 91
        0
  0
ACDSSCHEMA
 90
        5
  1
AcDbDs::HandleAttributeSchema
  2
AcDbDs::HandleAttribute
280
     7
 91
        1
284
     1
  0
ACDSRECORD
 90
        0
  2
AcDbDs::ID
280
    10
320
D61
  2
Thumbnail_Data
280
    15
 94
     7236
310
89504E470D0A1A0A0000000D4948445200000100000000940802000000F39060D0000000097048597300000EC400000EC401952B0E1B00001BF649444154789CED9D6B4C5BD71DC07DFDC43606636C03C680B18D6D0CC6EF0B843C5853B2746D2155DB64D5D234E9A66D4D952953D7666A2BA16D593F745DD7699B52B5EBD4
310
97A669DDD6B552B7455BDB2DDBA4089A42202181040209497887770C18DF7D38DDEDAD6DCCF1F57DD8707E9FE072EE39C7F83CFF4F91000287C361369B0B0B0B43A15028148279051EA954FAA52F7DA9B4B474686888D99AD745A552B95CAE9191118EDB8D8B46A3B1D96CA3A3A37C7704B10642A1D06AB5E2388EE3787171
310
31B3956BB5DAE6E6E66DDBB6894422666B4E8C50280C04023939395C36BA1652A9D4ED76F3DD8BCD0546EFB5E2E26230076666667A7B7B99EA4D5E5E5E5D5D5D7F7F7F5F5F1F5375C260B7DB575656060606B86C342E52A9B4B2B2F2ECD9B37C77040187C160C071DCE3F130B872ABD5EA3BEEB8A3A6A686A90A61D06AB55E
310
AF57229170D9685CB2B3B383C120DFBD4024834422F1FBFD388E171515315567595959737333E367AD04482412AFD79B9B9BCB598B6B919797575151C1772F10C9535252022E0942A190910AED763B8EE362B19891DA60B0D96C5CCEBAB54073801B68DE01D62510080885C2E1E1E11B376EA45EDBF6EDDB575757FFFBDFFF
310
A65E150C068341A5523178B7A147494949381CBE79F326BFDD40D0C76834E2386EB3D952AF4AA3D13CF8E0830E8723F5AA60C8C9C9F1F97C18C6D6020189C3E148130915823EB9B9B9388EFB7CBED4AB2A2F2FDFB163874AA54ABDAA75118BC58140402E9773D05602D01CD820884422202F4AFD7A100C06ABABAB19E9D5BA
310
B85CAEBCBC3C6EDA5A0B9FCFC7E52D08C122405EE476BB53FC46753ADD3DF7DC535050C054C712505151A1D3E93868682D300CF37ABD1CAB08112C2293C97C3E9FDFEF4FB19EEAEA6A6E44E6E5E5E5E5E5E51C3494001CC7F9ED0082618442218EE329AE6D2A950AC7F1D2D252063B16179D4EE772B9D86E25015959591C2B
310
07115C2091487C3E5F8AE21DB7DBBD7DFB76B60F0972B9BCA6A686C7A3884C2643736063A252A982C1602A0BB95AADBEEFBEFB341A0D83BD8A45A1506CDBB68D29351F0DF2F3F32D160B5FAD23D8A5B0B010C7F1FCFC7CDA35F8FD7E0EC607BF62199BCD960EF61A08B6B0582C353535B447587E7E7E535313ABF27BDEC532
310
7EBF9FC75D08C13A404C64B7DBE9BD2E9148B66EDD6A329918ED54343E9F8FAF3900DC1878691AC11D40856C341AE9BDEE72B9D81E253C5A502B148AAAAA2A5E9A46708AC160080402F4D6DA9C9C9CC6C646994CC678AF00E02CC4D77D40AFD7B3BDCB21D202A150E8F7FBE9391B0885C25DBB76B16A5AECF3F9D46A357BF5
310
27A0BCBC5CABD5F2D234826B4A4A4A3C1E0FBD77038100AB6A2C9BCDC6D71C70B95CBC5BEC2138422A95E2384ECF32C76432B17A25E0710E040201DE2DB711DC417B2803BB09A954CA7897007C2DC60A858233F358445A00EC88E86D055EAF9741DFE5283C1E0F7B132C01454545252525DCB78BE01393C944EF646FB7DBD9
310
33AAF1783CBCC8466B6A6AD8937721D294ACAC2C1CC769F84C555555B16743CA97E9323299DEA4D8ED7683C190EC5B4545452C5D8BA552296D81552A28954AA41DDBA4141717D3F0BECFCECE6E696961C3AE06441962BCDA75413EC49B97DCDC5C1AA11C7272721E7EF86136FAC3576C1F109386FB7611FC23168B83C1200D
310
836A96EC2B799903C8776CB363369BCBCACA927A452814B264E16C341A69DC4F52044945373B7ABD3ED9EBA05028BCFBEEBBB3B3B319EF0C2F73A0AAAA4AA95472DC28228D5028147EBF3FD945DDE974B23107EC763BC76E5C1886A128D39B1D0CC3FC7E7FB291E482C1201BC1E7B877A4D46AB566B399CB1611E948656565
310
B2039AC62BEBC28B1B17F73B0F221DA9ACAC4CD6FEC7E3F1301E638217A110520F2760B344DB9B9898C8CBCB532A95F3F3F330E5D56AF5A38F3E3A3232323F3FBFBCBCCC543742A1904AA5CACACA5A585860AACE75999F9F37994C9393939CB58848538C4623CC02EC70388E1C3902F4CA7BF7EE65FC08C1D23D3B0128BC2E
310
E233D46A758239004CEB1A1B1B1B1A1AC8876C8C1EEE95B5E82084F80CB55A1DD74A071857BBDDEE868606AA3D051B9EEFDC5F884B4B4B0B0B0BB96C1191BE80C041E4AF1886E138AED7EBDD6EB7DD6ED7EBF551E5310CDBB16307B37A62EEE39AA04D00F13962B118EC03A451B4C7E3292E2E5E4B709E959575E79D7732DB
310
07B3D9CC655C13E43989F80262B178EFDEBDA5A5A5128904C771994C965875CA869119C76EC46CE8371019497E7E3E8EE30A85A2B6B6166C0530975D36E600C727137410A2B259F40051389D4EB1587CEEDC390CC38A8B8B43A1904C269B9D9D9D9D9D4DFC62381C0E87C3168B656C6C8CA9CE2C2E2E9694944C4D4D315561
310
5A3587482F944A258EE3400C2F954ADD6EB74020D0E974FBF6ED83AFC46C36339B9EACA2A282CB547C7CB9ED2378C662B1908217AADB2E70AB4F2A18358EE3CC1A1BA383108275140A05F841269381B55F4089E49393939354A6A6C6C6460695591CFBD15BAD56B6B3E920D214EAE82F2A2AA2865F4F6A0E6018C6AC32CB68
310
34B217B12B16B4096C46A8A35F2C16C7E6AF4F6A0E301E86844B1389828282641D4711994D941073AD253029875ABD5E5F5959C940E7FE0F970B33DA043611513946F57A7D0233CFA4C43256AB9541975FAD56CB594262B4096C16F2F3F39355602515E6B6B1B191BC61A74E75753583B525066D021B1FDAAEB1F083432412
310
EDDAB58B46137161FC7A9D00144D7183938A637852E10DD56A758AF9EEA9141616B217BB370AE42EB361493D2C4262079A28AAABAB634DA969C3D9E1442412F9FD7E6EDA42708756AB2D2F2F4FBD9EA4C25AD5D7D7339520834BEB6514456BA3A1D3E91819FD00BBDD0E1972592A95C6EA1638683775D06D78E3C0ECE807C0
310
E7C4A617A87D2D388BEEE67038B8D44323D8828DD10F805F23190CD2CF652821B409643C3A9D8E3D2743954A052FE7617030D188704A0F14462EB3D1EBF56CBBD8969595417A0230E83BC6650889CDB6096C9C3C2266B359A1500C0E0EB2DACAD0D0504949098CBD5A28149A9D9D65442A1A89444C261337BAE170388C7402
310
9987D96CD66AB5DCB49554D8F1D4AD3B4D26138EE36AB59A46F6271AA0A0EA990797A31FA056AB21E53C72B9BCBEBE9E5E2B72B9BCA5A585B4B0108BC5CC5A1CAD85DBED46F9863306EE473FC062B1406622A3E1EF8B6198CFE773B95C4AA572EBD6AD5429506363635255D120AE9B04221D811F856C100C0621CF2449DD2C
310
2B2B2B03810029F6F1FBFD5BB66C21FF9AACDF263D36DB553823E177F40B925929737373613CEE351A0D8EE35181ABC462F1B66DDBA8069B1CC4D2A2FACD6D6C32550A64B158A6A7A7F98D791F0E87474646A82EC56B313333A35028122892E572792010D068346D6D6D73737351AD4C4E4E52E3DA767777B3ED31B3B4B424
310
914850B2E13485F7B59F0AA48984542AA586E3251189443535352E972BF168ABAFAFA7EE362525256C9B2D68341AABD5CA6A13083AA4613C0FC813B3C9648AB2CDAEA8A8F0F97C595959EBBEEB743A1B1A1AA8253938A6A39B40DA9186A35F90CC7A4CAA058A8B8B711CDFBE7D3B7C2B388E5347A45C2E67FB20B41936814C
310
3AE4793C9EA9A9A9340C6A79EDDA35C828123D3D3D3E9FCFEFF72B95CAB6B6B64B972EC1879F181919512A95E415F9F6EDDB3939394CF91EC4656A6A2A0D979B8D404E4E4EB2EA46B7DBCDEA979D2230EBB1502874B95C5411A74020A8ABAB836F256A13E0C0930B8553671EB55A7DFAF4E9919111F81D3CA9000D7C913894
310
83D56A0D0402B1C7FD8282027843378D46B36BD72EAAC11FBA096418797979A74F9F2608626565E5C0810330AF645028E3B86305242248A00C7EE8A187E04F1A519B001BF90AA20804021CD8206D0A727373DBDADA0882585D5D3D74E810CC2B1934FA05313EF8229128180CAEEB952F9148BEFDED6F4336A1D168EEBDF75E
310
EAB1045E214D8FFCFC7C8BC5C25EFD9B85BCBC3C30FAC3E1F0C18307615EC988934F14A42599CBE582B7DFDCBE7D3BFC42CEFD26804E41A902749CE0E4F3C8238FC0BC92959595416B3F8948246A6969C1711C46BA4F8261D8638F3D06A9792D2929B9F3CE3BA9A9B6D91EA0DC67F6DE50E4E5E5B5B7B7130471EBD6AD871F
310
7E98FAA7AAAAAA5FFCE217EFBCF3CEB163C73680C819A49FA1A7A50E0683F012A1BABA3AAA184DA3D1B07A4A414E0229B17FFF7E82200882387DFA3429279148246FBEF92641617979F937BFF94D520B67FA00249229C6183C72E408644987C31195B395ED4D009D8252E289279E00A3FC9D77DE011B3D39FAAF5DBB363A3A
310
4A4E8393274F7216179629AAAAAAFC7E7FEAA6631E8F27AEBD505C6A6B6BA9AB32DB89E0B3B3B3998D02BFB9108944AFBFFE3A18E24F3FFDB4D7EB5D5D5D1D1F1FAFADAD150804595959CF3CF3CCF2F23228F0DA6BAF658ADCADB4B494C1646118861D3E7C18F2B33B1C8EC6C646EA35096D02698D4824FAE0830F8014E82F
310
7FF90B41103FFBD9CFA8051E7CF0C1A5A52530071E7DF451BEFA090938EE33BEE8FA7CBE868606C8C23B77EEA4AECA6C9B8822AD70AAE4E4E4002D18E0DE7BEF8D2A70FFFDF78339C076708754108BC56EB79BBD90E2870F1F863C4DB9DDEE6DDBB6519FB0BA48A3AB3003582C96EBD7AFAF35010402C1ABAFBE4A10442412
310
F9F297BFCC7DF712836198C3E1F07ABDAC6A27EAEBEB212D7C4422D18E1D3BA853916D8B29740A6280AAAAAADBB76FB7B7B7C7D5FF9BCD66701978ECB1C7B8EF5B024A4B4B83C12007A16A93520C4729C5D80E286DB3D9D46A357BF5730F0FE6D0E7CF9FDFBD7B775353535CC3E6F1F1F17038CC7DAF12909D9D8DE3F8F2F2
310
727B7BFBECEC2CDBCDADACAC0C0E0E42C603EDEFEF37180CA48BF0E2E222AB32B4FEFE7E6416C13065656554B9C7AE5DBBC011E88E3BEEE0B15700A150E876BBB917FFC9E5F2AF7FFDEB9085A3360193C9C460928EB8CDB15779A672CF3DF7BCF7DE7BDDDDDDDDDDDDAFBFFE3A4C0404C0B66DDBE6E6E6DE7EFB6D1067AAAE
310
AEEEDAB56B0441747474B0D95F28EC76BBDFEFE72B44D4FDF7DF0F29D2713A9D3B77EEA43E61758C2259D017C030ECC5175F8C4422549D6E381C8689DFA4D56AA7A6A6C8576EDFBE0DEA999999811705B281D168C4719CDF38C93A9DEEAB5FFD2A64E1A6A6266AB020B6A349A34DE0737EF8C31F02F3E68F3FFEF8B9E79EFB
310
D7BFFEB5BABA0A06318C5233180C9E397306BC024E3E030303F0DA50C6118BC5388E3398F43715BEF9CD6F42EE3FC16010A814012A958AD5631B9A009F515656B6B8B80894BBE4C3969616F0F0DFFFFE37643D8D8D8D870E1D3A74E810BFA24F8FC7039F139203AC56EBEEDDBB614A6A349ABBEEBA8BEA73C3EA184569043E
310
032CFF044144C99E9F7AEA298220969696F8EA58B2008B8634F43D78EEB9E7204BD6D7D7535D2BD90E9DB461368194C4A0E46528CA7CE5C48913A15068757535F1EB797979E960F3E3743A979696DADADA969797F9EE4B341D1D1D9062C7D9D9D9ECEC6C52858CE49590A43401060606C00F511E5E8585852291E8C68D1B1F
310
7EF8E1B973E7BABBBB9F7CF2C928D1414141C1A953A74E9C38C1EF1CC0717C686868747494C73E24E0DD77DFA546C64D406F6FAF582C4E3129323CB76EDD4A36E4F50644AD564F4E4E1204B1B8B878D75D7781871886BDFDF6DB440C3D3D3D54D5EFDFFFFE77F0FCF0E1C33C753F3392E3468938D722272767DFBE7D5FFBDA
310
D7C827901179E9C165D6A67441A552C59E92BFF18D6F00194E28147AEBADB75A5B5B81EBE3C2C2426B6B6B4B4BCB238F3CD2D1D101C6FA279F7C429A12D8EDF6AB57AFFEF4A73FE54BD05E5454041F948A476A6A6A122877452291DBEDC671BCB9B9592C1647A59464F5A4BE61AE01506467679F3A75EADD77DF8D9D03DFFA
310
D6B7A2F4000441901B8240205028141F7EF821784E5570F21B752C53BE3F994CB667CF9ED8E7207592DFEF07DF48414141595999E08B9F2BF5044D09C8C49005F4F9DBDFFE0646F0FBEFBF1FFBB12D16CB77BEF39D279E78E297BFFC2541101F7CF04154019BCD06EC9CE165A3ACC2EAF18071A8631A4419C2713CD6DE01D8
310
2AE7E4E4901F8DD5E09E9BCB3AFAE4C993E4EAFEDE7BEFAD756E397EFC384110BFFEF5AF63FF0494BE972E5D62B9A75064D637A7D56AABAAAAC0B84F70CD2593C750177E740A4A0CECFE78E6CC19F2E7E6E6E6DFFDEE77718B010F3DA7D3B9D6CE3B363696640F59211DC4AFF04C4C4CD8EDF6B6B6B6B6B63652F216CBECEC
310
2CB86271904163D3B17BF76EB0FC87422160B3F0E31FFF38B6D8B163C740B1C71F7F9CFA7CFFFEFDE09EF095AF7C85AB2E2722E3962EC803376904417EC0FCFC7CF664A36C7BE2A71172B91C8CECE79F7F9EB4603B7EFC78D4525A5454B4B0B0008CDB5E7BEDB59D3B77D6D6D67EEF7BDF033E2E7FFCE31FF9EA7F14193701
310
E0C58EE0A3513F203A0531C3B973E7088278E9A597FC7E3F10FF130441EAEA85422108E973E0C08158250041107FF8C31FD227D25B267E6D907D46132029C4F0454F9D3A555555B575EBD6A3478F3635359D3C7952ABD57EFFFBDF170A85CF3EFBEC2BAFBC525C5CBC67CF9E37DF7C53A150B4B6B6929B6328147AE38D378E
310
1C39B2B2B2C2CEA7E01FA15068B7DB131BCAAFACAC5CBA74697E7E9E5E13376FDE2C2C2C1C191981290C5CC31617170502C1F0F0B0D1681C1E1EA6D72EE2330E1E3C082C9FC105D7EBF54E4C4C80D5BDBBBB1B1C7BC888E73299ECE0C183C78F1F6F6D6D4DC398870CAE5B797979388E07028175DD442412496565258EE3B4
310
FF2130DD066548B500FC8BF4502A954EA793A5CAD30B93C9140E870982209D5DBC5EEFF8F838E9D10219F3391D30180C30E94D132393C9E88D66900F98C68B30917F5C2E97DD6EC771BCB8B8987C884E416BB1A618B4B6B6362A8CF3E0E020C8CBBB63C70EF064686888CCD42B140AD90B95C338376EDC48D1EBC566B301D1
310
E4E5CB97937D776A6AAAADAD6D727232591BECC4C9C8F2F3F383C1A05C2E9F9999696B6BBB7EFD3AF92764BB9634CF3FFF7CACD0E6F7BFFF3D50840928319FC3E1F0CACA0A2923CA1411BBC3E1A017E3040864988A0EE276BB933209311A8D519B405656563018C4713CB1FD337BEB3499126183A056ABF7EDDBF79FFFFC07
310
DC6BA97F0262FED1D1D1A2A22272F41F387060EFDEBD6464CF175E7881AF9E2785582CA6A69E8604C330BFDFCFEC24B7582CA5A5A5F0E5C9A1ECF7FB711C87CC8EC1DE0490C9646EB79BA5CA3945A954BEF8E28BC3C3C3274F9EECEFEFEFE9E9191B1B7BE59557C86DB7AEAE0E8CF28B172F1204B1BCBCBC7FFF7EF0A7071E
310
780058FB2C2C2C644A18E164C7844824829C331E8F07FF3F30AAA2A41CB88C46E3962D5B701C4FCAF31D5D03D641A954FEE31FFFF8C94F7E026E87AFBEFAEA534F3DA5542A8F1D3B76E1C205909950A15050E33850ADCF0502C1030F3C70EBD6ADA6A6265EFA4F8364972E48E34AAFD74BD57840A657613B0B8B56AB2D2F2F
310
67A9F28D3001DE7FFFFDD6D656F2573001C0CF7BF6ECE9EDEDD56AB50281E0E5975F2608626565256AF40332EEA605FFCD41069CAAA8A800FF84A2A222327D5D20108019DC991BDF3CE32780C562E9EFEFA7AE5B7FFAD39FA871694E9C38F1CC33CF0804020CC35E7EF9E5871E7A88875EB200647221983CD8003014486F1B
310
9FCF070E2AD4B0256B21954A3D1E0F4C2BF4606F98EA743AF6B6172EF8F9CF7FFE831FFC80FAA4ABAB8B14770A04828A8A8AEBD7AF6FA8CBFEFF81D72E41D6565858485E6A491B1EC81AA28E4FCC82AE01B17C76A255ABD5BDBDBD09CA5DB972C560306CC8093037379758899B9D9D9D94FD82C160B871E306F839128924E5
310
93D5D1D1C15E6CA2818101CEBCE63385CFBF1BF23BDB6C5CB87021B1D8CAE974F6F4F470D69F5028C452A6C0898909709143907C3601AE5EBDDADCDC4C3E158BC57ABD9E3A2582C1E03FFFF9CFB9B939AE3BB8F9E8EBEB838C8D8E608CD2D2D2B1B13132CCBC42A1200882BA0EFDF5AF7F8D2BF6D918E8F57A20E78D25A960
310
C8C029D1E7F389C59F9BD9C6DA27AF0B7BE769F252CE38199A46F2F31DE0ADB7DE7AE38D37E2DEC09E7EFA69A552F9E73FFF99DBBE71C7D8D8D85A224E954A05B9EFE974BA4020B09669D0DCDC1CABB95B20B97EFD7AEA568071999F9FCFC4B0E99F2F544F3EF9E4AF7EF5ABB367CFFEE8473FFAF8E38F0502815028ACACAC
310
FCEE77BF6BB3D9EEBEFBEE858505FEFAC93AE170582C16C327A7890D103B3E3EFED1471F090482A87AC03DF8C2850B0A85227669BF78F1626CD699F1F1719D4E373E3E9EF4C7588FD1D151100C8FF19A3394CF2740241279FCF1C7EFBBEFBE679F7DF6B7BFFDAD4020E8EAEA8A44222FBDF4D2D1A347816BC506E6F2E5CB56
310
ABF5E2C58B3085FD7EFFE5CB977B7B7B0D0603699AA6D168F2F3F38542619438A1A3A3A3A1A121140A4522116ABCD4CECECED5D555BBDD8E61D8CCCC0CF595D1D151B3D9CCC6044040B173E7CEB367CFB21753293D897BF28E7D48A69F282E2E361A8DC22FB256E518864595F47ABDE0AA10371954266A6DABAAAA58CD50C6
310
06F1BF3070988B4422DC7686676265F622912836C6357808FCAD868787235F64ADCA41280D2A9D9D9D2E974B2412D17692A447B2AA0978868686D69225A42DF1FF119D9D9D478F1EE5B82BBC13AB10108BC56BF931EBF5FA5BB76EA5D21CF02FE53E50C0A54B975812B3CECFCFB36ACFC706428140A05028A2F423838383E0
310
1EBCA9585858880A16BDB4B414AB93220802C3B0F6F676B3D99C4A3EC69A9A9ABEBEBE502844BB067ACCCCCCA0FC2E2462A552693299CE9F3FCF774F32864F3FFDD4E3F17476769E3B77AEBABA3A76D38F4D3810D767EAECD9B34B4B4B66B339365A9E4C26CBA0FC3A198D188D7E2A5D5D5D3535355D5D5D09CAACAEAE7675
310
75F9FD7EF02B79EE1F181800A9BF711CA74E009BCD363434343D3D2D10089C4E27794D74B95C18865DB97265626222AA099D4E97263124373C6234FAA940DAE1ACAEAE7EF2C9275157C9F2F2728FC7F3D1471F45A914D46A755F5F9FD56AD568343D3D3D548132702D8AADDF6030B4B5B5A5F65112118944300C8BDB748A24
310
AB4EE19D2402636D4EC094887B528F92F9F4F7F74F4F4FAFE55DA0D168581DD349313333A356AB53BCC4C705C4ADB872E50AE335B3C4E692F4C3100A85A8E7757028827C77727232F5DC8C52A994ED747DEC0982C808D599029A00D1F4F6F6F29B3BA3A2A2224DB228D060696929B39C46D004882656F4393434440D33C836
310
4AA572639B5DA5156802ACCFE8E8684141017CF9C5C545DAFA0193C934383848EF5D040DD004880330C6A43EE9EBEBB3D96C90AF5FBC7851AD56039D28D01840BE8861186702D0B9B9B98CD3DAB2019A0071B876ED5A94D1FCF4F4B45C2E8739DD0275724F4F4F6969E9962D5BCE9F3FBFBCBC6CB55A614288FA7CBE4F3FFD
310
947EBF93E1F6EDDB1967B886E00E48CBD058844221A923037709ABD50A132E89E374434AA592A560C672B93C1D5C7F20417A8024E8ECEC5CF748138944CE9C394386C4120804376FDE5C57E2AED168A452E9D5AB5719EBEB7AC41A3E314528148A3A4022320FEA08A6229148188F5DA5D7EB618273314E26BA1C300EBA03C4
310
672DCBDE9595959E9E9E6030C85492F4D2D252B95CDEDFDFCF486D88644113203E0982052D2F2FB7B7B73B9DCEA4629AC7A25028FC7EFFD2D212F2D0E511340168D2D9D9B9BCBC8CE3380DCDBF582C76BBDD66B3B9A3A323CA701AC131E8124C9F919191919111BBDDEE7038A6A7A7FBFAFAD67D45ABD59ACDE670387CFEFC
310
7964F19F0EA009902A20A66A6E6E2E79F39B9F9F8FB2662393204D4C4CA48F4DE8C8C8484141C126DF82D0045813E03A1815B024416172642B954AAACA8C20081A89F438606A6AAAA4A4848D0900BC46D9F0374070077BAAA23401C3B06030C846CD649690F4E77FF5C6C152B97439800000000049454E44AE426082
  0
ACDSRECORD
 90
        0
  2
AcDbDs::ID
280
    10
320
D62
  2
Thumbnail_Data
280
    15
 94
     8677
310
89504E470D0A1A0A0000000D4948445200000100000000940802000000F39060D0000000097048597300000EC400000EC401952B0E1B0000200049444154789CED9DE96F62D7FDFFCFBD176C5603C6C6BB8D770C631BAF4C9B4E46992CED444D13454995A84FAA46695555CA93FC0351FB0754AAFAA0EA83B66A94569A495B
310
B549D3A855B6C964628C6D3603C66C06DB800103665FEFFD3D38FAF1B5D806DB609B705E8FE072B93E58E77DEF399F15A3280AB4004AA552A150D4EB34C43706FCAA0780405C2548008896060900D1D22001205A1A2400444B83048068699000102D0D1200A2A5410240B43448008896060900D1D22001205A1A2400444B83
310
048068699000102D0D1200A2A5410240B43448008896060900D1D22001205A1A2400444B83048068699000102D0D1200A2A5410240B43448008896060900D1D22001205A1A2400444B83048068699000102D0D1200A2A5410240B43448008896060900D1D22001205A1A2400444BD3BA02A028AA453A6422AAD0BA02F0783C
310
FBFBFB573D0AC415D3BA024020001200A2C5410240B43448008896060900D1D2D0AE7A000DC462B144A3D16C360B00A8D1E2198BC5944A2500804EA773B9DCC9C9C9C60E1171D57CA304E0F1785C2E57E1EDC4C4C4C8C8485B5B1B00004EEBC7C2E170140A05002093C944A3D1C2B7300C9B9E9EE6F1780D1835E22A697A01
310
E4F37983C1904C260100BDBDBD70FA5E9CB6B636A15028140AE15B9224CD66F3CECE0E004028148E8E8E120451973F84B85A9A58003B3B3B2727270441C864322693D9D0BF85E3F8CCCC0C7C7D7C7CAC56AB4F4E4E060707A7A7A71BFA77118DA6F904904824F47A3D00402291482492CB1F40E1C9100A85944A657B7BFBE4
310
E4249BCDBEFC91202E4E3309E0E8E8686F6F8FC562ADAEAE621876D5C301028140A150A4D3E9DDDDDD442221168B7B7A7AAE7A5088B3D11C02B0DBED7EBFBFA7A7A75E4BFC3AD2DEDE3E3B3B0B0070381C4AA512C9A0B9B8EE7E80783CAE542AB95CAE42A1108BC5573D9C6A8C8E8E2A148A6432A9542A63B1D8550F075113
310
D7F70990CFE7D56A3583C138DF5D3F97CB79BDDEC3C343F8F6AC7E0000C0E4E4249FCFC7F1B3DD23C462B1582CDEDEDE4E26938B8B8BC85874CDB9A60230180C8944E21C13C8683446A35100004110A7ADA267F50300007677776D361B49920080EEEEEEB1B1B1DA8771E3C68D7C3EBFB5B5D5DDDD7DCD1F5C2DCEB5134022
310
91D8DEDE964AA51C0EA7F6AF389DCE48240200904AA55C2EB72E23999A9A2ABCF6F97C5042D03D4CA7D31FFB7582205656568E8E8E341A8D4C26ABE52B88CBE77A09E0F0F0F0F8F8787979B9C68547C12E343C3C5CB0D3370291482412890000914844AFD767B3D9D1D15178A43A3D3D3D3C1E4FA7D38D8D8D090482C68D10
310
713EAE9100341A8D50289C9B9BABE564BD5E9F48244422D125DB853A3A3A161717010076BBDDE170D4B2346230184B4B4BBBBBBB47474757E2B8405401BB0E79B1A9544AABD5CAE5F2F6F6F6EA67922469341AE3F1F8ECEC2C8BC5AAE5E2E974DAE572ADADAD9D5ED200000281403E9F2F32591A0C86EF7DEF7BBDBDBD353E
310
827C3E9FC3E160B1583299ECB15F0987C376BB5D2E979F75638D681C572F8040207070702097CB1F7BA6DD6E0F04023299ACBADB952449ABD51A0A8562B1582C161B1919E9ECEC1C1A1A2AF29DB9DDEE5C2E373C3C7CFA603A9D3E3A3A3A3A3A72BBDD0080DEDE5E3E9F3F353555DDEF168FC78D46E3F0F0F0633D00D96C56
310
AD56CFCECE363A76035123572C804020100E87272626AA9F06D7FA636363DDDDDD95CEA128EAEBAFBF2608229148F4F6F63E764B505600A56C6E6E66B3D96834DAD3D3537D79B6B7B7E7F3F96666661EBB0BD7E97403030385483BC415729502F0FBFD9148647C7CBCCA39994CC66030F0F9FCD1D1D14AE7B8DD6EBBDD4E92
310
A4542AEDEAEA2AFA942449AFD76BB3D9300C3B6D8A29BB0402000C0D0D952E81288A72B95C56AB95A228A954DADFDF5F76242449EEECECA4D369B95C5EE5A1415194D56AE5F3F955F48CB81CAE4C000E878324C9EAB33F180C3A9D4EA9545A766F4092A4C160F0F97CFDFDFD45F7FB4824623299E06B0CC3FAFAFA0607076B
310
59025114757070E0F57AA1F91FC771B95C7E5A3614456D6D6D2593C9CECE4EA9545A76D8994C46AD56CFCDCD555FE7D8ED760CC3AA081B71095C8D00E0C6B1FA8A7967678720884A395976BBDD64322D2D2DF5F6F6160E8642219BCD96CFE7B95C6EA5D959A09625503E9FD76834B95C8E4EA74BA552068351F8687B7BDB66
310
B3CDCECE56B20269B55A3E9F3F323252E5FA76BB9DC3E1D4624E4534882B10C063673F0C82989898E0F3F9A59F42FBE3ECEC6C61DE64B35983C1904EA7F97CFEC4C4448DCEE31AF700853F61341A53A9544747C7E9A78DC3E1808FA0A1A1A1D26F793C1EBFDF2F93C9AA0C0969E06AB96C01F87CBE582C56C5760E2D2A0B0B
310
0B345AB18F229148E874BA9E9E9EC2B2219FCF6BB55A8AA26432D9E9DB732D9C490005E0E2AAA3A3432291C0351545516AB53A140ADDBC79B3D43C954824542AD5AD5BB7AA983EF57AFDF8F8788D565D447DB95401241209ABD55AC596128BC5F6F6F66EDCB851FA91D3E974381CDFF9CE77A030489254ABD52449CECFCFC3
310
ACDFB3723E01404E4E4ECC663387C3292CB472B9DCC3870FA55269E9BD9C24C98D8D8DEAC11D7ABD7E6C6C0C65D55C3E97270092243737379797972B99472ACDFE5C2EA7542AC7C6C6FAFAFAE01168E62FFB94A89D8B0800128D468D46636F6F6F61A1EF7038DC6EF7EAEA6A69E48FC160181E1EAE622155A954287AF40AA0
310
2E8B8D8D8D6C365BE9538FC7A3D7EB4B8F8742A10F3FFC309148C0B7A9546A6D6D2D10085C7C3C8787874EA7F3E2D771BBDD6B6B6BE9741ABE8DC5621F7FFC7130182C3D737B7B3B128954BA4E369B55A954171F0FE24C5CD213C068340E0E0E76747494FDD4EBF5A652A9D2B061A7D369369B9F7BEE39F8D66C362793C95A
310
7CC6B570F127C069B6B6B6BABABA0A577BF0E0C1FCFC7C691995EACF018FC793C964AA1B8E10F5E53282525C2E179FCFAF34FBA3D1E8F1F171E9EC77BBDD388EC3D90F974F2291A85EB3BFEE2C2E2ED268B4CDCDCD7C3E0F0078F2C9270F0E0EAC566BD1693299CC6C36E772B9B217E9EBEB0B87C3B0C40BE27268B8003299
310
4C2010A8E23A35994C3299ACE8F8EEEE6E3E9F87B6C54422B1B9B939373777CDC389FBFBFBE7E7E7B55A2D74A241C3542125ADC0C2C2825AADAE7491F9F979B8146CEC5811FF9F860BC0603094B5EA403636369697978B0EC2442A38FB7D3E9FCD665B5959698A84121A8D363F3FBFB1B1118FC70100838383B158ECE1C387
310
A7CF2108422A95C2CA2E65914AA50683A1E1634500001A2D00AFD72B10082A9929B7B7B74BA3881F3E7C383C3C0C6FF63E9F0F463E377490F5852088D5D55587C3717474E47038FEFCE73F73389C838383D3E7B0D9ECFEFE7E8BC552F60A1C0EA7A3A3C3E3F15CCA785B9D060A80244997CB55292356AFD77777771759BE0F
310
0F0FC562310C6883598E4D1A2A23954A552AD57BEFBDF7E69B6FCAE57287C3717C7C7CFA04A150C866B32BF5681A1E1E76B95C682174093450007ABDBED2CD1B9A358BA221C2E1B0C7E3191C1C04001C1D1D9124F9D830E96BCBD75F7F2D10080AD1A9B76EDDF2783C45B552FAFBFB61D641592627274BF7D088BAD3280140
310
5346A570C8526DF8FD7EABD50AF703F178DCEFF737E9BD1F0090C964582C168BC57AE9A5976C361BFC57C864328BC592C9644E9FB9B2B2A252A9CA5EA4B3B333180C5EC6705B9B4609C0603094DA76200E87432C169FF607531465369B9796960000B158CCE17054D9375F733299CCF6F6B65C2E5F5858C071FCC68D1B46A3
310
9124490CC3E47279D18618C7F1AEAEAEA3A3A3B29792C964DBDBDB9732EAD6A5210248A552743ABD6C9C423A9D0E87C3458B1F9D4E07432460CA6FF3CEFE743A6D30181617170BF2260862616161636303008061D8FCFC7CD1DE777474746F6FAFECD5381C0EB426211A474304A0D7EB2B4DE2FFFCE73F45DBE2E3E363168B
310
056339CB5A459B854C2663341A4B5D75388E4BA552782F170A85A954AA685A8B44A2FFFEF7BF65AFB9B4B404C5836810F5174026932108A26C50975AADEEEFEFFFD7BFFEA5542AA1C7140060B55A61D68BDBEDAEBD1CC37503A66E56CA84E4703804419C9C9C0000A452A9D16884C7B3D9AC52A9BC7FFFFEE8E8A8D96C2EFD
310
227C8A56F21C232E4EFDEB02A9D5EAB2B57A4E4E4E180CC6A3478F7EF6B39FD168B48D8D0D8220E8747AE159B1BFBF7F0D8B3FD7423A9D86390C55CE999999512A950A85822088E1E16187C3E1F178DADBDB150A855C2EFFE31FFFB8B2B292CD664BFD7DE3E3E3369B0D75E2681075BEDDE672B94A01BD3B3B3BC160F0E6CD
310
9BF0AED6D1D1C164323D1E0FBC2F6E6C6CC04D705360B1583EFCF043F83A9D4E9B4CA65A8294241209CC548E44225AAD562010407F5F7B7BFBC8C8089D4E5F5F5F2FFD9640200887C3751D3EE2FFA8B3002A197F12890493C9DCDADA8265D5602697442279F6D96773B9DCFFFEF73F168B7591E0FECBC462B1FCF8C73F1E1E
310
1E86413BB0D6552D0D3B783C5E201078F4E8515B5BDB4B2FBD343333F3D5575FC18FEEDEBDFBF9E79F57FA0F8844A24A9622C405A9B30052A95459DBBFD1684C24124B4B4B70A23C78F0E0EEDDBBF0A3E1E1E1679F7D16C330954A556426BF9E984C269148F4CB5FFEF217BFF8C5AF7EF5AB1A6B92C270FFA1A1A16F7FFBDB
310
8580E7C5C5C582A173707090CD66C33E7C4554B114212E483D0590C964CA86AC511495CFE7552AD5CD9B3701002449B2D9ECA2FCC0999919381B6C365B1D87D4087EF0831FDCBD7B57A1507CFEF9E7FFF8C73FAA7873212449EAF57ABD5EBFB8B858640183DE31F8FAF9E79F7FF4E8115C109642A7D39BE2EED074D4530095
310
621FD46AF5D0D090502884169EB5B5B5B25E5E82201617173B3A3A944AA5D7EBADE3C0EAC2E79F7FFEFAEBAFAFADAD0100DE78E38D858585B7DF7E5B2814566F1E6CB3D9363636C6C6C62AA53B4A241268FF613018388E0B0482B201427373733A9DAE4E3F05F17FD45300B07E4EE9F16C36FBD1471FBDF8E28BF0ADD3E9AC
310
5211ADBBBB5BA150A452A9F5F5F582A9B411B058ACDA5B10A4D3E9B7DE7AEBEDB7DF7EF3CD375D2E172C58A45028DE7DF7DD4A99ECF97C7E7D7DBDA3A3637575B54AB6FBCCCC4C61D9F3F4D34FEFECEC947DA4D068B486FE375A96BA0920128994CDF48BC562341AEDE8E8C868348642A14020508B454F2C162F2F2F6F6E6E
310
D66B78A5F0F9FCCECECE5ACED4E974B0DBC5EF7FFF7B2E97FBEAABAFFEF5AF7F7DEFBDF75E78E185429E7E29B002402DC50FF97C7E369B75BBDD1E8F47A3D160185676AE434F792D0346D40EF1CE3BEFD4E5421A8DA6AC215CA7D3A5D3E9898989E5E5E5838383870F1F3EF3CC33B5D84C300C3B383880C1A157CB0F7FF8C3
310
F5F5F5DFFEF6B746A3F1D6AD5BAFBEFAEAFDFBF77FFDEB5F5729C772727292C9646A2C77D5D3D373EFDEBD9191911B376E1004914C26B3D96C6991533A9DEEF3F9AE795A5CD3D170CB633E9F4F26937D7D7D388E4F4D4D8542A182AF17568083773B0CC3464646AE6783D1959595DDDDDD37DE78636969E9FEFDFBD96CF677
310
BFFB5DF5AFC4E3F1D2650F6C26005FB3D9EC820790C9644E4D4DC10C380683816158D9ADB0482472381C676A5586782C8D1540369BA5D168028120168B198DC670380C0D4100008FC773707050D81A9224E9743A8BDC0857DE6CD4EBF53E78F0E089279EA028EAFDF7DFCF64321F7EF82141108F8DD7E8EFEF572A95A74B4E
310
68341A1E8F577075C37694333333B056C0C8C888D168CC6432272727030303956C4188BA531F019C9C9C942DFA0027340C748B46A34C26134E1D58FF6365650500F0C1071FC462B1A79F7E7A7474D4E3F1582C16181A140804AEB6408852A9DCDADAD26AB5B76FDF7EFFFDF73FF8E00383C15069A35F0A9BCD8EC562709FAD
310
D16824120983C1F07ABDF7EFDF97C96477EEDC512814269389A2281E8FD7DBDB1B8944C6C6C6E0FFCAEBF5EEEDED9526D3F1F9FC502884564175A43E9B60A7D35976B2A6D3E942C94E2E975BB07EBA5CAED3D5D47A7B7BA1A7B3AFAF2F1A8D66B3590080CD66BBDA8C30A552F9A31FFDE8E6CD9B7EBFDF6432CDCDCDBDFEFA
310
EBB57776999E9E86F64DB7DB2D140AE1FFC1E974AEAEAE169C5FA74D4053535385FF55E11F52844824F2F97C17FC5D88D3D4E709904C266BAFED9A4C26190C462E97FBF7BFFF9DC964BABBBB33998C4AA572B95C8B8B8B72B91C0645D7B2516E288B8B8BEFBCF34E6767676F6FEF392AD7D2E97418C50983FC8C46A3D96C86
310
35746934DAFDFBF7391CCE33CF3C73A66B0A0482DDDDDDB38E04518506EE01F2F97CD9B5723A9D6E6F6F5F5B5B63B158ABABAB5C2E974EA70783C16030B8BEBEFEE28B2F521465B1588A7ADA5D3EABABAB24495214F5E4934F9EEF0A42A1B0900BFFE5975FDEBA754B2010F4F4F4F4F5F5A55229BBDDAED168180C46329944
310
2DC3AE8A060AE0E8E8A8AC558720887C3E2F168B3FFAE82393C9343D3DCD66B3373737994CE6EDDBB7E139E170F86A0380ED763B4110E79EFA908989894287FAC9C9C94F3FFD1400F0D24B2F7DF6D967A150687878F8F6EDDBBBBBBB65677F7B7B7B2A953A6BCD77C45969A0002AC5F773B9DC582C2693C97EFAD39F02007E
310
F39BDFCCCECEAEAEAE7EEB5BDF0200582C96898989AB2D8850DFA6153C1E2F1C0EDFB973E7CE9D3B4AA5F2F0F030140ABDF5D65BD5BF05AB42346F7668B350874DB04EA73B6BED2A3827E06B3E9F9F4824E0B38224C95028441044D9DE3097437D673F8661939393BBBBBBB0C80F83C1080402857632878787958A46B2D9EC
310
B209C1388EA398883A52070194CD63AA8E4422F17ABD30E8E5B9E79E93C964636363D96C766363636E6EAECAB4A823D96CB634BED266B371B9DC3A362CEAEBEBF37ABD7373731B1B1B994C667E7E7E6C6CECCE9D3B00008BC5128944CAF656AAC2D2D2524323445A8D3A2C81F2F9FC39DA3A482492FDFDFDC212F9E8E8884E
310
A7AFACAC6018168BC51EDB6AF7E2F8FDFEA2F2E8369BADA3A3A3BEAD4B070707D7D7D7070606969696B45A2D945C241201004C4E4ED6188C84681C7510004551E7CB641F1A1A3AEBFDAF713462F603000AC65C1CC7AB270D9FF58288BAD0C0120C1E8FA759F2981A34FB2FC2E6E666D90C180CBBCADEE6DF3C1A25805C2EF7
310
C5175F542AFE7AAD301A8D3C1EEF5ACD7E00C0DEDE1EAA087409344A008140E0B4CFFFDAA2D56A8786864A638FAF9CC3C3C3F375BF449C89460980CBE55EB92BF7B168B5DAE9E9E94BD8709F8FE62D92D7449C79136CB55A8B4ADD976D67120A852291C8DEDE5EC1CE533B67ED8F72E3C68DC776D8753A9D4579C69B9B9B03
310
03035AADF6F4C1F1F1F1C73E0D12894495FE2EA59CAFDD8BD3E9ECECECCC6432A5CF81D20B0E0F0F57C94D4354E1CC02989898280DD22CF5F8C662B12FBEF8422C169FAFD85BDD4BC48D8C8C14E24F298AD26AB577EFDE8545DACE7A29168B75D6E19DE3E728954A168B75EBD6AD7A5D105196462D81F2F9BCD56A3D4710E5
310
25006B72B5B7B75FF540AA411044B3D8D09A9A46C502F178BC743A2D954A1B74FD73A356ABA552E9359FFD0000B1589C4824AE7A14DF7C1AE80778F2C927AF555B5F8AA2341A4D53CC7E00C073CF3D57D64B889C00F5A581D1A018863D3646C8EFF7EFEDED9124C9E5721BFDB8B80EB3DF64324522111CC7C5627175CF039D
310
4E2FEBF4A5280A3983EB481D0400E313CF1A0E1489444C26535757D7E2E2228EE3D16814669137C89AA156AB6532D9698B0A93C9BC84B0CA70380C4BC741EB9944229148241445EDEDEDEDEDEDC9E5F2A6E87FFC0DA63E022049F24C02884422070707D094F1E8D1A34824F2C4134FC0BC418AA26031E47A9548C9E5727ABD
310
BE68F603002E27B5DCED760F0E0E5A2C96CECECE898989582CF6F7BFFF7D7C7C5C2E978BC562B55A3D3F3F7FA6B2D89148A46CFD01C4F9A8C31E402693155A9ED488C9642A1455D66834058B87542A85B1D0F58AA148A7D35AAD562A955E9557351A8D621896C96484422100C06030F4F6F6C2AAE8388E9F23B6D96C364B24
310
92868CB525A9C31380C160A452A9D2E36D6D6D30FDB7E8382C228D6198CBE58291CF4C26D3EBF5C23414994C66369BEBB23881AD2B4EB7ACBB128C46A342A188C7E33E9F2F140A89442282202C164B7B7B7B152F84D56A1D1F1FBFCC71B6260DDC04C32E9FB023C6691289048BC552A95446A3716060E0F6EDDB6C365BAFD7
310
EB743A1CC75F78E105D858F782A452A99D9D9DF9F9F92B9CFDD16894CBE546A35100C03FFFF94F0CC3FAFBFBE7E6E6984CA6D56ACD6432E17018D63D2F7D408542A1E6ED94DC4434D00CDAD6D6062BFC9485CBE59E9C9CECEEEE1E1F1F6732199FCFE776BB0BA958176C910B677F8D8D5B1AC7CECE4E21B59F46A3854221AF
310
D79B4824D2E9B4C3E148269302818024C9B2D91467DD5621CEC7157425E2F17866B359A1504C4C4CC4E3F13FFDE94F72B9BCAFAFEFE5975F2608C2EBF5F6F4F45CA4456EE1DE5FDF619F033889DBDADA3299CC2BAFBC4292A44AA532994CEBEBEB3FFFF9CF310C2308C2ED76D7BE098EC5628F8D7A429C89FA3C0160C9BEB2
310
1F953A6E300CA3D168B06C288FC7633299E974BAB3B313CE0397CB0557C64C26F31CAED06B72EF07001C1D1DC107DADCDC9C56ABC5719C46A3E1381E8944E08F858D53CBF6D7A894661D0C06E1661A5137A87A90C9643636364A8FBBDDEEBDBD3D8AA29C4EE7DADADA279F7C52F80826895314B5B3B3B3B9B9090F6E6D6D1D
310
1F1F17CE595B5B3BD33012898446A339C7F81BC1E9C1070201581822954A2995CAFDFD7D8AA242A1904AA52A9C03DB27FBFD7E8AA2D46A752A95AA7E4D445DA8CF12A85006B088BEBE3EA552F9F0E143B95CBEBABAEAF57A0B5544171717B7B6B672B95C7777379FCFD76AB5A9546A7E7EFEDCA5A092C9E4EEEEEEDCDCDC85
310
7E499D88C7E3D4A9479F5028C4304CA95432188CAEAEAE783CAE542A793C5E21E25FA5523DFFFCF3388E7FFCF1C71886090482A688D7F80670197B80B1B1B144228161585F5FDF83070FA000300C838D81E13DAFAFAFEF22E501E1ECBF0EEB7E88DFEF2FAAEDDCD9D9A9502892C964341AA5D3E9A7EBDE5114954AA5E096B7
310
B3B3339FCF975DBF552A3589B8087513406767E7F1F171E90AB5ABABEBF8F8182E84288A4A24125EAFB7B7B7B770C2C59371AFDBEC07000C0C0CE874BAD33F13C264324B750EA3A1944A258EE32E970B3A434AAFB9BDBD8D0AC5D59DBADD51C6C6C6EC767BD9E31445E9743AB95CAE5028BEFBDDEFD6982165B3D90606061E
310
7B9ADFEFB7582CE758F9E472B9B2CBB6BA40A7D3391C4E8D051E552AD5EDDBB7150A854C2683ADE4CBEE8C2BF560465C84BA09802088B22DDCE0D3FCA9A79E82C5F261DDABEA97F27ABD7089FCD806617EBF3F1A8DCECDCD9DC3E6033D0F67FD56ED4C4F4FD36834A552091D6195808B43F8FAD34F3F7DEDB5D7CA466D9024
310
79E576AD6F24F55C535632868E8E8E8AC5E2CF3EFB0CBEBD7DFB76D97EE8000018139A4AA5140AC56373737D3E5F341ABDCE3DB36046A8CBE5AAD2F2756B6BEB85175E80AFED767B2412818D738AB0D96C2832A211D45300D3D3D365DB37884422BFDFCFE170E0BD90CFE7DBED76AAC43FA056AB5D2ED7EAEA6A696BA0527C
310
3E5F2C16BBCEB3BF804C265B5E5EDEDADA2A9B4A4FA7D3A1E14BAFD74BA5529224CBFAC59007A041D4D9AA50A997AD4824BA75EBD6DFFEF637F85626939DAEFAA4D7EB1F3D7A24954A6532592D0FFA269AFD101CC7575656C6C6C63EF9E49342A34800C05FFEF29742F198AFBEFA6A6060A0ACF8D3E934AA11D420EA2C80C9
310
C9498BC5527A7C747434180CE6F379B801181919F1FBFDD96CD6E7F32995CAEEEE6E1A8D56A3E5DBE7F3C5E3F1269AFD05D86C3687C36130189F7CF2493C1E4F26936C361BA625F87C3E3E9F1F8944CA16A646F69FC651673F409526561C0EE7F9E79FBF77EFDE4F7EF21300C0FCFCFC7FFFFB5F9224BFFFFDEF631886E3B8
310
C3E1786CFCE3D1D151229168D23049388FD96C766F6FEFBD7BF72291C86BAFBD063FBA77EFDE2BAFBC5229F4A3F6D69488B3527F47185CEB97965B9B9999D9D8D8805DA0ED767B5B5BDBDDBB77A3D1E8CECECECCCC8C482482CEE02A9EE0A69EFD2727270441C050B6ADADAD975F7E99A2A8EDED6D269399CD66A552A9D3E9
310
2C5BEDC760305CC3E21ADF18EAEF599C999981C6ECE2BF84E3636363C3C3C39F7EFAA94C2693C964388EF378BC5C2E07033F65325915174153CF7E0000D43900C0EFF70B04023A9DDED6D6B6B8B8383030A0D1680000955C1997D32DA165A9BF00701C178944457508215D5D5D0303034F3DF5D4E92DDD8D1B3760E83F8D46
310
EBEBEB73B95CA55F743A9DC964B27967BFC9642AE431DAEDF6D31B988E8E8EA79F7E7A6262A2AC93ABC86B8EA83B0D892D118BC54EA7B3EC471289047AC40A601836313101B7CEFDFDFDE9743A180C9E3EC166B3B5B5B5D5621BBD9EECEFEFF3783CE8DCD5683445211BF97CDEED7657CA8DACD4811C512F1A155CD5DBDBEB
310
F178CA7E549AED25140AB3D96CA17190D7EB85AFBD5EAFD56AE5F178CD5BF935180C269349D8F2CCE3F1080482A24D8E5AAD2ECD1A85D86CB666347635178D12C0C8C848D9C50C0080C3E130994CBFDF7FFA20DC05C2CDC0CCCC8CDD6EB7D96C66B319C3B06B58BCBF4642A190DFEF8796FE68341A0A858A6EE77B7B7B8383
310
8395521F0381C0756BDBF1CDA381E1B585854D29E3E3E30E87A3C86526954ACD66732E97C3306C6464E4DD77DFA528AA79C3E2D3E9F4DEDE5E61F6BB5CAE22634E26930906839596F86AB5FA5A1596FCA6D240010885C29393934A313052A9B4A89A10411072B97C6B6B0B00F0873FFCE1E6CD9B388E37E9ED3F9D4E1B8DC6
310
858505E81A379BCD853A4805AAB8B7C2E1308BC56A5EF137130DCD372349B24A16DFF1F1B1D96C2E3A188FC7EFDFBFFFE8D123F875B55A1D0A851A31B6C3C343A7D3D9882B070281ADAD2D9224E1DBB5B5B5C2EB022693A9CAEF42A98F974663338C300C1B1A1AAAB419E8ECEC64B3D94545E0582C16AC1404BF3E3F3FEFF5
310
7A03814043C759479C4E67301884F7FE5C2EB7BEBE3E3B3B5B14E0B4BFBFCFE572F97C7ED92BD8EDF6E635F8361D0D4FB1EBEFEF8F442295720006060692C96491DDB3BBBB7B727252A954C2FD8044220987C34DD12DC26030B4B5B54D4E4E02004E4E4E341ACDF2F272519790FDFD7D1CC72BE5FAC4E3F1783C5EC756F588
310
EA5C468E697517EFD4D494D3E94CA7D3A70F3299CCD5D5559D4E0723A8272626180C864AA5BA847ACEE723168B9DAE6E7D7272E276BB9796968AB27843A1502291A834FB4992341A8D28EEED32B9A4AECB7EBF3F180C9ECE043F0D45511A8DA6B480334992269369606000AE16F2F9BC5AADEEE9E9A94B7F79B7DB9DCBE576
310
7D2F900000018B49444154CED123AC088AA2767777B3D96C61E21E1E1E462291D25D6F281472381C95ACFE00808D8D0DB95C7EA662D1880B72495506BABBBBB3D96CA5A53C86610B0B0B0683A1682D84E3B84C26F37ABD30838C2088E5E5651CC7954A65D92EEA974F28145A5F5FEFE9E929CCFECDCD4D92244B677F3018F4
310
FBFD5566BFD3E91C181840B3FF92B9A42700C46AB5F2F9FC4A964D8AA2AC566B67676769EA53381C369BCDD3D3D3F0514051D4975F7EC962B16432D9B9F3C42FF80448269346A391C3E14C4D4DC13D6E2010B0D96C8B8B8BA5A1CB2E972B954A55699C7C7C7C1C0A854ADB6F221ACDA50A0000A0D56AA7A6A6AACC5AD84BA2
310
6CFA9FD96C2608A2304B72B99CD1684CA552737373E728A7756E01A4D3699D4ED7D6D62693C9E00D3B9FCF1B8D462693597606BB5C2E1A8D06A321CA5228E778D691202ECE650B0000A0542AABB7B9B5582C994CA66C6D9CE3E363ABD57ABA931249923A9DEEF8F8582E979F296BF61C02080683B0AEFFDCDC5C6177EBF57A
310
0F0E0E666666CA96AD351A8D7C3E1FCDFE6BCBFF0318123D4A2C2FEAF60000000049454E44AE426082
  0
ENDSEC
  0
EOF
