  0
SECTION
  2
HEADER
  9
$ACADVER
  1
AC1027
  9
$ACADMAINTVER
 70
   105
  9
$DWGCODEPAGE
  3
ANSI_932
  9
$REQUIREDVERSIONS
160
                 0
  9
$LASTSAVEDBY
  1
9128
  9
$INSBASE
 10
0.0
 20
0.0
 30
0.0
  9
$EXTMIN
 10
0.0
 20
0.0
 30
0.0
  9
$EXTMAX
 10
420.0
 20
297.0
 30
0.0
  9
$LIMMIN
 10
0.0
 20
0.0
  9
$LIMMAX
 10
420.0
 20
297.0
  9
$ORTHOMODE
 70
     0
  9
$REGENMODE
 70
     1
  9
$FILLMODE
 70
     1
  9
$QTEXTMODE
 70
     0
  9
$MIRRTEXT
 70
     1
  9
$LTSCALE
 40
1.0
  9
$ATTMODE
 70
     1
  9
$TEXTSIZE
 40
3.5
  9
$TRACEWID
 40
1.0
  9
$TEXTSTYLE
  7
STANDARD
  9
$CLAYER
  8
図枠
  9
$CELTYPE
  6
BYLAYER
  9
$CECOLOR
 62
     7
  9
$CELTSCALE
 40
1.0
  9
$DISPSILH
 70
     0
  9
$DIMSCALE
 40
1.0
  9
$DIMASZ
 40
3.302
  9
$DIMEXO
 40
1.0
  9
$DIMDLI
 40
3.75
  9
$DIMRND
 40
0.0
  9
$DIMDLE
 40
0.0
  9
$DIMEXE
 40
1.0
  9
$DIMTP
 40
0.0
  9
$DIMTM
 40
0.0
  9
$DIMTXT
 40
3.5
  9
$DIMCEN
 40
2.5
  9
$DIMTSZ
 40
0.0
  9
$DIMTOL
 70
     0
  9
$DIMLIM
 70
     0
  9
$DIMTIH
 70
     1
  9
$DIMTOH
 70
     1
  9
$DIMSE1
 70
     0
  9
$DIMSE2
 70
     0
  9
$DIMTAD
 70
     1
  9
$DIMZIN
 70
     0
  9
$DIMBLK
  1

  9
$DIMASO
 70
     1
  9
$DIMSHO
 70
     1
  9
$DIMPOST
  1

  9
$DIMAPOST
  1

  9
$DIMALT
 70
     0
  9
$DIMALTD
 70
     3
  9
$DIMALTF
 40
0.0393700787
  9
$DIMLFAC
 40
1.0
  9
$DIMTOFL
 70
     1
  9
$DIMTVP
 40
0.0
  9
$DIMTIX
 70
     0
  9
$DIMSOXD
 70
     0
  9
$DIMSAH
 70
     0
  9
$DIMBLK1
  1

  9
$DIMBLK2
  1

  9
$DIMSTYLE
  2
ISO-25
  9
$DIMCLRD
 70
     0
  9
$DIMCLRE
 70
     0
  9
$DIMCLRT
 70
     0
  9
$DIMTFAC
 40
1.0
  9
$DIMGAP
 40
1.524
  9
$DIMJUST
 70
     0
  9
$DIMSD1
 70
     0
  9
$DIMSD2
 70
     0
  9
$DIMTOLJ
 70
     0
  9
$DIMTZIN
 70
     0
  9
$DIMALTZ
 70
     0
  9
$DIMALTTZ
 70
     0
  9
$DIMUPT
 70
     0
  9
$DIMDEC
 70
     2
  9
$DIMTDEC
 70
     2
  9
$DIMALTU
 70
     2
  9
$DIMALTTD
 70
     3
  9
$DIMTXSTY
  7
STANDARD
  9
$DIMAUNIT
 70
     0
  9
$DIMADEC
 70
     0
  9
$DIMALTRND
 40
0.0
  9
$DIMAZIN
 70
     0
  9
$DIMDSEP
 70
    46
  9
$DIMATFIT
 70
     3
  9
$DIMFRAC
 70
     0
  9
$DIMLDRBLK
  1

  9
$DIMLUNIT
 70
     2
  9
$DIMLWD
 70
    -2
  9
$DIMLWE
 70
    -2
  9
$DIMTMOVE
 70
     0
  9
$DIMFXL
 40
1.0
  9
$DIMFXLON
 70
     0
  9
$DIMJOGANG
 40
0.7853981633974483
  9
$DIMTFILL
 70
     0
  9
$DIMTFILLCLR
 70
     0
  9
$DIMARCSYM
 70
     0
  9
$DIMLTYPE
  6

  9
$DIMLTEX1
  6

  9
$DIMLTEX2
  6

  9
$DIMTXTDIRECTION
 70
     0
  9
$LUNITS
 70
     2
  9
$LUPREC
 70
     2
  9
$SKETCHINC
 40
1.0
  9
$FILLETRAD
 40
10.0
  9
$AUNITS
 70
     0
  9
$AUPREC
 70
     2
  9
$MENU
  1
.
  9
$ELEVATION
 40
0.0
  9
$PELEVATION
 40
0.0
  9
$THICKNESS
 40
0.0
  9
$LIMCHECK
 70
     0
  9
$CHAMFERA
 40
0.0
  9
$CHAMFERB
 40
0.0
  9
$CHAMFERC
 40
0.0
  9
$CHAMFERD
 40
0.0
  9
$SKPOLY
 70
     0
  9
$TDCREATE
 40
2457711.397066366
  9
$TDUCREATE
 40
2457711.022066366
  9
$TDUPDATE
 40
2458187.498788426
  9
$TDUUPDATE
 40
2458187.123788426
  9
$TDINDWG
 40
0.2250469676
  9
$TDUSRTIMER
 40
2458187.121088021
  9
$USRTIMER
 70
     1
  9
$ANGBASE
 50
0.0
  9
$ANGDIR
 70
     0
  9
$PDMODE
 70
     0
  9
$PDSIZE
 40
-1.0
  9
$PLINEWID
 40
0.0
  9
$SPLFRAME
 70
     0
  9
$SPLINETYPE
 70
     6
  9
$SPLINESEGS
 70
     8
  9
$HANDSEED
  5
8F79
  9
$SURFTAB1
 70
     6
  9
$SURFTAB2
 70
     6
  9
$SURFTYPE
 70
     6
  9
$SURFU
 70
     6
  9
$SURFV
 70
     6
  9
$UCSBASE
  2

  9
$UCSNAME
  2

  9
$UCSORG
 10
0.0
 20
0.0
 30
0.0
  9
$UCSXDIR
 10
1.0
 20
0.0
 30
0.0
  9
$UCSYDIR
 10
0.0
 20
1.0
 30
0.0
  9
$UCSORTHOREF
  2

  9
$UCSORTHOVIEW
 70
     0
  9
$UCSORGTOP
 10
0.0
 20
0.0
 30
0.0
  9
$UCSORGBOTTOM
 10
0.0
 20
0.0
 30
0.0
  9
$UCSORGLEFT
 10
0.0
 20
0.0
 30
0.0
  9
$UCSORGRIGHT
 10
0.0
 20
0.0
 30
0.0
  9
$UCSORGFRONT
 10
0.0
 20
0.0
 30
0.0
  9
$UCSORGBACK
 10
0.0
 20
0.0
 30
0.0
  9
$PUCSBASE
  2

  9
$PUCSNAME
  2

  9
$PUCSORG
 10
0.0
 20
0.0
 30
0.0
  9
$PUCSXDIR
 10
1.0
 20
0.0
 30
0.0
  9
$PUCSYDIR
 10
0.0
 20
1.0
 30
0.0
  9
$PUCSORTHOREF
  2

  9
$PUCSORTHOVIEW
 70
     0
  9
$PUCSORGTOP
 10
0.0
 20
0.0
 30
0.0
  9
$PUCSORGBOTTOM
 10
0.0
 20
0.0
 30
0.0
  9
$PUCSORGLEFT
 10
0.0
 20
0.0
 30
0.0
  9
$PUCSORGRIGHT
 10
0.0
 20
0.0
 30
0.0
  9
$PUCSORGFRONT
 10
0.0
 20
0.0
 30
0.0
  9
$PUCSORGBACK
 10
0.0
 20
0.0
 30
0.0
  9
$USERI1
 70
     0
  9
$USERI2
 70
     0
  9
$USERI3
 70
     0
  9
$USERI4
 70
     0
  9
$USERI5
 70
     0
  9
$USERR1
 40
0.0
  9
$USERR2
 40
0.0
  9
$USERR3
 40
0.0
  9
$USERR4
 40
0.0
  9
$USERR5
 40
0.0
  9
$WORLDVIEW
 70
     1
  9
$SHADEDGE
 70
     3
  9
$SHADEDIF
 70
    70
  9
$TILEMODE
 70
     1
  9
$MAXACTVP
 70
    64
  9
$PINSBASE
 10
0.0
 20
0.0
 30
0.0
  9
$PLIMCHECK
 70
     0
  9
$PEXTMIN
 10
40.5
 20
25.69999999999999
 30
0.0
  9
$PEXTMAX
 10
364.5
 20
231.3
 30
0.0
  9
$PLIMMIN
 10
0.0
 20
0.0
  9
$PLIMMAX
 10
0.0
 20
0.0
  9
$UNITMODE
 70
     0
  9
$VISRETAIN
 70
     1
  9
$PLINEGEN
 70
     0
  9
$PSLTSCALE
 70
     1
  9
$TREEDEPTH
 70
  3020
  9
$CMLSTYLE
  2
STANDARD
  9
$CMLJUST
 70
     0
  9
$CMLSCALE
 40
20.0
  9
$PROXYGRAPHICS
 70
     1
  9
$MEASUREMENT
 70
     1
  9
$CELWEIGHT
370
    -1
  9
$ENDCAPS
280
     0
  9
$JOINSTYLE
280
     0
  9
$LWDISPLAY
290
     0
  9
$INSUNITS
 70
     0
  9
$HYPERLINKBASE
  1

  9
$STYLESHEET
  1

  9
$XEDIT
290
     1
  9
$CEPSNTYPE
380
     0
  9
$PSTYLEMODE
290
     1
  9
$FINGERPRINTGUID
  2
{CD418F74-15BF-4FFD-8039-A5B017977F59}
  9
$VERSIONGUID
  2
{FAEB1C32-E019-11D5-929B-00C0DF256EC4}
  9
$EXTNAMES
290
     1
  9
$PSVPSCALE
 40
0.0
  9
$OLESTARTUP
290
     0
  9
$SORTENTS
280
   127
  9
$INDEXCTL
280
     0
  9
$HIDETEXT
280
     1
  9
$XCLIPFRAME
280
     2
  9
$HALOGAP
280
     0
  9
$OBSCOLOR
 70
   257
  9
$OBSLTYPE
280
     0
  9
$INTERSECTIONDISPLAY
280
     0
  9
$INTERSECTIONCOLOR
 70
   257
  9
$DIMASSOC
280
     2
  9
$PROJECTNAME
  1

  9
$CAMERADISPLAY
290
     0
  9
$LENSLENGTH
 40
50.0
  9
$CAMERAHEIGHT
 40
0.0
  9
$STEPSPERSEC
 40
2.0
  9
$STEPSIZE
 40
6.0
  9
$3DDWFPREC
 40
2.0
  9
$PSOLWIDTH
 40
0.25
  9
$PSOLHEIGHT
 40
4.0
  9
$LOFTANG1
 40
1.570796326794897
  9
$LOFTANG2
 40
1.570796326794897
  9
$LOFTMAG1
 40
0.0
  9
$LOFTMAG2
 40
0.0
  9
$LOFTPARAM
 70
     7
  9
$LOFTNORMALS
280
     1
  9
$LATITUDE
 40
37.795
  9
$LONGITUDE
 40
-122.394
  9
$NORTHDIRECTION
 40
0.0
  9
$TIMEZONE
 70
 -8000
  9
$LIGHTGLYPHDISPLAY
280
     1
  9
$TILEMODELIGHTSYNCH
280
     1
  9
$SOLIDHIST
280
     0
  9
$SHOWHIST
280
     1
  9
$DWFFRAME
280
     2
  9
$DGNFRAME
280
     2
  9
$REALWORLDSCALE
290
     1
  9
$INTERFERECOLOR
 62
   256
  9
$CSHADOW
280
     0
  9
$SHADOWPLANELOCATION
 40
0.0
  0
ENDSEC
  0
SECTION
  2
CLASSES
  0
CLASS
  1
ACDBDICTIONARYWDFLT
  2
AcDbDictionaryWithDefault
  3
ObjectDBX Classes
 90
        0
 91
        4
280
     0
281
     0
  0
CLASS
  1
VISUALSTYLE
  2
AcDbVisualStyle
  3
ObjectDBX Classes
 90
     4095
 91
        4
280
     0
281
     0
  0
CLASS
  1
MATERIAL
  2
AcDbMaterial
  3
ObjectDBX Classes
 90
     1153
 91
        4
280
     0
281
     0
  0
CLASS
  1
SCALE
  2
AcDbScale
  3
ObjectDBX Classes
 90
     1153
 91
        4
280
     0
281
     0
  0
CLASS
  1
TABLESTYLE
  2
AcDbTableStyle
  3
ObjectDBX Classes
 90
     4095
 91
        4
280
     0
281
     0
  0
CLASS
  1
MLEADERSTYLE
  2
AcDbMLeaderStyle
  3
ACDB_MLEADERSTYLE_CLASS
 90
     4095
 91
        4
280
     0
281
     0
  0
CLASS
  1
SUN
  2
AcDbSun
  3
SCENEOE
 90
     1153
 91
        4
280
     0
281
     0
  0
CLASS
  1
ACDBPLACEHOLDER
  2
AcDbPlaceHolder
  3
ObjectDBX Classes
 90
        0
 91
        1
280
     0
281
     0
  0
CLASS
  1
LAYOUT
  2
AcDbLayout
  3
ObjectDBX Classes
 90
        0
 91
        1
280
     0
281
     0
  0
CLASS
  1
RASTERVARIABLES
  2
AcDbRasterVariables
  3
ISM
 90
        0
 91
        4
280
     0
281
     0
  0
CLASS
  1
DIMASSOC
  2
AcDbDimAssoc
  3
"AcDbDimAssoc|Product Desc:     AcDim ARX App For Dimension|Company:          Autodesk, Inc.|WEB Address:      www.autodesk.com"
 90
        0
 91
        4
280
     0
281
     0
  0
CLASS
  1
IMAGE
  2
AcDbRasterImage
  3
ISM
 90
      127
 91
        5
280
     0
281
     1
  0
CLASS
  1
IMAGEDEF
  2
AcDbRasterImageDef
  3
ISM
 90
        0
 91
        4
280
     0
281
     0
  0
CLASS
  1
IMAGEDEF_REACTOR
  2
AcDbRasterImageDefReactor
  3
ISM
 90
        1
 91
        4
280
     0
281
     0
  0
CLASS
  1
DICTIONARYVAR
  2
AcDbDictionaryVar
  3
ObjectDBX Classes
 90
        0
 91
        4
280
     0
281
     0
  0
CLASS
  1
ACDB_ALDIMOBJECTCONTEXTDATA_CLASS
  2
AcDbAlignedDimensionObjectContextData
  3
ObjectDBX Classes
 90
     1153
 91
        4
280
     0
281
     0
  0
CLASS
  1
LARGE_RADIAL_DIMENSION
  2
AcDbRadialDimensionLarge
  3
ObjectDBX Classes
 90
     1025
 91
        4
280
     0
281
     1
  0
CLASS
  1
XRECORD
  2
AcDbXrecord
  3
ObjectDBX Classes
 90
        0
 91
        1
280
     0
281
     0
  0
CLASS
  1
LWPOLYLINE
  2
AcDbPolyline
  3
ObjectDBX Classes
 90
        0
 91
        1
280
     0
281
     1
  0
CLASS
  1
HATCH
  2
AcDbHatch
  3
ObjectDBX Classes
 90
        0
 91
        1
280
     0
281
     1
  0
CLASS
  1
CELLSTYLEMAP
  2
AcDbCellStyleMap
  3
ObjectDBX Classes
 90
     1152
 91
        4
280
     0
281
     0
  0
ENDSEC
  0
SECTION
  2
TABLES
  0
TABLE
  2
VPORT
  5
8
330
0
100
AcDbSymbolTable
 70
     1
  0
VPORT
  5
29
330
8
100
AcDbSymbolTableRecord
100
AcDbViewportTableRecord
  2
*ACTIVE
 70
     0
 10
0.0
 20
0.0
 11
1.0
 21
1.0
 12
303.4662466762182
 22
111.9417528751212
 13
0.0
 23
0.0
 14
10.0
 24
10.0
 15
10.0
 25
10.0
 16
0.0
 26
0.0
 36
1.0
 17
0.0
 27
0.0
 37
0.0
 40
465.2971666769483
 41
1.794500723589001
 42
50.0
 43
0.0
 44
0.0
 50
0.0
 51
0.0
 71
    16
 72
  2000
 73
     1
 74
     3
 75
     0
 76
     0
 77
     0
 78
     0
281
     0
 65
     1
110
0.0
120
0.0
130
0.0
111
1.0
121
0.0
131
0.0
112
0.0
122
1.0
132
0.0
 79
     0
146
0.0
348
8B7E
 60
     3
 61
     5
292
     1
282
     1
141
0.0
142
0.0
 63
   256
361
8BC2
  0
ENDTAB
  0
TABLE
  2
LTYPE
  5
5
330
0
100
AcDbSymbolTable
 70
     4
  0
LTYPE
  5
14
330
5
100
AcDbSymbolTableRecord
100
AcDbLinetypeTableRecord
  2
BYBLOCK
 70
     0
  3

 72
    65
 73
     0
 40
0.0
  0
LTYPE
  5
15
330
5
100
AcDbSymbolTableRecord
100
AcDbLinetypeTableRecord
  2
BYLAYER
 70
     0
  3
Solid line
 72
    65
 73
     0
 40
0.0
  0
LTYPE
  5
16
330
5
100
AcDbSymbolTableRecord
100
AcDbLinetypeTableRecord
  2
CONTINUOUS
 70
     0
  3
Solid line
 72
    65
 73
     0
 40
0.0
  0
LTYPE
  5
70
330
5
100
AcDbSymbolTableRecord
100
AcDbLinetypeTableRecord
  2
CENTER
 70
     0
  3
Center ____ _ ____ _ ____ _ ____ _ ____ _ ____
 72
    65
 73
     4
 40
10.16
 49
6.35
 74
     0
 49
-1.27
 74
     0
 49
1.27
 74
     0
 49
-1.27
 74
     0
  0
ENDTAB
  0
TABLE
  2
LAYER
  5
2
102
{ACAD_XDICTIONARY
360
3488
102
}
330
0
100
AcDbSymbolTable
 70
    24
  0
LAYER
  5
10
330
2
100
AcDbSymbolTableRecord
100
AcDbLayerTableRecord
  2
0
 70
     0
 62
     7
  6
CONTINUOUS
370
    -3
390
8B94
347
8BBD
348
0
  0
LAYER
  5
51A
330
2
100
AcDbSymbolTableRecord
100
AcDbLayerTableRecord
  2
DEFPOINTS
 70
     4
 62
    -7
  6
CONTINUOUS
290
     0
370
    -3
390
8B94
347
8BBD
348
0
  0
LAYER
  5
8F19
330
2
100
AcDbSymbolTableRecord
100
AcDbLayerTableRecord
  2
図枠
 70
     0
 62
     7
  6
CONTINUOUS
370
    -3
390
8B94
347
8BBD
348
0
1001
ACAECLAYERSTANDARD
1000

1000

  0
ENDTAB
  0
TABLE
  2
STYLE
  5
3
330
0
100
AcDbSymbolTable
 70
     5
  0
STYLE
  5
11
330
3
100
AcDbSymbolTableRecord
100
AcDbTextStyleTableRecord
  2
STANDARD
 70
     0
 40
0.0
 41
1.0
 50
0.0
 71
     0
 42
3.5
  3
msgothic.ttc
  4

1001
ACAD
1000
MS PGothic
1071
        0
  0
STYLE
  5
33F
330
3
100
AcDbSymbolTableRecord
100
AcDbTextStyleTableRecord
  2
SLDTEXTSTYLE0
 70
     0
 40
0.0
 41
0.75
 50
0.0
 71
     0
 42
3.5
  3
TXT
  4
bigfont
  0
STYLE
  5
35D
330
3
100
AcDbSymbolTableRecord
100
AcDbTextStyleTableRecord
  2
SLDTEXTSTYLE1
 70
     0
 40
0.0
 41
0.7
 50
0.0
 71
     0
 42
3.5
  3
TXT
  4
bigfont
  0
STYLE
  5
35F
330
3
100
AcDbSymbolTableRecord
100
AcDbTextStyleTableRecord
  2
SLDTEXTSTYLE2
 70
     0
 40
0.0
 41
0.605
 50
0.0
 71
     0
 42
3.5
  3
TXT
  4
bigfont
  0
STYLE
  5
7784
330
3
100
AcDbSymbolTableRecord
100
AcDbTextStyleTableRecord
  2
MDRAFSTD
 70
     0
 40
0.0
 41
1.0
 50
0.0
 71
     0
 42
3.5
  3
TXT
  4
BIGFONT
  0
ENDTAB
  0
TABLE
  2
VIEW
  5
6
330
0
100
AcDbSymbolTable
 70
     0
  0
ENDTAB
  0
TABLE
  2
UCS
  5
7
330
0
100
AcDbSymbolTable
 70
     0
  0
ENDTAB
  0
TABLE
  2
APPID
  5
9
330
0
100
AcDbSymbolTable
 70
     8
  0
APPID
  5
12
330
9
100
AcDbSymbolTableRecord
100
AcDbRegAppTableRecord
  2
ACAD
 70
     0
  0
APPID
  5
3289
330
9
100
AcDbSymbolTableRecord
100
AcDbRegAppTableRecord
  2
ACAECLAYERSTANDARD
 70
     0
  0
APPID
  5
36A2
330
9
100
AcDbSymbolTableRecord
100
AcDbRegAppTableRecord
  2
ACADANNOTATIVE
 70
     0
  0
APPID
  5
3793
330
9
100
AcDbSymbolTableRecord
100
AcDbRegAppTableRecord
  2
ACAD_DSTYLE_DIMRADIAL_EXTE
 70
     0
  0
APPID
  5
7C89
330
9
100
AcDbSymbolTableRecord
100
AcDbRegAppTableRecord
  2
ACAD_SPLINE_DATA
 70
     0
  0
APPID
  5
7C8A
330
9
100
AcDbSymbolTableRecord
100
AcDbRegAppTableRecord
  2
ACAD_SPLINE_DATA2
 70
     0
  0
APPID
  5
8233
330
9
100
AcDbSymbolTableRecord
100
AcDbRegAppTableRecord
  2
ACAD_DSTYLE_DIMRADIAL_EXT0
 70
     0
  0
APPID
  5
8C18
330
9
100
AcDbSymbolTableRecord
100
AcDbRegAppTableRecord
  2
ACAD_DSTYLE_DIMRADIAL_EXTENSION
 70
     0
  0
ENDTAB
  0
TABLE
  2
DIMSTYLE
  5
A
330
0
100
AcDbSymbolTable
 70
     4
100
AcDbDimStyleTable
  0
DIMSTYLE
105
27
330
A
100
AcDbSymbolTableRecord
100
AcDbDimStyleTableRecord
  2
ISO-25
 70
     0
 41
2.5
 42
0.625
 43
3.75
 44
1.25
 73
     0
 74
     0
 77
     1
 78
     8
140
2.5
141
2.5
143
0.0393700787
147
0.625
171
     3
172
     1
178
     0
271
     2
272
     2
274
     3
283
     0
284
     8
340
11
  0
DIMSTYLE
105
935
330
A
100
AcDbSymbolTableRecord
100
AcDbDimStyleTableRecord
  2
STANDARD
 70
     0
178
     0
340
11
  0
DIMSTYLE
105
328C
102
{ACAD_REACTORS
330
8D3D
330
8F65
102
}
330
A
100
AcDbSymbolTableRecord
100
AcDbDimStyleTableRecord
  2
JIS-1
 70
     0
 41
2.5
 42
0.625
 43
3.75
 44
1.25
 73
     0
 74
     0
 77
     1
 78
     8
140
2.5
141
2.5
143
0.03937007874016
147
0.625
171
     3
172
     1
178
     0
271
     2
272
     2
274
     3
283
     0
284
     8
340
11
341
328E
342
328E
  0
ENDTAB
  0
TABLE
  2
BLOCK_RECORD
  5
1
330
0
100
AcDbSymbolTable
 70
   485
  0
BLOCK_RECORD
  5
1F
330
1
100
AcDbSymbolTableRecord
100
AcDbBlockTableRecord
  2
*MODEL_SPACE
340
8BB8
 70
     0
280
     1
281
     0
  0
BLOCK_RECORD
  5
1B
330
1
100
AcDbSymbolTableRecord
100
AcDbBlockTableRecord
  2
*PAPER_SPACE
340
8BB9
 70
     0
280
     1
281
     0
  0
BLOCK_RECORD
  5
328E
330
1
100
AcDbSymbolTableRecord
100
AcDbBlockTableRecord
  2
_OPEN
340
0
102
{BLKREFS
331
8C31
331
8C32
331
8D47
331
8D48
331
8F57
331
8F58
331
8F6E
331
8F6F
102
}
 70
     0
280
     1
281
     0
  0
BLOCK_RECORD
  5
8D40
330
1
100
AcDbSymbolTableRecord
100
AcDbBlockTableRecord
  2
*D481
340
0
 70
     0
280
     1
281
     0
  0
BLOCK_RECORD
  5
8F68
330
1
100
AcDbSymbolTableRecord
100
AcDbBlockTableRecord
  2
*D484
340
0
 70
     0
280
     1
281
     0
  0
ENDTAB
  0
ENDSEC
  0
SECTION
  2
BLOCKS
  0
BLOCK
  5
20
330
1F
100
AcDbEntity
  8
0
100
AcDbBlockBegin
  2
*MODEL_SPACE
 70
     0
 10
0.0
 20
0.0
 30
0.0
  3
*MODEL_SPACE
  1

  0
ENDBLK
  5
21
330
1F
100
AcDbEntity
  8
0
100
AcDbBlockEnd
  0
BLOCK
  5
1C
330
1B
100
AcDbEntity
 67
     1
  8
0
100
AcDbBlockBegin
  2
*PAPER_SPACE
 70
     0
 10
0.0
 20
0.0
 30
0.0
  3
*PAPER_SPACE
  1

  0
ENDBLK
  5
1D
330
1B
100
AcDbEntity
 67
     1
  8
0
100
AcDbBlockEnd
  0
BLOCK
  5
328F
330
328E
100
AcDbEntity
  8
0
100
AcDbBlockBegin
  2
_OPEN
 70
     0
 10
0.0
 20
0.0
 30
0.0
  3
_OPEN
  1

  0
LINE
  5
3290
330
328E
100
AcDbEntity
  8
0
  6
ByBlock
 62
     0
100
AcDbLine
 10
-1.0
 20
0.166667
 30
0.0
 11
0.0
 21
0.0
 31
0.0
  0
LINE
  5
3291
330
328E
100
AcDbEntity
  8
0
  6
ByBlock
 62
     0
100
AcDbLine
 10
-1.0
 20
-0.166667
 30
0.0
 11
0.0
 21
0.0
 31
0.0
  0
LINE
  5
3292
330
328E
100
AcDbEntity
  8
0
  6
ByBlock
 62
     0
100
AcDbLine
 10
0.0
 20
0.0
 30
0.0
 11
-1.0
 21
0.0
 31
0.0
  0
ENDBLK
  5
3293
330
328E
100
AcDbEntity
  8
0
100
AcDbBlockEnd
  0
BLOCK
  5
8D41
330
8D40
100
AcDbEntity
  8
0
100
AcDbBlockBegin
  2
*D481
 70
     1
 10
0.0
 20
0.0
 30
0.0
  3
*D481
  1

  0
LINE
  5
8D43
330
8D40
100
AcDbEntity
  8
0
 62
     0
370
    -2
100
AcDbLine
 10
174.6641342504784
 20
208.501523016913
 30
0.0
 11
182.8549318260698
 21
215.5752307664376
 31
0.0
  0
LINE
  5
8D44
330
8D40
100
AcDbEntity
  8
0
 62
     0
370
    -2
100
AcDbLine
 10
95.196936704893
 20
139.872341801843
 30
0.0
 11
93.30486057285526
 21
138.2383136776746
 31
0.0
  0
MTEXT
  5
8D45
330
8D40
100
AcDbEntity
  8
0
 62
     0
370
     9
100
AcDbMText
 10
178.4759649408563
 20
214.2791782431179
 30
0.0
 40
2.5
 41
0.0
 46
0.0
 71
     5
 72
     1
  1
%%c100
 11
0.7568304528150985
 21
0.6536112496673331
 31
0.0
 73
     1
 44
1.0
  0
LINE
  5
8D46
330
8D40
100
AcDbEntity
  8
0
 62
     0
370
    -2
100
AcDbLine
 10
97.08901283693075
 20
141.5063699260113
 30
0.0
 11
172.7720581184406
 21
206.8674948927446
 31
0.0
  0
INSERT
  5
8D47
330
8D40
100
AcDbEntity
  8
0
 62
     0
370
    -2
100
AcDbBlockReference
  2
_OPEN
 10
97.08901283693075
 20
141.5063699260113
 30
0.0
 41
2.5
 42
2.5
 43
2.5
 50
40.81443124398251
  0
INSERT
  5
8D48
330
8D40
100
AcDbEntity
  8
0
 62
     0
370
    -2
100
AcDbBlockReference
  2
_OPEN
 10
172.7720581184406
 20
206.8674948927446
 30
0.0
 41
2.5
 42
2.5
 43
2.5
 50
220.8144312439825
  0
POINT
  5
8D49
330
8D40
100
AcDbEntity
  8
DEFPOINTS
 62
     0
100
AcDbPoint
 10
172.7720581184406
 20
206.8674948927446
 30
0.0
  0
POINT
  5
8D4A
330
8D40
100
AcDbEntity
  8
DEFPOINTS
 62
     0
100
AcDbPoint
 10
97.08901283693075
 20
141.5063699260113
 30
0.0
  0
ENDBLK
  5
8D42
330
8D40
100
AcDbEntity
  8
0
100
AcDbBlockEnd
  0
BLOCK
  5
8F69
330
8F68
100
AcDbEntity
  8
0
100
AcDbBlockBegin
  2
*D484
 70
     1
 10
0.0
 20
0.0
 30
0.0
  3
*D484
  1

  0
LINE
  5
8F6B
330
8F68
100
AcDbEntity
  8
0
 62
     0
370
    -2
100
AcDbLine
 10
240.8859377405371
 20
183.686932409378
 30
0.0
 11
230.8550658336125
 21
183.686932409378
 31
0.0
  0
LINE
  5
8F6C
330
8F68
100
AcDbEntity
  8
0
 62
     0
370
    -2
100
AcDbLine
 10
240.8859377405371
 20
164.686932409378
 30
0.0
 11
230.8550658336125
 21
164.686932409378
 31
0.0
  0
LINE
  5
8F6D
330
8F68
100
AcDbEntity
  8
0
 62
     0
370
    -2
100
AcDbLine
 10
232.1050658336125
 20
181.186932409378
 30
0.0
 11
232.1050658336125
 21
167.186932409378
 31
0.0
  0
INSERT
  5
8F6E
330
8F68
100
AcDbEntity
  8
0
 62
     0
370
    -2
100
AcDbBlockReference
  2
_OPEN
 10
232.1050658336125
 20
183.686932409378
 30
0.0
 41
2.5
 42
2.5
 43
2.5
 50
90.0
  0
INSERT
  5
8F6F
330
8F68
100
AcDbEntity
  8
0
 62
     0
370
    -2
100
AcDbBlockReference
  2
_OPEN
 10
232.1050658336125
 20
164.686932409378
 30
0.0
 41
2.5
 42
2.5
 43
2.5
 50
270.0
  0
MTEXT
  5
8F70
330
8F68
100
AcDbEntity
  8
0
 62
     0
370
     9
100
AcDbMText
 10
230.2238158336125
 20
174.186932409378
 30
0.0
 40
2.5
 41
0.0
 46
0.0
 71
     5
 72
     1
  1
19
 11
0.0
 21
1.0
 31
0.0
 73
     1
 44
1.0
  0
POINT
  5
8F71
330
8F68
100
AcDbEntity
  8
DEFPOINTS
 62
     0
100
AcDbPoint
 10
241.5109377405371
 20
183.686932409378
 30
0.0
  0
POINT
  5
8F72
330
8F68
100
AcDbEntity
  8
DEFPOINTS
 62
     0
100
AcDbPoint
 10
241.5109377405371
 20
164.686932409378
 30
0.0
  0
POINT
  5
8F73
330
8F68
100
AcDbEntity
  8
DEFPOINTS
 62
     0
100
AcDbPoint
 10
232.1050658336125
 20
164.686932409378
 30
0.0
  0
ENDBLK
  5
8F6A
330
8F68
100
AcDbEntity
  8
0
100
AcDbBlockEnd
  0
ENDSEC
  0
SECTION
  2
ENTITIES
  0
LINE
  5
34AF
330
1F
100
AcDbEntity
  8
図枠
 62
     7
100
AcDbLine
 10
410.0
 20
287.0
 30
0.0
 11
410.0
 21
10.0
 31
0.0
  0
LINE
  5
34B1
330
1F
100
AcDbEntity
  8
図枠
 62
     7
100
AcDbLine
 10
410.0
 20
71.4183039484
 30
0.0
 11
10.0
 21
71.4183039484
 31
0.0
  0
LINE
  5
34B3
330
1F
100
AcDbEntity
  8
図枠
  6
Continuous
 62
     7
100
AcDbLine
 10
420.0
 20
148.5
 30
0.0
 11
405.0
 21
148.5
 31
0.0
  0
LINE
  5
34B4
330
1F
100
AcDbEntity
  8
図枠
 62
     7
100
AcDbLine
 10
10.0
 20
10.0
 30
0.0
 11
410.0
 21
10.0
 31
0.0
  0
LINE
  5
34B6
330
1F
100
AcDbEntity
  8
図枠
  6
Continuous
 62
     7
100
AcDbLine
 10
60.0
 20
287.0
 30
0.0
 11
60.0
 21
297.0
 31
0.0
  0
LINE
  5
34B7
330
1F
100
AcDbEntity
  8
図枠
  6
Continuous
 62
     7
100
AcDbLine
 10
60.0
 20
10.0
 30
0.0
 11
60.0
 21
0.0
 31
0.0
  0
LINE
  5
34B8
330
1F
100
AcDbEntity
  8
図枠
  6
Continuous
 62
     7
100
AcDbLine
 10
110.0
 20
287.0
 30
0.0
 11
110.0
 21
297.0
 31
0.0
  0
LINE
  5
34B9
330
1F
100
AcDbEntity
  8
図枠
  6
Continuous
 62
     7
100
AcDbLine
 10
110.0
 20
10.0
 30
0.0
 11
110.0
 21
0.0
 31
0.0
  0
LINE
  5
34BA
330
1F
100
AcDbEntity
  8
図枠
  6
Continuous
 62
     7
100
AcDbLine
 10
160.0
 20
287.0
 30
0.0
 11
160.0
 21
297.0
 31
0.0
  0
LINE
  5
34BB
330
1F
100
AcDbEntity
  8
図枠
  6
Continuous
 62
     7
100
AcDbLine
 10
160.0
 20
10.0
 30
0.0
 11
160.0
 21
0.0
 31
0.0
  0
LINE
  5
34CA
330
1F
100
AcDbEntity
  8
図枠
 62
     7
100
AcDbLine
 10
410.0
 20
26.4821127524
 30
0.0
 11
260.0
 21
26.4821127524
 31
0.0
  0
LINE
  5
34CB
330
1F
100
AcDbEntity
  8
図枠
 62
     7
100
AcDbLine
 10
333.037196794
 20
10.0
 30
0.0
 11
333.037196794
 21
71.4183039484
 31
0.0
  0
LINE
  5
34D6
330
1F
100
AcDbEntity
  8
図枠
  6
Continuous
 62
     7
100
AcDbLine
 10
210.0
 20
282.0
 30
0.0
 11
210.0
 21
297.0
 31
0.0
  0
LINE
  5
34D7
330
1F
100
AcDbEntity
  8
図枠
  6
Continuous
 62
     7
100
AcDbLine
 10
210.0
 20
10.0
 30
0.0
 11
210.0
 21
0.0
 31
0.0
  0
LINE
  5
34D8
330
1F
100
AcDbEntity
  8
図枠
 62
     7
100
AcDbLine
 10
410.0
 20
287.0
 30
0.0
 11
10.0
 21
287.0
 31
0.0
  0
LINE
  5
34D9
330
1F
100
AcDbEntity
  8
図枠
  6
Continuous
 62
     7
100
AcDbLine
 10
260.0
 20
287.0
 30
0.0
 11
260.0
 21
297.0
 31
0.0
  0
LINE
  5
34DA
330
1F
100
AcDbEntity
  8
図枠
 62
     7
100
AcDbLine
 10
10.0
 20
287.0
 30
0.0
 11
10.0
 21
10.0
 31
0.0
  0
LINE
  5
34DB
330
1F
100
AcDbEntity
  8
図枠
  6
Continuous
 62
     7
100
AcDbLine
 10
260.0
 20
10.0
 30
0.0
 11
260.0
 21
0.0
 31
0.0
  0
LINE
  5
34DC
330
1F
100
AcDbEntity
  8
図枠
  6
Continuous
 62
     7
100
AcDbLine
 10
310.0
 20
287.0
 30
0.0
 11
310.0
 21
297.0
 31
0.0
  0
LINE
  5
34DD
330
1F
100
AcDbEntity
  8
図枠
  6
Continuous
 62
     7
100
AcDbLine
 10
309.9987854449
 20
10.0
 30
0.0
 11
309.9987854449
 21
0.0
 31
0.0
  0
LINE
  5
34DE
330
1F
100
AcDbEntity
  8
図枠
  6
Continuous
 62
     7
100
AcDbLine
 10
360.0
 20
287.0
 30
0.0
 11
360.0
 21
297.0
 31
0.0
  0
LINE
  5
34DF
330
1F
100
AcDbEntity
  8
図枠
  6
Continuous
 62
     7
100
AcDbLine
 10
360.0039151785
 20
10.0
 30
0.0
 11
360.0039151785
 21
0.0
 31
0.0
  0
LINE
  5
34E0
330
1F
100
AcDbEntity
  8
図枠
  6
Continuous
 62
     7
100
AcDbLine
 10
410.0
 20
248.5
 30
0.0
 11
420.0
 21
248.5
 31
0.0
  0
LINE
  5
34E1
330
1F
100
AcDbEntity
  8
図枠
  6
Continuous
 62
     7
100
AcDbLine
 10
10.0
 20
248.5
 30
0.0
 11
0.0
 21
248.5
 31
0.0
  0
LINE
  5
34E2
330
1F
100
AcDbEntity
  8
図枠
  6
Continuous
 62
     7
100
AcDbLine
 10
410.0
 20
198.5
 30
0.0
 11
420.0
 21
198.5
 31
0.0
  0
LINE
  5
34E3
330
1F
100
AcDbEntity
  8
図枠
  6
Continuous
 62
     7
100
AcDbLine
 10
10.0
 20
198.5
 30
0.0
 11
0.0
 21
198.5
 31
0.0
  0
LINE
  5
34E5
330
1F
100
AcDbEntity
  8
図枠
  6
Continuous
 62
     7
100
AcDbLine
 10
15.0
 20
148.5
 30
0.0
 11
0.0
 21
148.5
 31
0.0
  0
LINE
  5
34E6
330
1F
100
AcDbEntity
  8
図枠
  6
Continuous
 62
     7
100
AcDbLine
 10
410.0
 20
98.5
 30
0.0
 11
420.0
 21
98.5
 31
0.0
  0
LINE
  5
34E7
330
1F
100
AcDbEntity
  8
図枠
  6
Continuous
 62
     7
100
AcDbLine
 10
10.0
 20
98.5
 30
0.0
 11
0.0
 21
98.5
 31
0.0
  0
LINE
  5
34EA
330
1F
100
AcDbEntity
  8
図枠
  6
Continuous
 62
     7
100
AcDbLine
 10
410.0
 20
48.5
 30
0.0
 11
420.0
 21
48.5
 31
0.0
  0
LINE
  5
34EB
330
1F
100
AcDbEntity
  8
図枠
  6
Continuous
 62
     7
100
AcDbLine
 10
10.0
 20
48.5
 30
0.0
 11
0.0
 21
48.5
 31
0.0
  0
LINE
  5
3573
330
1F
100
AcDbEntity
  8
図枠
 62
     7
100
AcDbLine
 10
392.7629249112
 20
10.0
 30
0.0
 11
392.7558225395
 21
26.4821127524
 31
0.0
  0
LINE
  5
3574
330
1F
100
AcDbEntity
  8
図枠
 62
     7
100
AcDbLine
 10
333.037196794
 20
64.3897202375
 30
0.0
 11
410.0
 21
64.3897202375
 31
0.0
  0
LINE
  5
3575
330
1F
100
AcDbEntity
  8
図枠
 62
     7
100
AcDbLine
 10
260.0
 20
10.0
 30
0.0
 11
260.0
 21
71.4183039484
 31
0.0
  0
LINE
  5
3576
330
1F
100
AcDbEntity
  8
図枠
 62
     7
100
AcDbLine
 10
333.037196794
 20
64.3897202375
 30
0.0
 11
260.0
 21
64.3897202375
 31
0.0
  0
LINE
  5
3578
330
1F
100
AcDbEntity
  8
図枠
 62
     7
100
AcDbLine
 10
333.037196794
 20
19.4657688322
 30
0.0
 11
260.0
 21
19.4657688322
 31
0.0
  0
LINE
  5
3579
330
1F
100
AcDbEntity
  8
図枠
 62
     7
100
AcDbLine
 10
299.5921729633
 20
10.0
 30
0.0
 11
299.5850705916
 21
26.4821127524
 31
0.0
  0
LINE
  5
357A
330
1F
100
AcDbEntity
  8
図枠
 62
     7
100
AcDbLine
 10
210.0
 20
10.0
 30
0.0
 11
210.0
 21
71.4183039484
 31
0.0
  0
LINE
  5
357B
330
1F
100
AcDbEntity
  8
図枠
 62
     7
100
AcDbLine
 10
260.0
 20
64.3897202375
 30
0.0
 11
210.0
 21
64.3897202375
 31
0.0
  0
LINE
  5
357C
330
1F
100
AcDbEntity
  8
図枠
  6
Continuous
 62
     7
100
AcDbLine
 10
227.6777366283
 20
64.3897202375
 30
0.0
 11
227.6777366283
 21
10.0
 31
0.0
  0
LINE
  5
357D
330
1F
100
AcDbEntity
  8
図枠
 62
     7
100
AcDbLine
 10
210.0
 20
23.947130671
 30
0.0
 11
260.0
 21
23.947130671
 31
0.0
  0
LINE
  5
357E
330
1F
100
AcDbEntity
  8
図枠
 62
     7
100
AcDbLine
 10
210.0
 20
50.7133687799
 30
0.0
 11
260.0
 21
50.7133687799
 31
0.0
  0
LINE
  5
357F
330
1F
100
AcDbEntity
  8
図枠
 62
     7
100
AcDbLine
 10
260.0
 20
37.4806218497
 30
0.0
 11
210.0
 21
37.4806218497
 31
0.0
  0
LINE
  5
3580
330
1F
100
AcDbEntity
  8
図枠
 62
     7
100
AcDbLine
 10
260.0
 20
16.9562384825
 30
0.0
 11
210.0
 21
16.9562384825
 31
0.0
  0
LINE
  5
3581
330
1F
100
AcDbEntity
  8
図枠
 62
     7
100
AcDbLine
 10
210.0
 20
16.9562384825
 30
0.0
 11
10.0
 21
16.9562384825
 31
0.0
  0
LINE
  5
3582
330
1F
100
AcDbEntity
  8
図枠
 62
     7
100
AcDbLine
 10
210.0
 20
23.947130671
 30
0.0
 11
10.0
 21
23.947130671
 31
0.0
  0
LINE
  5
3583
330
1F
100
AcDbEntity
  8
図枠
 62
     7
100
AcDbLine
 10
210.0
 20
30.4849499307
 30
0.0
 11
10.0
 21
30.4849499307
 31
0.0
  0
LINE
  5
3584
330
1F
100
AcDbEntity
  8
図枠
 62
     7
100
AcDbLine
 10
210.0
 20
37.4806218497
 30
0.0
 11
10.0
 21
37.4806218497
 31
0.0
  0
LINE
  5
3585
330
1F
100
AcDbEntity
  8
図枠
 62
     7
100
AcDbLine
 10
210.0
 20
43.9342364428
 30
0.0
 11
10.0
 21
43.9342364428
 31
0.0
  0
LINE
  5
3586
330
1F
100
AcDbEntity
  8
図枠
 62
     7
100
AcDbLine
 10
210.0
 20
50.7133687799
 30
0.0
 11
10.0
 21
50.7133687799
 31
0.0
  0
LINE
  5
3587
330
1F
100
AcDbEntity
  8
図枠
 62
     7
100
AcDbLine
 10
210.0
 20
57.9312307419
 30
0.0
 11
10.0
 21
57.9312307419
 31
0.0
  0
LINE
  5
3588
330
1F
100
AcDbEntity
  8
図枠
 62
     7
100
AcDbLine
 10
210.0
 20
64.3897202375
 30
0.0
 11
10.0
 21
64.3897202375
 31
0.0
  0
LINE
  5
3589
330
1F
100
AcDbEntity
  8
図枠
 62
     7
100
AcDbLine
 10
21.7562186156
 20
10.0
 30
0.0
 11
21.7562186156
 21
71.4183039484
 31
0.0
  0
LINE
  5
358A
330
1F
100
AcDbEntity
  8
図枠
 62
     7
100
AcDbLine
 10
170.0277100038
 20
10.0
 30
0.0
 11
170.0277100038
 21
71.4183039484
 31
0.0
  0
LINE
  5
358B
330
1F
100
AcDbEntity
  8
図枠
 62
     7
100
AcDbLine
 10
160.0
 20
10.0
 30
0.0
 11
160.0
 21
71.4183039484
 31
0.0
  0
LINE
  5
3599
330
1F
100
AcDbEntity
  8
図枠
  6
Continuous
 62
     7
100
AcDbLine
 10
281.386764118
 20
16.8279349855
 30
0.0
 11
287.9944275431
 21
17.83094703369149
 31
0.0
  0
LINE
  5
359A
330
1F
100
AcDbEntity
  8
図枠
  6
Continuous
 62
     7
100
AcDbLine
 10
291.5066090033
 20
14.8279349855
 30
0.0
 11
268.7270365948
 21
14.8279349855
 31
0.0
  0
LINE
  5
359B
330
1F
100
AcDbEntity
  8
図枠
  6
Continuous
 62
     7
100
AcDbLine
 10
273.5630784217
 20
18.6994881575
 30
0.0
 11
273.5630784217
 21
10.6994881575
 31
0.0
  0
LINE
  5
359C
330
1F
100
AcDbEntity
  8
図枠
  6
Continuous
 62
     7
100
AcDbLine
 10
281.386764118
 20
12.8279349855
 30
0.0
 11
287.9944275431
 21
11.83092899747479
 31
0.0
  0
LINE
  5
359D
330
1F
100
AcDbEntity
  8
図枠
  6
Continuous
 62
     7
100
AcDbLine
 10
281.386764118
 20
16.8279349855
 30
0.0
 11
281.386764118
 21
12.8279349855
 31
0.0
  0
CIRCLE
  5
359E
330
1F
100
AcDbEntity
  8
図枠
  6
Continuous
 62
     7
100
AcDbCircle
 10
273.5630784217
 20
14.8279349855
 30
0.0
 40
2.999999999999964
  0
CIRCLE
  5
359F
330
1F
100
AcDbEntity
  8
図枠
  6
Continuous
 62
     7
100
AcDbCircle
 10
273.5630784217
 20
14.8279349855
 30
0.0
 40
1.999999999999994
  0
LINE
  5
365B
330
1F
100
AcDbEntity
  8
図枠
  6
Continuous
 62
     7
100
AcDbLine
 10
287.9944275431
 20
17.83094703369149
 30
0.0
 11
287.9944275431
 21
11.83092899747479
 31
0.0
  0
LINE
  5
7723
330
1F
100
AcDbEntity
  8
図枠
 62
     7
100
AcDbLine
 10
333.037196794
 20
34.24034514150001
 30
0.0
 11
260.0
 21
34.24034514150001
 31
0.0
  0
LINE
  5
7724
330
1F
100
AcDbEntity
  8
図枠
 62
     7
100
AcDbLine
 10
333.037196794
 20
34.24034514150001
 30
0.0
 11
410.0
 21
34.24034514150001
 31
0.0
  0
LINE
  5
7729
330
1F
100
AcDbEntity
  8
図枠
 62
     7
100
AcDbLine
 10
260.0
 20
56.44486011875
 30
0.0
 11
410.0
 21
56.44486011875
 31
0.0
  0
LINE
  5
772A
330
1F
100
AcDbEntity
  8
図枠
 62
     7
100
AcDbLine
 10
260.0
 20
41.37017257075
 30
0.0
 11
410.0
 21
41.37017257074999
 31
0.0
  0
LINE
  5
777D
330
1F
100
AcDbEntity
  8
図枠
 62
     7
100
AcDbLine
 10
260.0
 20
49.12840495985001
 30
0.0
 11
410.0
 21
49.12840495984999
 31
0.0
  0
LINE
  5
895F
330
1F
100
AcDbEntity
  8
0
  6
CENTER
 62
     7
370
     9
100
AcDbLine
 10
74.93053547768568
 20
174.186932409378
 30
0.0
 11
194.9305354776857
 21
174.186932409378
 31
0.0
  0
LINE
  5
8960
330
1F
100
AcDbEntity
  8
0
  6
CENTER
 62
     7
370
     9
100
AcDbLine
 10
134.9305354776857
 20
114.186932409378
 30
0.0
 11
134.9305354776857
 21
234.186932409378
 31
0.0
  0
SPLINE
  5
8A1E
330
1F
100
AcDbEntity
  8
0
 62
     0
370
    13
100
AcDbSpline
210
0.0
220
0.0
230
1.0
 70
    11
 71
     3
 72
    17
 73
    13
 74
     0
 42
0.000000001
 43
0.0000000001
 40
0.0
 40
0.0
 40
0.0
 40
0.0
 40
1.0
 40
1.0
 40
1.0
 40
2.0
 40
2.0
 40
2.0
 40
3.0
 40
3.0
 40
3.0
 40
4.0
 40
4.0
 40
4.0
 40
4.0
 10
119.4305341252239
 20
174.1867601546037
 30
0.0
 10
119.4305341252239
 20
165.6399950200217
 30
0.0
 10
126.3837703431036
 20
158.686758802142
 30
0.0
 10
134.9305354776857
 20
158.686758802142
 30
0.0
 10
143.4771283574935
 20
158.686758802142
 30
0.0
 10
150.4303645753732
 20
165.6399950200217
 30
0.0
 10
150.4303645753732
 20
174.1867601546037
 30
0.0
 10
150.4303645753732
 20
182.7335252891858
 30
0.0
 10
143.4771283574935
 20
189.6867615070656
 30
0.0
 10
134.9305354776857
 20
189.6867615070656
 30
0.0
 10
126.3837703431036
 20
189.6867615070656
 30
0.0
 10
119.4305341252239
 20
182.7335252891858
 30
0.0
 10
119.4305341252239
 20
174.1867601546037
 30
0.0
  0
CIRCLE
  5
8A1F
330
1F
100
AcDbEntity
  8
0
 62
     0
370
    13
100
AcDbCircle
 10
134.9305354776857
 20
174.186932409378
 30
0.0
 40
17.5
  0
CIRCLE
  5
8A20
330
1F
100
AcDbEntity
  8
0
 62
     0
370
    13
100
AcDbCircle
 10
134.9305354776857
 20
174.186932409378
 30
0.0
 40
48.0
  0
CIRCLE
  5
8D37
102
{ACAD_REACTORS
330
8D3F
102
}
330
1F
100
AcDbEntity
  8
0
 62
     7
370
    13
100
AcDbCircle
 10
134.9305354776857
 20
174.186932409378
 30
0.0
 40
50.0
  0
CIRCLE
  5
8D38
330
1F
100
AcDbEntity
  8
0
 62
     7
370
    13
100
AcDbCircle
 10
134.9305354776857
 20
174.186932409378
 30
0.0
 40
49.5
  0
CIRCLE
  5
8D3A
330
1F
100
AcDbEntity
  8
0
 62
     7
370
    13
100
AcDbCircle
 10
134.9305354776857
 20
174.186932409378
 30
0.0
 40
49.0
  0
CIRCLE
  5
8D3B
330
1F
100
AcDbEntity
  8
0
 62
     7
370
    13
100
AcDbCircle
 10
134.9305354776857
 20
174.186932409378
 30
0.0
 40
0.0
  0
CIRCLE
  5
8D3C
330
1F
100
AcDbEntity
  8
0
 62
     7
370
    13
100
AcDbCircle
 10
134.9305354776857
 20
174.186932409378
 30
0.0
 40
48.5
  0
DIMENSION
  5
8D3D
102
{ACAD_REACTORS
330
8D3F
102
}
102
{ACAD_XDICTIONARY
360
8D3E
102
}
330
1F
100
AcDbEntity
  8
0
 62
     7
370
     9
100
AcDbDimension
280
     0
  2
*D481
 10
97.08901283693075
 20
141.5063699260113
 30
0.0
 11
179.7055711042929
 21
212.8553909537595
 31
0.0
 70
   163
 71
     5
 42
100.0
 73
     0
 74
     0
 75
     0
  3
JIS-1
100
AcDbDiametricDimension
 15
172.7720581184406
 25
206.8674948927446
 35
0.0
 40
0.0
1001
ACAD_DSTYLE_DIMRADIAL_EXTENSION
1070
   387
1070
     1
1070
   388
1040
0.0
1070
   390
1040
6.283185307179586
  0
LINE
  5
8DD8
330
1F
100
AcDbEntity
  8
図枠
 62
     7
100
AcDbLine
 10
0.0
 20
0.0
 30
0.0
 11
0.0
 21
297.0
 31
0.0
  0
LINE
  5
8DD9
330
1F
100
AcDbEntity
  8
図枠
 62
     7
100
AcDbLine
 10
0.0
 20
297.0
 30
0.0
 11
420.0
 21
297.0
 31
0.0
  0
LINE
  5
8DDA
330
1F
100
AcDbEntity
  8
図枠
 62
     7
100
AcDbLine
 10
420.0
 20
297.0
 30
0.0
 11
420.0
 21
0.0
 31
0.0
  0
LINE
  5
8DDB
330
1F
100
AcDbEntity
  8
図枠
 62
     7
100
AcDbLine
 10
420.0
 20
0.0
 30
0.0
 11
0.0
 21
0.0
 31
0.0
  0
TEXT
  5
8DDC
330
1F
100
AcDbEntity
  8
図枠
  6
Continuous
 62
     7
100
AcDbText
 10
413.7387063608
 20
22.0530180432
 30
0.0
 40
3.5
  1
F
 41
0.75
  7
SLDTEXTSTYLE0
100
AcDbText
  0
TEXT
  5
8DDD
330
1F
100
AcDbEntity
  8
図枠
  6
Continuous
 62
     7
100
AcDbText
 10
412.4731189104
 20
271.4653191374
 30
0.0
 40
3.5
  1
A
 41
0.75
  7
SLDTEXTSTYLE0
100
AcDbText
  0
TEXT
  5
8DDE
330
1F
100
AcDbEntity
  8
図枠
  6
Continuous
 62
     7
100
AcDbText
 10
413.1193428345
 20
172.2531994215
 30
0.0
 40
3.5
  1
C
 41
0.75
  7
SLDTEXTSTYLE0
100
AcDbText
  0
TEXT
  5
8DDF
330
1F
100
AcDbEntity
  8
図枠
  6
Continuous
 62
     7
100
AcDbText
 10
413.6455581885
 20
72.2531994215
 30
0.0
 40
3.5
  1
E
 41
0.75
  7
SLDTEXTSTYLE0
100
AcDbText
  0
TEXT
  5
8DE0
330
1F
100
AcDbEntity
  8
図枠
  6
Continuous
 62
     7
100
AcDbText
 10
412.5724678345
 20
222.2531994215
 30
0.0
 40
3.5
  1
B
 41
0.75
  7
SLDTEXTSTYLE0
100
AcDbText
  0
TEXT
  5
8DE1
330
1F
100
AcDbEntity
  8
図枠
  6
Continuous
 62
     7
100
AcDbText
 10
413.1156969227
 20
122.2531994215
 30
0.0
 40
3.5
  1
D
 41
0.75
  7
SLDTEXTSTYLE0
100
AcDbText
  0
TEXT
  5
8DE2
330
1F
100
AcDbEntity
  8
図枠
  6
Continuous
 62
     7
100
AcDbText
 10
85.4148942795
 20
288.4958015854
 30
0.0
 40
3.5
  1
2
 41
0.75
  7
SLDTEXTSTYLE0
100
AcDbText
  0
TEXT
  5
8DE3
330
1F
100
AcDbEntity
  8
図枠
  6
Continuous
 62
     7
100
AcDbText
 10
31.0118798471
 20
288.4958015854
 30
0.0
 40
3.5
  1
1
 41
0.75
  7
SLDTEXTSTYLE0
100
AcDbText
  0
TEXT
  5
8DE4
330
1F
100
AcDbEntity
  8
図枠
  6
Continuous
 62
     7
100
AcDbText
 10
335.5668421836
 20
288.4958015854
 30
0.0
 40
3.5
  1
7
 41
0.75
  7
SLDTEXTSTYLE0
100
AcDbText
  0
TEXT
  5
8DE5
330
1F
100
AcDbEntity
  8
図枠
  6
Continuous
 62
     7
100
AcDbText
 10
235.1961732812
 20
288.4958015854
 30
0.0
 40
3.5
  1
5
 41
0.75
  7
SLDTEXTSTYLE0
100
AcDbText
  0
TEXT
  5
8DE6
330
1F
100
AcDbEntity
  8
図枠
  6
Continuous
 62
     7
100
AcDbText
 10
135.5808926481
 20
288.4958015854
 30
0.0
 40
3.5
  1
3
 41
0.75
  7
SLDTEXTSTYLE0
100
AcDbText
  0
TEXT
  5
8DE7
330
1F
100
AcDbEntity
  8
図枠
  6
Continuous
 62
     7
100
AcDbText
 10
390.5382830604
 20
288.4294820467
 30
0.0
 40
3.5
  1
8
 41
0.75
  7
SLDTEXTSTYLE0
100
AcDbText
  0
TEXT
  5
8DE8
330
1F
100
AcDbEntity
  8
図枠
  6
Continuous
 62
     7
100
AcDbText
 10
285.4990325912
 20
288.4958015854
 30
0.0
 40
3.5
  1
6
 41
0.75
  7
SLDTEXTSTYLE0
100
AcDbText
  0
TEXT
  5
8DE9
330
1F
100
AcDbEntity
  8
図枠
  6
Continuous
 62
     7
100
AcDbText
 10
185.4817148807
 20
288.4958015854
 30
0.0
 40
3.5
  1
4
 41
0.75
  7
SLDTEXTSTYLE0
100
AcDbText
  0
TEXT
  5
8DEA
330
1F
100
AcDbEntity
  8
図枠
  6
Continuous
 62
     7
100
AcDbText
 10
5.3069882844
 20
122.2531994215
 30
0.0
 40
3.5
  1
D
 41
0.75
  7
SLDTEXTSTYLE0
100
AcDbText
  0
TEXT
  5
8DEB
330
1F
100
AcDbEntity
  8
図枠
  6
Continuous
 62
     7
100
AcDbText
 10
5.3106341962
 20
172.2531994215
 30
0.0
 40
3.5
  1
C
 41
0.75
  7
SLDTEXTSTYLE0
100
AcDbText
  0
TEXT
  5
8DEC
330
1F
100
AcDbEntity
  8
図枠
  6
Continuous
 62
     7
100
AcDbText
 10
4.7637591962
 20
222.3746600786
 30
0.0
 40
3.5
  1
B
 41
0.75
  7
SLDTEXTSTYLE0
100
AcDbText
  0
TEXT
  5
8DED
330
1F
100
AcDbEntity
  8
図枠
  6
Continuous
 62
     7
100
AcDbText
 10
5.3531689173
 20
72.2531994215
 30
0.0
 40
3.5
  1
E
 41
0.75
  7
SLDTEXTSTYLE0
100
AcDbText
  0
TEXT
  5
8DEE
330
1F
100
AcDbEntity
  8
図枠
  6
Continuous
 62
     7
100
AcDbText
 10
389.2439953632
 20
4.832153633400001
 30
0.0
 40
3.5
  1
8
 41
0.75
  7
SLDTEXTSTYLE0
100
AcDbText
  0
TEXT
  5
8DEF
330
1F
100
AcDbEntity
  8
図枠
  6
Continuous
 62
     7
100
AcDbText
 10
134.2004620529
 20
4.898473172099999
 30
0.0
 40
3.5
  1
3
 41
0.75
  7
SLDTEXTSTYLE0
100
AcDbText
  0
TEXT
  5
8DF0
330
1F
100
AcDbEntity
  8
図枠
  6
Continuous
 62
     7
100
AcDbText
 10
184.1049479386
 20
4.898473346799999
 30
0.0
 40
3.5
  1
4
 41
0.75
  7
SLDTEXTSTYLE0
100
AcDbText
  0
TEXT
  5
8DF1
330
1F
100
AcDbEntity
  8
図枠
  6
Continuous
 62
     7
100
AcDbText
 10
234.1143662874
 20
4.898473172099999
 30
0.0
 40
3.5
  1
5
 41
0.75
  7
SLDTEXTSTYLE0
100
AcDbText
  0
TEXT
  5
8DF2
330
1F
100
AcDbEntity
  8
図枠
  6
Continuous
 62
     7
100
AcDbText
 10
284.122265649
 20
4.898473172099999
 30
0.0
 40
3.5
  1
6
 41
0.75
  7
SLDTEXTSTYLE0
100
AcDbText
  0
TEXT
  5
8DF3
330
1F
100
AcDbEntity
  8
図枠
  6
Continuous
 62
     7
100
AcDbText
 10
334.1183160264
 20
4.898473172099999
 30
0.0
 40
3.5
  1
7
 41
0.75
  7
SLDTEXTSTYLE0
100
AcDbText
  0
TEXT
  5
8DF4
330
1F
100
AcDbEntity
  8
図枠
  6
Continuous
 62
     7
100
AcDbText
 10
4.664410272
 20
271.4676194612
 30
0.0
 40
3.5
  1
A
 41
0.75
  7
SLDTEXTSTYLE0
100
AcDbText
  0
TEXT
  5
8DF5
330
1F
100
AcDbEntity
  8
図枠
  6
Continuous
 62
     7
100
AcDbText
 10
84.1092014052
 20
4.898473172099999
 30
0.0
 40
3.5
  1
2
 41
0.75
  7
SLDTEXTSTYLE0
100
AcDbText
  0
TEXT
  5
8DF6
330
1F
100
AcDbEntity
  8
図枠
  6
Continuous
 62
     7
100
AcDbText
 10
29.6351129049
 20
4.898473172099999
 30
0.0
 40
3.5
  1
1
 41
0.75
  7
SLDTEXTSTYLE0
100
AcDbText
  0
TEXT
  5
8DF7
330
1F
100
AcDbEntity
  8
図枠
  6
Continuous
 62
     7
100
AcDbText
 10
5.3470924864
 20
23.028893971
 30
0.0
 40
3.5
  1
F
 41
0.75
  7
SLDTEXTSTYLE0
100
AcDbText
  0
TEXT
  5
8DF8
330
1F
100
AcDbEntity
  8
図枠
  6
Continuous
 62
     7
100
AcDbText
 10
354.120107254
 20
66.42676572118995
 30
0.0
 40
3.0
  1
品番 / PART NO.
100
AcDbText
  0
TEXT
  5
8DF9
330
1F
100
AcDbEntity
  8
図枠
  6
Continuous
 62
     7
100
AcDbText
 10
396.5892845774397
 20
14.77716082696225
 30
0.0
 40
5.0
  1
1/1
100
AcDbText
  0
TEXT
  5
8DFA
330
1F
100
AcDbEntity
  8
図枠
  6
Continuous
 62
     7
100
AcDbText
 10
263.0263902254761
 20
66.36226186523888
 30
0.0
 40
3.0
  1
消費電力 / POWER CONSUMPTION
100
AcDbText
  0
TEXT
  5
8DFB
330
1F
100
AcDbEntity
  8
図枠
  6
Continuous
 62
     7
100
AcDbText
 10
280.7334919799183
 20
51.07102527697589
 30
0.0
 40
3.0
  1
材質 / MATERIAL
100
AcDbText
  0
TEXT
  5
8DFC
330
1F
100
AcDbEntity
  8
図枠
  6
Continuous
 62
     7
100
AcDbText
 10
305.2905204341592
 20
21.50963717470281
 30
0.0
 40
2.5
  1
尺度 / SCALE
100
AcDbText
  0
TEXT
  5
8DFD
330
1F
100
AcDbEntity
  8
図枠
  6
Continuous
 62
     7
100
AcDbText
 10
265.6731245702735
 20
21.69484477705772
 30
0.0
 40
2.0
  1
投影法 / PROJECTION
100
AcDbText
  0
TEXT
  5
8DFE
330
1F
100
AcDbEntity
  8
図枠
  6
Continuous
 62
     7
100
AcDbText
 10
222.8072639247744
 20
66.25219406910281
 30
0.0
 40
3.0
  1
名前 / NAME
100
AcDbText
  0
TEXT
  5
8DFF
330
1F
100
AcDbEntity
  8
図枠
  6
Continuous
 62
     7
100
AcDbText
 10
214.5815905005141
 20
55.64150447790281
 30
0.0
 40
3.0
  1
検認
100
AcDbText
  0
TEXT
  5
8E00
330
1F
100
AcDbEntity
  8
図枠
  6
Continuous
 62
     7
100
AcDbText
 10
214.5739347962141
 20
42.40746291400281
 30
0.0
 40
3.0
  1
検認
100
AcDbText
  0
TEXT
  5
8E01
330
1F
100
AcDbEntity
  8
図枠
  6
Continuous
 62
     7
100
AcDbText
 10
214.9837911698057
 20
28.75319521030282
 30
0.0
 40
3.0
  1
設計
100
AcDbText
  0
TEXT
  5
8E02
330
1F
100
AcDbEntity
  8
図枠
  6
Continuous
 62
     7
100
AcDbText
 10
215.0767392775202
 20
11.94115446382124
 30
0.0
 40
3.0
  1
日付
100
AcDbText
  0
TEXT
  5
8E03
330
1F
100
AcDbEntity
  8
図枠
  6
Continuous
 62
     7
100
AcDbText
 10
214.9820364233136
 20
18.74388726750282
 30
0.0
 40
3.0
  1
製図
100
AcDbText
  0
TEXT
  5
8E04
330
1F
100
AcDbEntity
  8
図枠
  6
Continuous
 62
     7
100
AcDbText
 10
12.81159169921057
 20
11.92326126600705
 30
0.0
 40
3.0
  1
NO.
100
AcDbText
  0
TEXT
  5
8E05
330
1F
100
AcDbEntity
  8
図枠
  6
Continuous
 62
     7
100
AcDbText
 10
57.88277790390001
 20
11.807323283
 30
0.0
 40
3.0
  1
改定履歴 / REVISION HISTORY
100
AcDbText
  0
TEXT
  5
8E06
330
1F
100
AcDbEntity
  8
図枠
  6
Continuous
 62
     7
100
AcDbText
 10
160.6523909192069
 20
11.84961285357811
 30
0.0
 40
3.0
  1
日付
100
AcDbText
  0
TEXT
  5
8E07
330
1F
100
AcDbEntity
  8
図枠
  6
Continuous
 62
     7
100
AcDbText
 10
177.5992773753317
 20
11.58629227450352
 30
0.0
 40
3.0
  1
名前 / NAME
100
AcDbText
  0
TEXT
  5
8E08
330
1F
100
AcDbEntity
  8
図枠
  6
Continuous
 62
     7
100
AcDbText
 10
348.2434716211732
 20
51.06368171430562
 30
0.0
 40
3.0
  1
品名 / DRAWING NAME
100
AcDbText
  0
TEXT
  5
8E09
330
1F
100
AcDbEntity
  8
図枠
  6
Continuous
 62
     7
100
AcDbText
 10
284.3209378622659
 20
36.48157322602304
 30
0.0
 40
3.0
  1
重量 / WEIGHT
100
AcDbText
  0
TEXT
  5
8E0A
330
1F
100
AcDbEntity
  8
図枠
  6
Continuous
 62
     7
100
AcDbText
 10
349.665098397
 20
36.228758856125
 30
0.0
 40
3.0
  1
コード番号 / CODE NO.
100
AcDbText
  0
TEXT
  5
8E0B
330
1F
100
AcDbEntity
  8
図枠
  6
Continuous
 62
     7
100
AcDbText
 10
364.3247110163655
 20
58.87641780396238
 30
0.0
 40
3.0
  1
JYT-10
100
AcDbText
  0
TEXT
  5
8E0C
330
1F
100
AcDbEntity
  8
図枠
  6
Continuous
 62
     7
100
AcDbText
 10
351.1449293204583
 20
43.13807077977468
 30
0.0
 40
3.0
  1
自己融着テープ（10m）
100
AcDbText
  0
TEXT
  5
8E0D
330
1F
100
AcDbEntity
  8
図枠
  6
Continuous
 62
     7
100
AcDbText
 10
294.3038481490144
 20
59.30793490554433
 30
0.0
 40
3.0
  1
ー
100
AcDbText
  0
TEXT
  5
8E0E
330
1F
100
AcDbEntity
  8
図枠
  6
Continuous
 62
     7
100
AcDbText
 10
286.4178311301649
 20
42.97127843939237
 30
0.0
 40
3.0
  1
ブチルゴム
100
AcDbText
  0
TEXT
  5
8E0F
330
1F
100
AcDbEntity
  8
図枠
  6
Continuous
 62
     7
100
AcDbText
 10
288.9577456635672
 20
28.82612408353555
 30
0.0
 40
3.0
  1
約0.1ｋｇ
100
AcDbText
  0
TEXT
  5
8E10
330
1F
100
AcDbEntity
  8
図枠
  6
Continuous
 62
     7
100
AcDbText
 10
312.6077490353194
 20
13.19826738945032
 30
0.0
 40
3.0
  1
1 : 1
100
AcDbText
  0
TEXT
  5
8E11
330
1F
100
AcDbEntity
  8
図枠
  6
Continuous
 62
     7
100
AcDbText
 10
239.6093984476843
 20
18.44478446543296
 30
0.0
 40
3.0
  1
岩下
100
AcDbText
  0
TEXT
  5
8E12
330
1F
100
AcDbEntity
  8
図枠
  6
Continuous
 62
     7
100
AcDbText
 10
238.9561696508168
 20
28.71729260199941
 30
0.0
 40
3.0
  1
小林
100
AcDbText
  0
SPLINE
  5
8E13
330
1F
100
AcDbEntity
  8
0
 62
     0
370
    13
100
AcDbSpline
210
0.0
220
0.0
230
1.0
 70
     8
 71
     3
 72
    11
 73
     7
 74
     0
 42
0.000000001
 43
0.0000000001
 40
0.0
 40
0.0
 40
0.0
 40
0.0
 40
1.0
 40
1.0
 40
1.0
 40
2.0
 40
2.0
 40
2.0
 40
2.0
 10
87.43076471048074
 20
174.186932409378
 30
0.0
 10
87.43076471048074
 20
147.9950772184433
 30
0.0
 10
108.7390247962995
 20
126.686472623076
 30
0.0
 10
134.9305354776857
 20
126.686472623076
 30
0.0
 10
147.597290303078
 20
126.686472623076
 30
0.0
 10
159.5199045036564
 20
131.6332852303462
 30
0.0
 10
168.5017851980255
 20
140.6153381794896
 30
0.0
  0
SPLINE
  5
8E14
330
1F
100
AcDbEntity
  8
0
 62
     0
370
    13
100
AcDbSpline
210
0.0
220
0.0
230
1.0
 70
     8
 71
     3
 72
    11
 73
     7
 74
     0
 42
0.000000001
 43
0.0000000001
 40
2.0
 40
2.0
 40
2.0
 40
2.0
 40
3.0
 40
3.0
 40
3.0
 40
4.0
 40
4.0
 40
4.0
 40
4.0
 10
168.5017851980255
 20
140.6153381794896
 30
0.0
 10
177.4838381471689
 20
149.5970466190845
 30
0.0
 10
182.4303062448906
 20
161.5196608196629
 30
0.0
 10
182.4303062448906
 20
174.186932409378
 30
0.0
 10
182.4303062448906
 20
186.8747023172303
 30
0.0
 10
177.4895225547195
 20
198.802828670585
 30
0.0
 10
168.5183216563547
 20
207.77402956895
 30
0.0
  0
SPLINE
  5
8E15
330
1F
100
AcDbEntity
  8
0
 62
     0
370
    13
100
AcDbSpline
210
0.0
220
0.0
230
1.0
 70
     8
 71
     3
 72
    11
 73
     7
 74
     0
 42
0.000000001
 43
0.0000000001
 40
4.0
 40
4.0
 40
4.0
 40
4.0
 40
5.0
 40
5.0
 40
5.0
 40
6.0
 40
6.0
 40
6.0
 40
6.0
 10
168.5183216563547
 20
207.77402956895
 30
0.0
 10
159.5467762484413
 20
216.7457472316376
 30
0.0
 10
147.6184776403123
 20
221.6865309218086
 30
0.0
 10
134.9305354776857
 20
221.6865309218086
 30
0.0
 10
108.7390247962995
 20
221.6865309218086
 30
0.0
 10
87.43076471048074
 20
200.3782708359898
 30
0.0
 10
87.43076471048074
 20
174.186932409378
 30
0.0
  0
SPLINE
  5
8E16
330
1F
100
AcDbEntity
  8
0
 62
     0
370
    13
100
AcDbSpline
210
0.0
220
0.0
230
1.0
 70
     8
 71
     3
 72
    11
 73
     7
 74
     0
 42
0.000000001
 43
0.0000000001
 40
0.0
 40
0.0
 40
0.0
 40
0.0
 40
1.0
 40
1.0
 40
1.0
 40
2.0
 40
2.0
 40
2.0
 40
2.0
 10
87.93082032016477
 20
174.186932409378
 30
0.0
 10
87.93082032016477
 20
148.2706848572633
 30
0.0
 10
109.0148046898938
 20
127.1863559779857
 30
0.0
 10
134.9305354776857
 20
127.1863559779857
 30
0.0
 10
147.4637928530246
 20
127.1863559779857
 30
0.0
 10
159.2606610683914
 20
132.0811476434287
 30
0.0
 10
168.1481461464646
 20
140.9688049762763
 30
0.0
  0
SPLINE
  5
8E17
330
1F
100
AcDbEntity
  8
0
 62
     0
370
    13
100
AcDbSpline
210
0.0
220
0.0
230
1.0
 70
     8
 71
     3
 72
    11
 73
     7
 74
     0
 42
0.000000001
 43
0.0000000001
 40
2.0
 40
2.0
 40
2.0
 40
2.0
 40
3.0
 40
3.0
 40
3.0
 40
4.0
 40
4.0
 40
4.0
 40
4.0
 10
168.1481461464646
 20
140.9688049762763
 30
0.0
 10
177.0358034793122
 20
149.8561177995753
 30
0.0
 10
181.9302506352066
 20
161.6531582697162
 30
0.0
 10
181.9302506352066
 20
174.186932409378
 30
0.0
 10
181.9302506352066
 20
186.7410326124026
 30
0.0
 10
177.0416601416371
 20
198.5435852353201
 30
0.0
 10
168.1646826047938
 20
207.4203905173891
 30
0.0
  0
SPLINE
  5
8E18
330
1F
100
AcDbEntity
  8
0
 62
     0
370
    13
100
AcDbSpline
210
0.0
220
0.0
230
1.0
 70
     8
 71
     3
 72
    11
 73
     7
 74
     0
 42
0.000000001
 43
0.0000000001
 40
4.0
 40
4.0
 40
4.0
 40
4.0
 40
5.0
 40
5.0
 40
5.0
 40
6.0
 40
6.0
 40
6.0
 40
6.0
 10
168.1646826047938
 20
207.4203905173891
 30
0.0
 10
159.2877050679506
 20
216.2977125637809
 30
0.0
 10
147.4849801902589
 20
221.1864753121246
 30
0.0
 10
134.9305354776857
 20
221.1864753121246
 30
0.0
 10
109.0148046898938
 20
221.1864753121246
 30
0.0
 10
87.93082032016477
 20
200.1026631971699
 30
0.0
 10
87.93082032016477
 20
174.186932409378
 30
0.0
  0
SPLINE
  5
8E19
330
1F
100
AcDbEntity
  8
0
 62
     0
370
    13
100
AcDbSpline
210
0.0
220
0.0
230
1.0
 70
     8
 71
     3
 72
    11
 73
     7
 74
     0
 42
0.000000001
 43
0.0000000001
 40
0.0
 40
0.0
 40
0.0
 40
0.0
 40
1.0
 40
1.0
 40
1.0
 40
2.0
 40
2.0
 40
2.0
 40
2.0
 10
88.43087592984878
 20
174.186932409378
 30
0.0
 10
88.43087592984878
 20
148.5462924960833
 30
0.0
 10
109.290584583488
 20
127.6862393328955
 30
0.0
 10
134.9305354776857
 20
127.6862393328955
 30
0.0
 10
147.3301231481969
 20
127.6862393328955
 30
0.0
 10
159.0014176331263
 20
132.5290100565112
 30
0.0
 10
167.7945070949037
 20
141.3222717730629
 30
0.0
  0
SPLINE
  5
8E1A
330
1F
100
AcDbEntity
  8
0
 62
     0
370
    13
100
AcDbSpline
210
0.0
220
0.0
230
1.0
 70
     8
 71
     3
 72
    11
 73
     7
 74
     0
 42
0.000000001
 43
0.0000000001
 40
2.0
 40
2.0
 40
2.0
 40
2.0
 40
3.0
 40
3.0
 40
3.0
 40
4.0
 40
4.0
 40
4.0
 40
4.0
 10
167.7945070949037
 20
141.3222717730629
 30
0.0
 10
176.5877688114554
 20
150.115188980066
 30
0.0
 10
181.4301950255226
 20
161.7866557197698
 30
0.0
 10
181.4301950255226
 20
174.186932409378
 30
0.0
 10
181.4301950255226
 20
186.6075351623493
 30
0.0
 10
176.5936254737804
 20
198.2845140548292
 30
0.0
 10
167.8110435532329
 20
207.0667514658281
 30
0.0
  0
SPLINE
  5
8E1B
330
1F
100
AcDbEntity
  8
0
 62
     0
370
    13
100
AcDbSpline
210
0.0
220
0.0
230
1.0
 70
     8
 71
     3
 72
    11
 73
     7
 74
     0
 42
0.000000001
 43
0.0000000001
 40
4.0
 40
4.0
 40
4.0
 40
4.0
 40
5.0
 40
5.0
 40
5.0
 40
6.0
 40
6.0
 40
6.0
 40
6.0
 10
167.8110435532329
 20
207.0667514658281
 30
0.0
 10
159.0286338874598
 20
215.8496778959241
 30
0.0
 10
147.3514827402054
 20
220.6864197024406
 30
0.0
 10
134.9305354776857
 20
220.6864197024406
 30
0.0
 10
109.290584583488
 20
220.6864197024406
 30
0.0
 10
88.43087592984878
 20
199.8268833035756
 30
0.0
 10
88.43087592984878
 20
174.186932409378
 30
0.0
  0
SPLINE
  5
8E1C
330
1F
100
AcDbEntity
  8
0
 62
     0
370
    13
100
AcDbSpline
210
0.0
220
0.0
230
1.0
 70
     8
 71
     3
 72
    11
 73
     7
 74
     0
 42
0.000000001
 43
0.0000000001
 40
0.0
 40
0.0
 40
0.0
 40
0.0
 40
1.0
 40
1.0
 40
1.0
 40
2.0
 40
2.0
 40
2.0
 40
2.0
 10
88.93093153953279
 20
174.186932409378
 30
0.0
 10
88.93093153953279
 20
148.8219001349033
 30
0.0
 10
109.566192222308
 20
128.1861226878053
 30
0.0
 10
134.9305354776857
 20
128.1861226878053
 30
0.0
 10
147.1964534433692
 20
128.1861226878053
 30
0.0
 10
158.7421741978612
 20
132.9768724695937
 30
0.0
 10
167.4408680433428
 20
141.6757385698495
 30
0.0
  0
SPLINE
  5
8E1D
330
1F
100
AcDbEntity
  8
0
 62
     0
370
    13
100
AcDbSpline
210
0.0
220
0.0
230
1.0
 70
     8
 71
     3
 72
    11
 73
     7
 74
     0
 42
0.000000001
 43
0.0000000001
 40
2.0
 40
2.0
 40
2.0
 40
2.0
 40
3.0
 40
3.0
 40
3.0
 40
4.0
 40
4.0
 40
4.0
 40
4.0
 10
167.4408680433428
 20
141.6757385698495
 30
0.0
 10
176.1395618888243
 20
150.3742601605568
 30
0.0
 10
180.9301394158385
 20
161.9201531698232
 30
0.0
 10
180.9301394158385
 20
174.186932409378
 30
0.0
 10
180.9301394158385
 20
186.4742099670701
 30
0.0
 10
176.1454185511494
 20
198.0254428743385
 30
0.0
 10
167.4575767564463
 20
206.7131124142672
 30
0.0
  0
SPLINE
  5
8E1E
330
1F
100
AcDbEntity
  8
0
 62
     0
370
    13
100
AcDbSpline
210
0.0
220
0.0
230
1.0
 70
     8
 71
     3
 72
    11
 73
     7
 74
     0
 42
0.000000001
 43
0.0000000001
 40
4.0
 40
4.0
 40
4.0
 40
4.0
 40
5.0
 40
5.0
 40
5.0
 40
6.0
 40
6.0
 40
6.0
 40
6.0
 10
167.4575767564463
 20
206.7131124142672
 30
0.0
 10
158.7697349617432
 20
215.401470973293
 30
0.0
 10
147.217985290152
 20
220.1863640927565
 30
0.0
 10
134.9305354776857
 20
220.1863640927565
 30
0.0
 10
109.566192222308
 20
220.1863640927565
 30
0.0
 10
88.93093153953279
 20
199.5511034099814
 30
0.0
 10
88.93093153953279
 20
174.186932409378
 30
0.0
  0
SPLINE
  5
8E1F
330
1F
100
AcDbEntity
  8
0
 62
     0
370
    13
100
AcDbSpline
210
0.0
220
0.0
230
1.0
 70
     8
 71
     3
 72
    11
 73
     7
 74
     0
 42
0.000000001
 43
0.0000000001
 40
0.0
 40
0.0
 40
0.0
 40
0.0
 40
1.0
 40
1.0
 40
1.0
 40
2.0
 40
2.0
 40
2.0
 40
2.0
 10
89.4309871492168
 20
174.186932409378
 30
0.0
 10
89.4309871492168
 20
149.0978522832718
 30
0.0
 10
109.8419721159023
 20
128.686006042715
 30
0.0
 10
134.9305354776857
 20
128.686006042715
 30
0.0
 10
147.0627837385415
 20
128.686006042715
 30
0.0
 10
158.4829307625962
 20
133.4247348826761
 30
0.0
 10
167.0872289917819
 20
142.0292053666361
 30
0.0
  0
SPLINE
  5
8E20
330
1F
100
AcDbEntity
  8
0
 62
     0
370
    13
100
AcDbSpline
210
0.0
220
0.0
230
1.0
 70
     8
 71
     3
 72
    11
 73
     7
 74
     0
 42
0.000000001
 43
0.0000000001
 40
2.0
 40
2.0
 40
2.0
 40
2.0
 40
3.0
 40
3.0
 40
3.0
 40
4.0
 40
4.0
 40
4.0
 40
4.0
 10
167.0872289917819
 20
142.0292053666361
 30
0.0
 10
175.6915272209677
 20
150.6333313410476
 30
0.0
 10
180.4300838061546
 20
162.0538228746508
 30
0.0
 10
180.4300838061546
 20
174.186932409378
 30
0.0
 10
180.4300838061546
 20
186.3405402622424
 30
0.0
 10
175.6975561380669
 20
197.7661994390734
 30
0.0
 10
167.1041099596596
 20
206.3594733627064
 30
0.0
  0
SPLINE
  5
8E21
330
1F
100
AcDbEntity
  8
0
 62
     0
370
    13
100
AcDbSpline
210
0.0
220
0.0
230
1.0
 70
     8
 71
     3
 72
    11
 73
     7
 74
     0
 42
0.000000001
 43
0.0000000001
 40
4.0
 40
4.0
 40
4.0
 40
4.0
 40
5.0
 40
5.0
 40
5.0
 40
6.0
 40
6.0
 40
6.0
 40
6.0
 10
167.1041099596596
 20
206.3594733627064
 30
0.0
 10
158.5106637812524
 20
214.9534363054364
 30
0.0
 10
147.0844878400986
 20
219.6863084830725
 30
0.0
 10
134.9305354776857
 20
219.6863084830725
 30
0.0
 10
109.8419721159023
 20
219.6863084830725
 30
0.0
 10
89.4309871492168
 20
199.2753235163872
 30
0.0
 10
89.4309871492168
 20
174.186932409378
 30
0.0
  0
SPLINE
  5
8E22
330
1F
100
AcDbEntity
  8
0
 62
     0
370
    13
100
AcDbSpline
210
0.0
220
0.0
230
1.0
 70
     8
 71
     3
 72
    11
 73
     7
 74
     0
 42
0.000000001
 43
0.0000000001
 40
0.0
 40
0.0
 40
0.0
 40
0.0
 40
1.0
 40
1.0
 40
1.0
 40
2.0
 40
2.0
 40
2.0
 40
2.0
 10
89.93104275890082
 20
174.186932409378
 30
0.0
 10
89.93104275890082
 20
149.3734599220917
 30
0.0
 10
110.1177520094965
 20
129.1858893976247
 30
0.0
 10
134.9305354776857
 20
129.1858893976247
 30
0.0
 10
146.9292862884881
 20
129.1858893976247
 30
0.0
 10
158.2238595821054
 20
133.8725972957586
 30
0.0
 10
166.733589940221
 20
142.3826721634228
 30
0.0
  0
SPLINE
  5
8E23
330
1F
100
AcDbEntity
  8
0
 62
     0
370
    13
100
AcDbSpline
210
0.0
220
0.0
230
1.0
 70
     8
 71
     3
 72
    11
 73
     7
 74
     0
 42
0.000000001
 43
0.0000000001
 40
2.0
 40
2.0
 40
2.0
 40
2.0
 40
3.0
 40
3.0
 40
3.0
 40
4.0
 40
4.0
 40
4.0
 40
4.0
 10
166.733589940221
 20
142.3826721634228
 30
0.0
 10
175.243492553111
 20
150.8924025215384
 30
0.0
 10
179.9300281964706
 20
162.1873203247043
 30
0.0
 10
179.9300281964706
 20
174.186932409378
 30
0.0
 10
179.9300281964706
 20
186.2068705574147
 30
0.0
 10
175.2495214702101
 20
197.5071282585827
 30
0.0
 10
166.750643162873
 20
206.0058343111455
 30
0.0
  0
SPLINE
  5
8E24
330
1F
100
AcDbEntity
  8
0
 62
     0
370
    13
100
AcDbSpline
210
0.0
220
0.0
230
1.0
 70
     8
 71
     3
 72
    11
 73
     7
 74
     0
 42
0.000000001
 43
0.0000000001
 40
4.0
 40
4.0
 40
4.0
 40
4.0
 40
5.0
 40
5.0
 40
5.0
 40
6.0
 40
6.0
 40
6.0
 40
6.0
 10
166.750643162873
 20
206.0058343111455
 30
0.0
 10
158.2515926007617
 20
214.5054016375796
 30
0.0
 10
146.9509903900451
 20
219.1862528733886
 30
0.0
 10
134.9305354776857
 20
219.1862528733886
 30
0.0
 10
110.1177520094965
 20
219.1862528733886
 30
0.0
 10
89.93104275890082
 20
198.9997158775672
 30
0.0
 10
89.93104275890082
 20
174.186932409378
 30
0.0
  0
SPLINE
  5
8E25
330
1F
100
AcDbEntity
  8
0
 62
     0
370
    13
100
AcDbSpline
210
0.0
220
0.0
230
1.0
 70
     8
 71
     3
 72
    11
 73
     7
 74
     0
 42
0.000000001
 43
0.0000000001
 40
0.0
 40
0.0
 40
0.0
 40
0.0
 40
1.0
 40
1.0
 40
1.0
 40
2.0
 40
2.0
 40
2.0
 40
2.0
 10
90.43109836858484
 20
174.186932409378
 30
0.0
 10
90.43109836858484
 20
149.6490675609118
 30
0.0
 10
110.3933596483165
 20
129.6857727525345
 30
0.0
 10
134.9305354776857
 20
129.6857727525345
 30
0.0
 10
146.7957888384346
 20
129.6857727525345
 30
0.0
 10
157.9647884016146
 20
134.3204597088411
 30
0.0
 10
166.3799508886601
 20
142.7361389602094
 30
0.0
  0
SPLINE
  5
8E26
330
1F
100
AcDbEntity
  8
0
 62
     0
370
    13
100
AcDbSpline
210
0.0
220
0.0
230
1.0
 70
     8
 71
     3
 72
    11
 73
     7
 74
     0
 42
0.000000001
 43
0.0000000001
 40
2.0
 40
2.0
 40
2.0
 40
2.0
 40
3.0
 40
3.0
 40
3.0
 40
4.0
 40
4.0
 40
4.0
 40
4.0
 10
166.3799508886601
 20
142.7361389602094
 30
0.0
 10
174.7954578852542
 20
151.1514737020291
 30
0.0
 10
179.4299725867864
 20
162.3208177747576
 30
0.0
 10
179.4299725867864
 20
174.186932409378
 30
0.0
 10
179.4299725867864
 20
186.0733731073612
 30
0.0
 10
174.8014868023533
 20
197.2480570780918
 30
0.0
 10
166.3971763660864
 20
205.6521952595846
 30
0.0
  0
SPLINE
  5
8E27
330
1F
100
AcDbEntity
  8
0
 62
     0
370
    13
100
AcDbSpline
210
0.0
220
0.0
230
1.0
 70
     8
 71
     3
 72
    11
 73
     7
 74
     0
 42
0.000000001
 43
0.0000000001
 40
4.0
 40
4.0
 40
4.0
 40
4.0
 40
5.0
 40
5.0
 40
5.0
 40
6.0
 40
6.0
 40
6.0
 40
6.0
 10
166.3971763660864
 20
205.6521952595846
 30
0.0
 10
157.9925214202709
 20
214.0573669697229
 30
0.0
 10
146.8174929399917
 20
218.6861972637046
 30
0.0
 10
134.9305354776857
 20
218.6861972637046
 30
0.0
 10
110.3933596483165
 20
218.6861972637046
 30
0.0
 10
90.43109836858484
 20
198.7239359839729
 30
0.0
 10
90.43109836858484
 20
174.186932409378
 30
0.0
  0
SPLINE
  5
8E28
330
1F
100
AcDbEntity
  8
0
 62
     0
370
    13
100
AcDbSpline
210
0.0
220
0.0
230
1.0
 70
     8
 71
     3
 72
    11
 73
     7
 74
     0
 42
0.000000001
 43
0.0000000001
 40
0.0
 40
0.0
 40
0.0
 40
0.0
 40
1.0
 40
1.0
 40
1.0
 40
2.0
 40
2.0
 40
2.0
 40
2.0
 10
90.93115397826885
 20
174.186932409378
 30
0.0
 10
90.93115397826885
 20
149.9246751997317
 30
0.0
 10
110.6691395419108
 20
130.1856561074443
 30
0.0
 10
134.9305354776857
 20
130.1856561074443
 30
0.0
 10
146.6622913883812
 20
130.1856561074443
 30
0.0
 10
157.7057172211238
 20
134.7683221219236
 30
0.0
 10
166.0263118370992
 20
143.089605756996
 30
0.0
  0
SPLINE
  5
8E29
330
1F
100
AcDbEntity
  8
0
 62
     0
370
    13
100
AcDbSpline
210
0.0
220
0.0
230
1.0
 70
     8
 71
     3
 72
    11
 73
     7
 74
     0
 42
0.000000001
 43
0.0000000001
 40
2.0
 40
2.0
 40
2.0
 40
2.0
 40
3.0
 40
3.0
 40
3.0
 40
4.0
 40
4.0
 40
4.0
 40
4.0
 10
166.0263118370992
 20
143.089605756996
 30
0.0
 10
174.3474232173975
 20
151.41054488252
 30
0.0
 10
178.9299169771025
 20
162.4543152248111
 30
0.0
 10
178.9299169771025
 20
174.186932409378
 30
0.0
 10
178.9299169771025
 20
185.9398756573078
 30
0.0
 10
174.3534521344966
 20
196.988985897601
 30
0.0
 10
166.0437095692998
 20
205.2985562080236
 30
0.0
  0
SPLINE
  5
8E2A
330
1F
100
AcDbEntity
  8
0
 62
     0
370
    13
100
AcDbSpline
210
0.0
220
0.0
230
1.0
 70
     8
 71
     3
 72
    11
 73
     7
 74
     0
 42
0.000000001
 43
0.0000000001
 40
4.0
 40
4.0
 40
4.0
 40
4.0
 40
5.0
 40
5.0
 40
5.0
 40
6.0
 40
6.0
 40
6.0
 40
6.0
 10
166.0437095692998
 20
205.2985562080236
 30
0.0
 10
157.7334502397801
 20
213.6093323018662
 30
0.0
 10
146.6839954899383
 20
218.1861416540206
 30
0.0
 10
134.9305354776857
 20
218.1861416540206
 30
0.0
 10
110.6691395419108
 20
218.1861416540206
 30
0.0
 10
90.93115397826885
 20
198.4481560903786
 30
0.0
 10
90.93115397826885
 20
174.186932409378
 30
0.0
  0
SPLINE
  5
8E2B
330
1F
100
AcDbEntity
  8
0
 62
     0
370
    13
100
AcDbSpline
210
0.0
220
0.0
230
1.0
 70
     8
 71
     3
 72
    11
 73
     7
 74
     0
 42
0.000000001
 43
0.0000000001
 40
0.0
 40
0.0
 40
0.0
 40
0.0
 40
1.0
 40
1.0
 40
1.0
 40
2.0
 40
2.0
 40
2.0
 40
2.0
 10
91.43120958795286
 20
174.186932409378
 30
0.0
 10
91.43120958795286
 20
150.2002828385517
 30
0.0
 10
110.944919435505
 20
130.685539462354
 30
0.0
 10
134.9305354776857
 20
130.685539462354
 30
0.0
 10
146.5287939383278
 20
130.685539462354
 30
0.0
 10
157.446646040633
 20
135.2161845350061
 30
0.0
 10
165.6726727855383
 20
143.4430725537827
 30
0.0
  0
SPLINE
  5
8E2C
330
1F
100
AcDbEntity
  8
0
 62
     0
370
    13
100
AcDbSpline
210
0.0
220
0.0
230
1.0
 70
     8
 71
     3
 72
    11
 73
     7
 74
     0
 42
0.000000001
 43
0.0000000001
 40
2.0
 40
2.0
 40
2.0
 40
2.0
 40
3.0
 40
3.0
 40
3.0
 40
4.0
 40
4.0
 40
4.0
 40
4.0
 10
165.6726727855383
 20
143.4430725537827
 30
0.0
 10
173.8993885495407
 20
151.6696160630107
 30
0.0
 10
178.4298613674185
 20
162.5879849296389
 30
0.0
 10
178.4298613674185
 20
174.186932409378
 30
0.0
 10
178.4298613674185
 20
185.8063782072543
 30
0.0
 10
173.9055897214142
 20
196.729742462336
 30
0.0
 10
165.6902427725131
 20
204.9449171564627
 30
0.0
  0
SPLINE
  5
8E2D
330
1F
100
AcDbEntity
  8
0
 62
     0
370
    13
100
AcDbSpline
210
0.0
220
0.0
230
1.0
 70
     8
 71
     3
 72
    11
 73
     7
 74
     0
 42
0.000000001
 43
0.0000000001
 40
4.0
 40
4.0
 40
4.0
 40
4.0
 40
5.0
 40
5.0
 40
5.0
 40
6.0
 40
6.0
 40
6.0
 40
6.0
 10
165.6902427725131
 20
204.9449171564627
 30
0.0
 10
157.4743790592893
 20
213.1612976340094
 30
0.0
 10
146.5504980398849
 20
217.6860860443365
 30
0.0
 10
134.9305354776857
 20
217.6860860443365
 30
0.0
 10
110.944919435505
 20
217.6860860443365
 30
0.0
 10
91.43120958795286
 20
198.1725484515587
 30
0.0
 10
91.43120958795286
 20
174.186932409378
 30
0.0
  0
SPLINE
  5
8E2E
330
1F
100
AcDbEntity
  8
0
 62
     0
370
    13
100
AcDbSpline
210
0.0
220
0.0
230
1.0
 70
     8
 71
     3
 72
    11
 73
     7
 74
     0
 42
0.000000001
 43
0.0000000001
 40
0.0
 40
0.0
 40
0.0
 40
0.0
 40
1.0
 40
1.0
 40
1.0
 40
2.0
 40
2.0
 40
2.0
 40
2.0
 10
91.93126519763688
 20
174.186932409378
 30
0.0
 10
91.93126519763688
 20
150.4758904773717
 30
0.0
 10
111.2206993290992
 20
131.1854228172638
 30
0.0
 10
134.9305354776857
 20
131.1854228172638
 30
0.0
 10
146.3952964882743
 20
131.1854228172638
 30
0.0
 10
157.1875748601423
 20
135.6643914576371
 30
0.0
 10
165.3190337339774
 20
143.7965393505693
 30
0.0
  0
SPLINE
  5
8E2F
330
1F
100
AcDbEntity
  8
0
 62
     0
370
    13
100
AcDbSpline
210
0.0
220
0.0
230
1.0
 70
     8
 71
     3
 72
    11
 73
     7
 74
     0
 42
0.000000001
 43
0.0000000001
 40
2.0
 40
2.0
 40
2.0
 40
2.0
 40
3.0
 40
3.0
 40
3.0
 40
4.0
 40
4.0
 40
4.0
 40
4.0
 10
165.3190337339774
 20
143.7965393505693
 30
0.0
 10
173.451353881684
 20
151.9286872435015
 30
0.0
 10
177.9298057577345
 20
162.7214823796922
 30
0.0
 10
177.9298057577345
 20
174.186932409378
 30
0.0
 10
177.9298057577345
 20
185.672880757201
 30
0.0
 10
173.4575550535574
 20
196.4706712818452
 30
0.0
 10
165.3367759757265
 20
204.5912781049018
 30
0.0
  0
SPLINE
  5
8E30
330
1F
100
AcDbEntity
  8
0
 62
     0
370
    13
100
AcDbSpline
210
0.0
220
0.0
230
1.0
 70
     8
 71
     3
 72
    11
 73
     7
 74
     0
 42
0.000000001
 43
0.0000000001
 40
4.0
 40
4.0
 40
4.0
 40
4.0
 40
5.0
 40
5.0
 40
5.0
 40
6.0
 40
6.0
 40
6.0
 40
6.0
 10
165.3367759757265
 20
204.5912781049018
 30
0.0
 10
157.2153078787985
 20
212.7132629661526
 30
0.0
 10
146.4170005898314
 20
217.1860304346525
 30
0.0
 10
134.9305354776857
 20
217.1860304346525
 30
0.0
 10
111.2206993290992
 20
217.1860304346525
 30
0.0
 10
91.93126519763688
 20
197.8967685579644
 30
0.0
 10
91.93126519763688
 20
174.186932409378
 30
0.0
  0
SPLINE
  5
8E31
330
1F
100
AcDbEntity
  8
0
 62
     0
370
    13
100
AcDbSpline
210
0.0
220
0.0
230
1.0
 70
     8
 71
     3
 72
    11
 73
     7
 74
     0
 42
0.000000001
 43
0.0000000001
 40
0.0
 40
0.0
 40
0.0
 40
0.0
 40
1.0
 40
1.0
 40
1.0
 40
2.0
 40
2.0
 40
2.0
 40
2.0
 10
92.4313208073209
 20
174.186932409378
 30
0.0
 10
92.4313208073209
 20
150.7514981161917
 30
0.0
 10
111.4963069679192
 20
131.6853061721735
 30
0.0
 10
134.9305354776857
 20
131.6853061721735
 30
0.0
 10
146.2616267834467
 20
131.6853061721735
 30
0.0
 10
156.9281591701029
 20
136.1122538707195
 30
0.0
 10
164.9653946824166
 20
144.150006147356
 30
0.0
  0
SPLINE
  5
8E32
330
1F
100
AcDbEntity
  8
0
 62
     0
370
    13
100
AcDbSpline
210
0.0
220
0.0
230
1.0
 70
     8
 71
     3
 72
    11
 73
     7
 74
     0
 42
0.000000001
 43
0.0000000001
 40
2.0
 40
2.0
 40
2.0
 40
2.0
 40
3.0
 40
3.0
 40
3.0
 40
4.0
 40
4.0
 40
4.0
 40
4.0
 10
164.9653946824166
 20
144.150006147356
 30
0.0
 10
173.0031469590529
 20
152.1877584239924
 30
0.0
 10
177.4297501480505
 20
162.8549798297457
 30
0.0
 10
177.4297501480505
 20
174.186932409378
 30
0.0
 10
177.4297501480505
 20
185.5393833071474
 30
0.0
 10
173.0095203857007
 20
196.2116001013545
 30
0.0
 10
164.9833091789399
 20
204.237639053341
 30
0.0
  0
SPLINE
  5
8E33
330
1F
100
AcDbEntity
  8
0
 62
     0
370
    13
100
AcDbSpline
210
0.0
220
0.0
230
1.0
 70
     8
 71
     3
 72
    11
 73
     7
 74
     0
 42
0.000000001
 43
0.0000000001
 40
4.0
 40
4.0
 40
4.0
 40
4.0
 40
5.0
 40
5.0
 40
5.0
 40
6.0
 40
6.0
 40
6.0
 40
6.0
 10
164.9833091789399
 20
204.237639053341
 30
0.0
 10
156.9562366983077
 20
212.2650560435217
 30
0.0
 10
146.2833308850037
 20
216.6859748249685
 30
0.0
 10
134.9305354776857
 20
216.6859748249685
 30
0.0
 10
111.4963069679192
 20
216.6859748249685
 30
0.0
 10
92.4313208073209
 20
197.6209886643701
 30
0.0
 10
92.4313208073209
 20
174.186932409378
 30
0.0
  0
SPLINE
  5
8E34
330
1F
100
AcDbEntity
  8
0
 62
     0
370
    13
100
AcDbSpline
210
0.0
220
0.0
230
1.0
 70
     8
 71
     3
 72
    11
 73
     7
 74
     0
 42
0.000000001
 43
0.0000000001
 40
0.0
 40
0.0
 40
0.0
 40
0.0
 40
1.0
 40
1.0
 40
1.0
 40
2.0
 40
2.0
 40
2.0
 40
2.0
 10
92.93137641700491
 20
174.186932409378
 30
0.0
 10
92.93137641700491
 20
151.0271057550117
 30
0.0
 10
111.7720868615135
 20
132.1851895270833
 30
0.0
 10
134.9305354776857
 20
132.1851895270833
 30
0.0
 10
146.1277848238447
 20
132.1851895270833
 30
0.0
 10
156.6687434800636
 20
136.560116283802
 30
0.0
 10
164.6117556308557
 20
144.5034729441426
 30
0.0
  0
SPLINE
  5
8E35
330
1F
100
AcDbEntity
  8
0
 62
     0
370
    13
100
AcDbSpline
210
0.0
220
0.0
230
1.0
 70
     8
 71
     3
 72
    11
 73
     7
 74
     0
 42
0.000000001
 43
0.0000000001
 40
2.0
 40
2.0
 40
2.0
 40
2.0
 40
3.0
 40
3.0
 40
3.0
 40
4.0
 40
4.0
 40
4.0
 40
4.0
 10
164.6117556308557
 20
144.5034729441426
 30
0.0
 10
172.5551122911962
 20
152.4468296044831
 30
0.0
 10
176.9296945383664
 20
162.9886495345734
 30
0.0
 10
176.9296945383664
 20
174.186932409378
 30
0.0
 10
176.9296945383664
 20
185.4058858570941
 30
0.0
 10
172.5614857178439
 20
195.9525289208636
 30
0.0
 10
164.6298423821532
 20
203.8840000017802
 30
0.0
  0
SPLINE
  5
8E36
330
1F
100
AcDbEntity
  8
0
 62
     0
370
    13
100
AcDbSpline
210
0.0
220
0.0
230
1.0
 70
     8
 71
     3
 72
    11
 73
     7
 74
     0
 42
0.000000001
 43
0.0000000001
 40
4.0
 40
4.0
 40
4.0
 40
4.0
 40
5.0
 40
5.0
 40
5.0
 40
6.0
 40
6.0
 40
6.0
 40
6.0
 10
164.6298423821532
 20
203.8840000017802
 30
0.0
 10
156.6971655178169
 20
211.817021375665
 30
0.0
 10
146.149661180176
 20
216.1859192152845
 30
0.0
 10
134.9305354776857
 20
216.1859192152845
 30
0.0
 10
111.7720868615135
 20
216.1859192152845
 30
0.0
 10
92.93137641700491
 20
197.3452087707759
 30
0.0
 10
92.93137641700491
 20
174.186932409378
 30
0.0
  0
SPLINE
  5
8E37
330
1F
100
AcDbEntity
  8
0
 62
     0
370
    13
100
AcDbSpline
210
0.0
220
0.0
230
1.0
 70
     8
 71
     3
 72
    11
 73
     7
 74
     0
 42
0.000000001
 43
0.0000000001
 40
0.0
 40
0.0
 40
0.0
 40
0.0
 40
1.0
 40
1.0
 40
1.0
 40
2.0
 40
2.0
 40
2.0
 40
2.0
 10
93.43143202668892
 20
174.186932409378
 30
0.0
 10
93.43143202668892
 20
151.3027133938317
 30
0.0
 10
112.0478667551077
 20
132.6850728819931
 30
0.0
 10
134.9305354776857
 20
132.6850728819931
 30
0.0
 10
145.9939428642427
 20
132.6850728819931
 30
0.0
 10
156.4093277900243
 20
137.0079786968845
 30
0.0
 10
164.2581165792948
 20
144.8569397409292
 30
0.0
  0
SPLINE
  5
8E38
330
1F
100
AcDbEntity
  8
0
 62
     0
370
    13
100
AcDbSpline
210
0.0
220
0.0
230
1.0
 70
     8
 71
     3
 72
    11
 73
     7
 74
     0
 42
0.000000001
 43
0.0000000001
 40
2.0
 40
2.0
 40
2.0
 40
2.0
 40
3.0
 40
3.0
 40
3.0
 40
4.0
 40
4.0
 40
4.0
 40
4.0
 10
164.2581165792948
 20
144.8569397409292
 30
0.0
 10
172.1070776233395
 20
152.7059007849739
 30
0.0
 10
176.4296389286825
 20
163.1221469846269
 30
0.0
 10
176.4296389286825
 20
174.186932409378
 30
0.0
 10
176.4296389286825
 20
185.2723884070406
 30
0.0
 10
172.1134510499872
 20
195.6934577403729
 30
0.0
 10
164.2763755853666
 20
203.5303609502192
 30
0.0
  0
SPLINE
  5
8E39
330
1F
100
AcDbEntity
  8
0
 62
     0
370
    13
100
AcDbSpline
210
0.0
220
0.0
230
1.0
 70
     8
 71
     3
 72
    11
 73
     7
 74
     0
 42
0.000000001
 43
0.0000000001
 40
4.0
 40
4.0
 40
4.0
 40
4.0
 40
5.0
 40
5.0
 40
5.0
 40
6.0
 40
6.0
 40
6.0
 40
6.0
 10
164.2763755853666
 20
203.5303609502192
 30
0.0
 10
156.4380943373262
 20
211.3689867078082
 30
0.0
 10
146.0161637301226
 20
215.6858636056004
 30
0.0
 10
134.9305354776857
 20
215.6858636056004
 30
0.0
 10
112.0478667551077
 20
215.6858636056004
 30
0.0
 10
93.43143202668892
 20
197.0696011319559
 30
0.0
 10
93.43143202668892
 20
174.186932409378
 30
0.0
  0
SPLINE
  5
8E3A
330
1F
100
AcDbEntity
  8
0
 62
     0
370
    13
100
AcDbSpline
210
0.0
220
0.0
230
1.0
 70
     8
 71
     3
 72
    11
 73
     7
 74
     0
 42
0.000000001
 43
0.0000000001
 40
0.0
 40
0.0
 40
0.0
 40
0.0
 40
1.0
 40
1.0
 40
1.0
 40
2.0
 40
2.0
 40
2.0
 40
2.0
 10
93.93148763637294
 20
174.186932409378
 30
0.0
 10
93.93148763637294
 20
151.5783210326517
 30
0.0
 10
112.3234743939277
 20
133.1849562369027
 30
0.0
 10
134.9305354776857
 20
133.1849562369027
 30
0.0
 10
145.8601009046408
 20
133.1849562369027
 30
0.0
 10
156.1500843547593
 20
137.455841109967
 30
0.0
 10
163.9044775277339
 20
145.2104065377159
 30
0.0
  0
SPLINE
  5
8E3B
330
1F
100
AcDbEntity
  8
0
 62
     0
370
    13
100
AcDbSpline
210
0.0
220
0.0
230
1.0
 70
     8
 71
     3
 72
    11
 73
     7
 74
     0
 42
0.000000001
 43
0.0000000001
 40
2.0
 40
2.0
 40
2.0
 40
2.0
 40
3.0
 40
3.0
 40
3.0
 40
4.0
 40
4.0
 40
4.0
 40
4.0
 10
163.9044775277339
 20
145.2104065377159
 30
0.0
 10
171.6590429554827
 20
152.9649719654648
 30
0.0
 10
175.9295833189985
 20
163.2556444346802
 30
0.0
 10
175.9295833189985
 20
174.186932409378
 30
0.0
 10
175.9295833189985
 20
185.1387187022129
 30
0.0
 10
171.6655886369047
 20
195.4342143051078
 30
0.0
 10
163.9229087885799
 20
203.1767218986582
 30
0.0
  0
SPLINE
  5
8E3C
330
1F
100
AcDbEntity
  8
0
 62
     0
370
    13
100
AcDbSpline
210
0.0
220
0.0
230
1.0
 70
     8
 71
     3
 72
    11
 73
     7
 74
     0
 42
0.000000001
 43
0.0000000001
 40
4.0
 40
4.0
 40
4.0
 40
4.0
 40
5.0
 40
5.0
 40
5.0
 40
6.0
 40
6.0
 40
6.0
 40
6.0
 10
163.9229087885799
 20
203.1767218986582
 30
0.0
 10
156.1790231568353
 20
210.9209520399514
 30
0.0
 10
145.8826662800692
 20
215.1858079959164
 30
0.0
 10
134.9305354776857
 20
215.1858079959164
 30
0.0
 10
112.3234743939277
 20
215.1858079959164
 30
0.0
 10
93.93148763637294
 20
196.7938212383617
 30
0.0
 10
93.93148763637294
 20
174.186932409378
 30
0.0
  0
SPLINE
  5
8E3D
330
1F
100
AcDbEntity
  8
0
 62
     0
370
    13
100
AcDbSpline
210
0.0
220
0.0
230
1.0
 70
     8
 71
     3
 72
    11
 73
     7
 74
     0
 42
0.000000001
 43
0.0000000001
 40
0.0
 40
0.0
 40
0.0
 40
0.0
 40
1.0
 40
1.0
 40
1.0
 40
2.0
 40
2.0
 40
2.0
 40
2.0
 10
94.43154324605695
 20
174.186932409378
 30
0.0
 10
94.43154324605695
 20
151.8539286714716
 30
0.0
 10
112.599254287522
 20
133.6848395918125
 30
0.0
 10
134.9305354776857
 20
133.6848395918125
 30
0.0
 10
145.7266034545873
 20
133.6848395918125
 30
0.0
 10
155.8908409194942
 20
137.9037035230494
 30
0.0
 10
163.5508384761729
 20
145.5638733345025
 30
0.0
  0
SPLINE
  5
8E3E
330
1F
100
AcDbEntity
  8
0
 62
     0
370
    13
100
AcDbSpline
210
0.0
220
0.0
230
1.0
 70
     8
 71
     3
 72
    11
 73
     7
 74
     0
 42
0.000000001
 43
0.0000000001
 40
2.0
 40
2.0
 40
2.0
 40
2.0
 40
3.0
 40
3.0
 40
3.0
 40
4.0
 40
4.0
 40
4.0
 40
4.0
 10
163.5508384761729
 20
145.5638733345025
 30
0.0
 10
171.211008287626
 20
153.2240431459555
 30
0.0
 10
175.4295277093144
 20
163.3891418847336
 30
0.0
 10
175.4295277093144
 20
174.186932409378
 30
0.0
 10
175.4295277093144
 20
185.0052212521595
 30
0.0
 10
171.217553969048
 20
195.1751431246171
 30
0.0
 10
163.5694419917933
 20
202.8230828470975
 30
0.0
  0
SPLINE
  5
8E3F
330
1F
100
AcDbEntity
  8
0
 62
     0
370
    13
100
AcDbSpline
210
0.0
220
0.0
230
1.0
 70
     8
 71
     3
 72
    11
 73
     7
 74
     0
 42
0.000000001
 43
0.0000000001
 40
4.0
 40
4.0
 40
4.0
 40
4.0
 40
5.0
 40
5.0
 40
5.0
 40
6.0
 40
6.0
 40
6.0
 40
6.0
 10
163.5694419917933
 20
202.8230828470975
 30
0.0
 10
155.9199519763446
 20
210.4729173720946
 30
0.0
 10
145.7491688300157
 20
214.6857523862325
 30
0.0
 10
134.9305354776857
 20
214.6857523862325
 30
0.0
 10
112.599254287522
 20
214.6857523862325
 30
0.0
 10
94.43154324605695
 20
196.5180413447675
 30
0.0
 10
94.43154324605695
 20
174.186932409378
 30
0.0
  0
SPLINE
  5
8E40
330
1F
100
AcDbEntity
  8
0
 62
     0
370
    13
100
AcDbSpline
210
0.0
220
0.0
230
1.0
 70
     8
 71
     3
 72
    11
 73
     7
 74
     0
 42
0.000000001
 43
0.0000000001
 40
0.0
 40
0.0
 40
0.0
 40
0.0
 40
1.0
 40
1.0
 40
1.0
 40
2.0
 40
2.0
 40
2.0
 40
2.0
 10
94.93159885574096
 20
174.186932409378
 30
0.0
 10
94.93159885574096
 20
152.1295363102917
 30
0.0
 10
112.8750341811162
 20
134.1847229467223
 30
0.0
 10
134.9305354776857
 20
134.1847229467223
 30
0.0
 10
145.5929337497597
 20
134.1847229467223
 30
0.0
 10
155.6315974842292
 20
138.3515659361319
 30
0.0
 10
163.1971994246121
 20
145.9173401312891
 30
0.0
  0
SPLINE
  5
8E41
330
1F
100
AcDbEntity
  8
0
 62
     0
370
    13
100
AcDbSpline
210
0.0
220
0.0
230
1.0
 70
     8
 71
     3
 72
    11
 73
     7
 74
     0
 42
0.000000001
 43
0.0000000001
 40
2.0
 40
2.0
 40
2.0
 40
2.0
 40
3.0
 40
3.0
 40
3.0
 40
4.0
 40
4.0
 40
4.0
 40
4.0
 10
163.1971994246121
 20
145.9173401312891
 30
0.0
 10
170.7629736197692
 20
153.4831143264462
 30
0.0
 10
174.9294720996303
 20
163.5226393347871
 30
0.0
 10
174.9294720996303
 20
174.186932409378
 30
0.0
 10
174.9294720996303
 20
184.871723802106
 30
0.0
 10
170.7695193011912
 20
194.9160719441263
 30
0.0
 10
163.2159751950067
 20
202.4694437955366
 30
0.0
  0
SPLINE
  5
8E42
330
1F
100
AcDbEntity
  8
0
 62
     0
370
    13
100
AcDbSpline
210
0.0
220
0.0
230
1.0
 70
     8
 71
     3
 72
    11
 73
     7
 74
     0
 42
0.000000001
 43
0.0000000001
 40
4.0
 40
4.0
 40
4.0
 40
4.0
 40
5.0
 40
5.0
 40
5.0
 40
6.0
 40
6.0
 40
6.0
 40
6.0
 10
163.2159751950067
 20
202.4694437955366
 30
0.0
 10
155.6608807958538
 20
210.0248827042379
 30
0.0
 10
145.6156713799623
 20
214.1856967765485
 30
0.0
 10
134.9305354776857
 20
214.1856967765485
 30
0.0
 10
112.8750341811162
 20
214.1856967765485
 30
0.0
 10
94.93159885574096
 20
196.2424337059475
 30
0.0
 10
94.93159885574096
 20
174.186932409378
 30
0.0
  0
SPLINE
  5
8E43
330
1F
100
AcDbEntity
  8
0
 62
     0
370
    13
100
AcDbSpline
210
0.0
220
0.0
230
1.0
 70
     8
 71
     3
 72
    11
 73
     7
 74
     0
 42
0.000000001
 43
0.0000000001
 40
0.0
 40
0.0
 40
0.0
 40
0.0
 40
1.0
 40
1.0
 40
1.0
 40
2.0
 40
2.0
 40
2.0
 40
2.0
 10
95.43165446542498
 20
174.186932409378
 30
0.0
 10
95.43165446542498
 20
152.4054884586602
 30
0.0
 10
113.1508140747105
 20
134.684606301632
 30
0.0
 10
134.9305354776857
 20
134.684606301632
 30
0.0
 10
145.459264044932
 20
134.684606301632
 30
0.0
 10
155.3723540489641
 20
138.7994283492145
 30
0.0
 10
162.8435603730512
 20
146.2708069280758
 30
0.0
  0
SPLINE
  5
8E44
330
1F
100
AcDbEntity
  8
0
 62
     0
370
    13
100
AcDbSpline
210
0.0
220
0.0
230
1.0
 70
     8
 71
     3
 72
    11
 73
     7
 74
     0
 42
0.000000001
 43
0.0000000001
 40
2.0
 40
2.0
 40
2.0
 40
2.0
 40
3.0
 40
3.0
 40
3.0
 40
4.0
 40
4.0
 40
4.0
 40
4.0
 10
162.8435603730512
 20
146.2708069280758
 30
0.0
 10
170.3149389519125
 20
153.7421855069371
 30
0.0
 10
174.4294164899464
 20
163.6563090396148
 30
0.0
 10
174.4294164899464
 20
174.186932409378
 30
0.0
 10
174.4294164899464
 20
184.7382263520527
 30
0.0
 10
170.3214846333345
 20
194.6570007636354
 30
0.0
 10
162.86250839822
 20
202.1158047439757
 30
0.0
  0
SPLINE
  5
8E45
330
1F
100
AcDbEntity
  8
0
 62
     0
370
    13
100
AcDbSpline
210
0.0
220
0.0
230
1.0
 70
     8
 71
     3
 72
    11
 73
     7
 74
     0
 42
0.000000001
 43
0.0000000001
 40
4.0
 40
4.0
 40
4.0
 40
4.0
 40
5.0
 40
5.0
 40
5.0
 40
6.0
 40
6.0
 40
6.0
 40
6.0
 10
162.86250839822
 20
202.1158047439757
 30
0.0
 10
155.401809615363
 20
209.5768480363811
 30
0.0
 10
145.4821739299089
 20
213.6856411668645
 30
0.0
 10
134.9305354776857
 20
213.6856411668645
 30
0.0
 10
113.1508140747105
 20
213.6856411668645
 30
0.0
 10
95.43165446542498
 20
195.9666538123532
 30
0.0
 10
95.43165446542498
 20
174.186932409378
 30
0.0
  0
SPLINE
  5
8E46
330
1F
100
AcDbEntity
  8
0
 62
     0
370
    13
100
AcDbSpline
210
0.0
220
0.0
230
1.0
 70
     8
 71
     3
 72
    17
 73
    13
 74
     0
 42
0.000000001
 43
0.0000000001
 40
0.0
 40
0.0
 40
0.0
 40
0.0
 40
1.0
 40
1.0
 40
1.0
 40
2.0
 40
2.0
 40
2.0
 40
3.0
 40
3.0
 40
3.0
 40
4.0
 40
4.0
 40
4.0
 40
4.0
 10
95.93171007510898
 20
174.186932409378
 30
0.0
 10
95.93171007510898
 20
152.6810960974801
 30
0.0
 10
113.4264217135305
 20
135.1844896565418
 30
0.0
 10
134.9305354776857
 20
135.1844896565418
 30
0.0
 10
145.3255943401043
 20
135.1844896565418
 30
0.0
 10
155.1131106136991
 20
139.2472907622969
 30
0.0
 10
162.4899213214903
 20
146.6242737248624
 30
0.0
 10
169.8667320292815
 20
154.0012566874278
 30
0.0
 10
173.9293608802624
 20
163.7898064896683
 30
0.0
 10
173.9293608802624
 20
174.186932409378
 30
0.0
 10
173.9293608802624
 20
184.6047289019992
 30
0.0
 10
169.873622220252
 20
194.3977573283705
 30
0.0
 10
162.5090416014334
 20
201.7621656924147
 30
0.0
  0
SPLINE
  5
8E47
330
1F
100
AcDbEntity
  8
0
 62
     0
370
    13
100
AcDbSpline
210
0.0
220
0.0
230
1.0
 70
     8
 71
     3
 72
    11
 73
     7
 74
     0
 42
0.000000001
 43
0.0000000001
 40
4.0
 40
4.0
 40
4.0
 40
4.0
 40
5.0
 40
5.0
 40
5.0
 40
6.0
 40
6.0
 40
6.0
 40
6.0
 10
162.5090416014334
 20
201.7621656924147
 30
0.0
 10
155.1427384348722
 20
209.1288133685244
 30
0.0
 10
145.3486764798554
 20
213.1855855571803
 30
0.0
 10
134.9305354776857
 20
213.1855855571803
 30
0.0
 10
113.4264217135305
 20
213.1855855571803
 30
0.0
 10
95.93171007510898
 20
195.6908739187589
 30
0.0
 10
95.93171007510898
 20
174.186932409378
 30
0.0
  0
SPLINE
  5
8E48
330
1F
100
AcDbEntity
  8
0
 62
     0
370
    13
100
AcDbSpline
210
0.0
220
0.0
230
1.0
 70
     8
 71
     3
 72
    17
 73
    13
 74
     0
 42
0.000000001
 43
0.0000000001
 40
0.0
 40
0.0
 40
0.0
 40
0.0
 40
1.0
 40
1.0
 40
1.0
 40
2.0
 40
2.0
 40
2.0
 40
3.0
 40
3.0
 40
3.0
 40
4.0
 40
4.0
 40
4.0
 40
4.0
 10
96.43176568479299
 20
174.186932409378
 30
0.0
 10
96.43176568479299
 20
152.9567037363001
 30
0.0
 10
113.7022016071247
 20
135.6843730114515
 30
0.0
 10
134.9305354776857
 20
135.6843730114515
 30
0.0
 10
145.1920968900508
 20
135.6843730114515
 30
0.0
 10
154.853867178434
 20
139.6951531753794
 30
0.0
 10
162.1362822699294
 20
146.977740521649
 30
0.0
 10
169.4186973614247
 20
154.2603278679186
 30
0.0
 10
173.4293052705784
 20
163.9234761944959
 30
0.0
 10
173.4293052705784
 20
174.186932409378
 30
0.0
 10
173.4293052705784
 20
184.4712314519458
 30
0.0
 10
169.4255875523953
 20
194.1386861478796
 30
0.0
 10
162.1555748046468
 20
201.4085266408538
 30
0.0
  0
SPLINE
  5
8E49
330
1F
100
AcDbEntity
  8
0
 62
     0
370
    13
100
AcDbSpline
210
0.0
220
0.0
230
1.0
 70
     8
 71
     3
 72
    11
 73
     7
 74
     0
 42
0.000000001
 43
0.0000000001
 40
4.0
 40
4.0
 40
4.0
 40
4.0
 40
5.0
 40
5.0
 40
5.0
 40
6.0
 40
6.0
 40
6.0
 40
6.0
 10
162.1555748046468
 20
201.4085266408538
 30
0.0
 10
154.8836672543814
 20
208.6806064458934
 30
0.0
 10
145.2150067750277
 20
212.6855299474964
 30
0.0
 10
134.9305354776857
 20
212.6855299474964
 30
0.0
 10
113.7022016071247
 20
212.6855299474964
 30
0.0
 10
96.43176568479299
 20
195.4150940251646
 30
0.0
 10
96.43176568479299
 20
174.186932409378
 30
0.0
  0
SPLINE
  5
8E4A
330
1F
100
AcDbEntity
  8
0
 62
     0
370
    13
100
AcDbSpline
210
0.0
220
0.0
230
1.0
 70
     8
 71
     3
 72
    17
 73
    13
 74
     0
 42
0.000000001
 43
0.0000000001
 40
0.0
 40
0.0
 40
0.0
 40
0.0
 40
1.0
 40
1.0
 40
1.0
 40
2.0
 40
2.0
 40
2.0
 40
3.0
 40
3.0
 40
3.0
 40
4.0
 40
4.0
 40
4.0
 40
4.0
 10
96.93182129447702
 20
174.186932409378
 30
0.0
 10
96.93182129447702
 20
153.2323113751202
 30
0.0
 10
113.977981500719
 20
136.1842563663613
 30
0.0
 10
134.9305354776857
 20
136.1842563663613
 30
0.0
 10
145.0584271852231
 20
136.1842563663613
 30
0.0
 10
154.5946237431689
 20
140.1430155884619
 30
0.0
 10
161.7826432183685
 20
147.3312073184356
 30
0.0
 10
168.970662693568
 20
154.5193990484095
 30
0.0
 10
172.9292496608943
 20
164.0569736445494
 30
0.0
 10
172.9292496608943
 20
174.186932409378
 30
0.0
 10
172.9292496608943
 20
184.3377340018923
 30
0.0
 10
168.9775528845385
 20
193.8796149673889
 30
0.0
 10
161.8021080078601
 20
201.0548875892929
 30
0.0
  0
SPLINE
  5
8E4B
330
1F
100
AcDbEntity
  8
0
 62
     0
370
    13
100
AcDbSpline
210
0.0
220
0.0
230
1.0
 70
     8
 71
     3
 72
    11
 73
     7
 74
     0
 42
0.000000001
 43
0.0000000001
 40
4.0
 40
4.0
 40
4.0
 40
4.0
 40
5.0
 40
5.0
 40
5.0
 40
6.0
 40
6.0
 40
6.0
 40
6.0
 10
161.8021080078601
 20
201.0548875892929
 30
0.0
 10
154.6245960738906
 20
208.2325717780366
 30
0.0
 10
145.0813370702
 20
212.1854743378124
 30
0.0
 10
134.9305354776857
 20
212.1854743378124
 30
0.0
 10
113.977981500719
 20
212.1854743378124
 30
0.0
 10
96.93182129447702
 20
195.1394863863446
 30
0.0
 10
96.93182129447702
 20
174.186932409378
 30
0.0
  0
SPLINE
  5
8E4C
330
1F
100
AcDbEntity
  8
0
 62
     0
370
    13
100
AcDbSpline
210
0.0
220
0.0
230
1.0
 70
     8
 71
     3
 72
    11
 73
     7
 74
     0
 42
0.000000001
 43
0.0000000001
 40
0.0
 40
0.0
 40
0.0
 40
0.0
 40
1.0
 40
1.0
 40
1.0
 40
2.0
 40
2.0
 40
2.0
 40
2.0
 10
97.43187690416103
 20
174.186932409378
 30
0.0
 10
97.43187690416103
 20
153.5079190139401
 30
0.0
 10
114.2535891395389
 20
136.684139721271
 30
0.0
 10
134.9305354776857
 20
136.684139721271
 30
0.0
 10
144.9247574803954
 20
136.684139721271
 30
0.0
 10
154.3355525626782
 20
140.5908780015444
 30
0.0
 10
161.4290041668076
 20
147.6846741152223
 30
0.0
  0
SPLINE
  5
8E4D
330
1F
100
AcDbEntity
  8
0
 62
     0
370
    13
100
AcDbSpline
210
0.0
220
0.0
230
1.0
 70
     8
 71
     3
 72
    11
 73
     7
 74
     0
 42
0.000000001
 43
0.0000000001
 40
2.0
 40
2.0
 40
2.0
 40
2.0
 40
3.0
 40
3.0
 40
3.0
 40
4.0
 40
4.0
 40
4.0
 40
4.0
 10
161.4290041668076
 20
147.6846741152223
 30
0.0
 10
168.5226280257113
 20
154.7784702289002
 30
0.0
 10
172.4291940512103
 20
164.1904710946027
 30
0.0
 10
172.4291940512103
 20
174.186932409378
 30
0.0
 10
172.4291940512103
 20
184.204236551839
 30
0.0
 10
168.5295182166818
 20
193.6205437868981
 30
0.0
 10
161.4486412110735
 20
200.7012485377321
 30
0.0
  0
SPLINE
  5
8E4E
330
1F
100
AcDbEntity
  8
0
 62
     0
370
    13
100
AcDbSpline
210
0.0
220
0.0
230
1.0
 70
     8
 71
     3
 72
    11
 73
     7
 74
     0
 42
0.000000001
 43
0.0000000001
 40
4.0
 40
4.0
 40
4.0
 40
4.0
 40
5.0
 40
5.0
 40
5.0
 40
6.0
 40
6.0
 40
6.0
 40
6.0
 10
161.4486412110735
 20
200.7012485377321
 30
0.0
 10
154.3655248933999
 20
207.7845371101799
 30
0.0
 10
144.9478396201466
 20
211.6854187281284
 30
0.0
 10
134.9305354776857
 20
211.6854187281284
 30
0.0
 10
114.2535891395389
 20
211.6854187281284
 30
0.0
 10
97.43187690416103
 20
194.8637064927505
 30
0.0
 10
97.43187690416103
 20
174.186932409378
 30
0.0
  0
SPLINE
  5
8E4F
330
1F
100
AcDbEntity
  8
0
 62
     0
370
    13
100
AcDbSpline
210
0.0
220
0.0
230
1.0
 70
     8
 71
     3
 72
    11
 73
     7
 74
     0
 42
0.000000001
 43
0.0000000001
 40
0.0
 40
0.0
 40
0.0
 40
0.0
 40
1.0
 40
1.0
 40
1.0
 40
2.0
 40
2.0
 40
2.0
 40
2.0
 10
97.93193251384506
 20
174.186932409378
 30
0.0
 10
97.93193251384506
 20
153.7835266527601
 30
0.0
 10
114.5293690331332
 20
137.1840230761808
 30
0.0
 10
134.9305354776857
 20
137.1840230761808
 30
0.0
 10
144.791260030342
 20
137.1840230761808
 30
0.0
 10
154.0764813821874
 20
141.0387404146268
 30
0.0
 10
161.0753651152467
 20
148.0381409120089
 30
0.0
  0
SPLINE
  5
8E50
330
1F
100
AcDbEntity
  8
0
 62
     0
370
    13
100
AcDbSpline
210
0.0
220
0.0
230
1.0
 70
     8
 71
     3
 72
    11
 73
     7
 74
     0
 42
0.000000001
 43
0.0000000001
 40
2.0
 40
2.0
 40
2.0
 40
2.0
 40
3.0
 40
3.0
 40
3.0
 40
4.0
 40
4.0
 40
4.0
 40
4.0
 10
161.0753651152467
 20
148.0381409120089
 30
0.0
 10
168.0745933578545
 20
155.0375414093911
 30
0.0
 10
171.9291384415263
 20
164.3239685446563
 30
0.0
 10
171.9291384415263
 20
174.186932409378
 30
0.0
 10
171.9291384415263
 20
184.0705668470113
 30
0.0
 10
168.081483548825
 20
193.3613003516331
 30
0.0
 10
161.0951744142869
 20
200.3476094861712
 30
0.0
  0
SPLINE
  5
8E51
330
1F
100
AcDbEntity
  8
0
 62
     0
370
    13
100
AcDbSpline
210
0.0
220
0.0
230
1.0
 70
     8
 71
     3
 72
    11
 73
     7
 74
     0
 42
0.000000001
 43
0.0000000001
 40
4.0
 40
4.0
 40
4.0
 40
4.0
 40
5.0
 40
5.0
 40
5.0
 40
6.0
 40
6.0
 40
6.0
 40
6.0
 10
161.0951744142869
 20
200.3476094861712
 30
0.0
 10
154.1064537129091
 20
207.3365024423233
 30
0.0
 10
144.8143421700932
 20
211.1853631184443
 30
0.0
 10
134.9305354776857
 20
211.1853631184443
 30
0.0
 10
114.5293690331332
 20
211.1853631184443
 30
0.0
 10
97.93193251384506
 20
194.5879265991563
 30
0.0
 10
97.93193251384506
 20
174.186932409378
 30
0.0
  0
SPLINE
  5
8E52
330
1F
100
AcDbEntity
  8
0
 62
     0
370
    13
100
AcDbSpline
210
0.0
220
0.0
230
1.0
 70
     8
 71
     3
 72
    11
 73
     7
 74
     0
 42
0.000000001
 43
0.0000000001
 40
0.0
 40
0.0
 40
0.0
 40
0.0
 40
1.0
 40
1.0
 40
1.0
 40
2.0
 40
2.0
 40
2.0
 40
2.0
 10
98.43198812352907
 20
174.186932409378
 30
0.0
 10
98.43198812352907
 20
154.0591342915801
 30
0.0
 10
114.8051489267274
 20
137.6839064310905
 30
0.0
 10
134.9305354776857
 20
137.6839064310905
 30
0.0
 10
144.6579348350629
 20
137.6839064310905
 30
0.0
 10
153.8174102016966
 20
141.4866028277093
 30
0.0
 10
160.7217260636858
 20
148.3916077087956
 30
0.0
  0
SPLINE
  5
8E53
330
1F
100
AcDbEntity
  8
0
 62
     0
370
    13
100
AcDbSpline
210
0.0
220
0.0
230
1.0
 70
     8
 71
     3
 72
    11
 73
     7
 74
     0
 42
0.000000001
 43
0.0000000001
 40
2.0
 40
2.0
 40
2.0
 40
2.0
 40
3.0
 40
3.0
 40
3.0
 40
4.0
 40
4.0
 40
4.0
 40
4.0
 10
160.7217260636858
 20
148.3916077087956
 30
0.0
 10
167.6265586899978
 20
155.2966125898818
 30
0.0
 10
171.4290828318423
 20
164.4574659947097
 30
0.0
 10
171.4290828318423
 20
174.186932409378
 30
0.0
 10
171.4290828318423
 20
183.9368971421836
 30
0.0
 10
167.6336211357425
 20
193.1020569163679
 30
0.0
 10
160.741535362726
 20
199.9939704346103
 30
0.0
  0
SPLINE
  5
8E54
330
1F
100
AcDbEntity
  8
0
 62
     0
370
    13
100
AcDbSpline
210
0.0
220
0.0
230
1.0
 70
     8
 71
     3
 72
    11
 73
     7
 74
     0
 42
0.000000001
 43
0.0000000001
 40
4.0
 40
4.0
 40
4.0
 40
4.0
 40
5.0
 40
5.0
 40
5.0
 40
6.0
 40
6.0
 40
6.0
 40
6.0
 10
160.741535362726
 20
199.9939704346103
 30
0.0
 10
153.8473825324183
 20
206.8884677744664
 30
0.0
 10
144.6808447200398
 20
210.6853075087603
 30
0.0
 10
134.9305354776857
 20
210.6853075087603
 30
0.0
 10
114.8051489267274
 20
210.6853075087603
 30
0.0
 10
98.43198812352907
 20
194.3123189603363
 30
0.0
 10
98.43198812352907
 20
174.186932409378
 30
0.0
  0
SPLINE
  5
8E55
330
1F
100
AcDbEntity
  8
0
 62
     0
370
    13
100
AcDbSpline
210
0.0
220
0.0
230
1.0
 70
     8
 71
     3
 72
    11
 73
     7
 74
     0
 42
0.000000001
 43
0.0000000001
 40
0.0
 40
0.0
 40
0.0
 40
0.0
 40
1.0
 40
1.0
 40
1.0
 40
2.0
 40
2.0
 40
2.0
 40
2.0
 10
98.93204373321308
 20
174.186932409378
 30
0.0
 10
98.93204373321308
 20
154.3347419304001
 30
0.0
 10
115.0809288203217
 20
138.1837897860003
 30
0.0
 10
134.9305354776857
 20
138.1837897860003
 30
0.0
 10
144.5244373850094
 20
138.1837897860003
 30
0.0
 10
153.5583390212058
 20
141.9344652407918
 30
0.0
 10
160.3680870121249
 20
148.7450745055822
 30
0.0
  0
SPLINE
  5
8E56
330
1F
100
AcDbEntity
  8
0
 62
     0
370
    13
100
AcDbSpline
210
0.0
220
0.0
230
1.0
 70
     8
 71
     3
 72
    11
 73
     7
 74
     0
 42
0.000000001
 43
0.0000000001
 40
2.0
 40
2.0
 40
2.0
 40
2.0
 40
3.0
 40
3.0
 40
3.0
 40
4.0
 40
4.0
 40
4.0
 40
4.0
 10
160.3680870121249
 20
148.7450745055822
 30
0.0
 10
167.178524022141
 20
155.5556837703725
 30
0.0
 10
170.9290272221583
 20
164.590963444763
 30
0.0
 10
170.9290272221583
 20
174.186932409378
 30
0.0
 10
170.9290272221583
 20
183.8035719469044
 30
0.0
 10
167.1855864678858
 20
192.8429857358772
 30
0.0
 10
160.3878963111651
 20
199.6403313830493
 30
0.0
  0
SPLINE
  5
8E57
330
1F
100
AcDbEntity
  8
0
 62
     0
370
    13
100
AcDbSpline
210
0.0
220
0.0
230
1.0
 70
     8
 71
     3
 72
    11
 73
     7
 74
     0
 42
0.000000001
 43
0.0000000001
 40
4.0
 40
4.0
 40
4.0
 40
4.0
 40
5.0
 40
5.0
 40
5.0
 40
6.0
 40
6.0
 40
6.0
 40
6.0
 10
160.3878963111651
 20
199.6403313830493
 30
0.0
 10
153.5883113519275
 20
206.4404331066098
 30
0.0
 10
144.5473472699863
 20
210.1852518990764
 30
0.0
 10
134.9305354776857
 20
210.1852518990764
 30
0.0
 10
115.0809288203217
 20
210.1852518990764
 30
0.0
 10
98.93204373321308
 20
194.036539066742
 30
0.0
 10
98.93204373321308
 20
174.186932409378
 30
0.0
  0
SPLINE
  5
8E58
330
1F
100
AcDbEntity
  8
0
 62
     0
370
    13
100
AcDbSpline
210
0.0
220
0.0
230
1.0
 70
     8
 71
     3
 72
    11
 73
     7
 74
     0
 42
0.000000001
 43
0.0000000001
 40
0.0
 40
0.0
 40
0.0
 40
0.0
 40
1.0
 40
1.0
 40
1.0
 40
2.0
 40
2.0
 40
2.0
 40
2.0
 10
99.43209934289709
 20
174.186932409378
 30
0.0
 10
99.43209934289709
 20
154.61034956922
 30
0.0
 10
115.3565364591417
 20
138.6836731409101
 30
0.0
 10
134.9305354776857
 20
138.6836731409101
 30
0.0
 10
144.390939934956
 20
138.6836731409101
 30
0.0
 10
153.299267840715
 20
142.3826721634228
 30
0.0
 10
160.014447960564
 20
149.0985413023688
 30
0.0
  0
SPLINE
  5
8E59
330
1F
100
AcDbEntity
  8
0
 62
     0
370
    13
100
AcDbSpline
210
0.0
220
0.0
230
1.0
 70
     8
 71
     3
 72
    11
 73
     7
 74
     0
 42
0.000000001
 43
0.0000000001
 40
2.0
 40
2.0
 40
2.0
 40
2.0
 40
3.0
 40
3.0
 40
3.0
 40
4.0
 40
4.0
 40
4.0
 40
4.0
 10
160.014447960564
 20
149.0985413023688
 30
0.0
 10
166.7304893542843
 20
155.8147549508633
 30
0.0
 10
170.4289716124742
 20
164.7244608948164
 30
0.0
 10
170.4289716124742
 20
174.186932409378
 30
0.0
 10
170.4289716124742
 20
183.6700744968509
 30
0.0
 10
166.7373795452548
 20
192.5839145553863
 30
0.0
 10
160.0344295143784
 20
199.2866923314884
 30
0.0
  0
SPLINE
  5
8E5A
330
1F
100
AcDbEntity
  8
0
 62
     0
370
    13
100
AcDbSpline
210
0.0
220
0.0
230
1.0
 70
     8
 71
     3
 72
    11
 73
     7
 74
     0
 42
0.000000001
 43
0.0000000001
 40
4.0
 40
4.0
 40
4.0
 40
4.0
 40
5.0
 40
5.0
 40
5.0
 40
6.0
 40
6.0
 40
6.0
 40
6.0
 10
160.0344295143784
 20
199.2866923314884
 30
0.0
 10
153.3292401714367
 20
205.992398438753
 30
0.0
 10
144.4138498199329
 20
209.6851962893923
 30
0.0
 10
134.9305354776857
 20
209.6851962893923
 30
0.0
 10
115.3565364591417
 20
209.6851962893923
 30
0.0
 10
99.43209934289709
 20
193.7607591731477
 30
0.0
 10
99.43209934289709
 20
174.186932409378
 30
0.0
  0
SPLINE
  5
8E5B
330
1F
100
AcDbEntity
  8
0
 62
     0
370
    13
100
AcDbSpline
210
0.0
220
0.0
230
1.0
 70
     8
 71
     3
 72
    11
 73
     7
 74
     0
 42
0.000000001
 43
0.0000000001
 40
0.0
 40
0.0
 40
0.0
 40
0.0
 40
1.0
 40
1.0
 40
1.0
 40
2.0
 40
2.0
 40
2.0
 40
2.0
 10
99.9321549525811
 20
174.186932409378
 30
0.0
 10
99.9321549525811
 20
154.8859572080401
 30
0.0
 10
115.6323163527359
 20
139.1835564958198
 30
0.0
 10
134.9305354776857
 20
139.1835564958198
 30
0.0
 10
144.257097975354
 20
139.1835564958198
 30
0.0
 10
153.0398521506757
 20
142.8305345765053
 30
0.0
 10
159.6608089090031
 20
149.4520080991555
 30
0.0
  0
SPLINE
  5
8E5C
330
1F
100
AcDbEntity
  8
0
 62
     0
370
    13
100
AcDbSpline
210
0.0
220
0.0
230
1.0
 70
     8
 71
     3
 72
    11
 73
     7
 74
     0
 42
0.000000001
 43
0.0000000001
 40
2.0
 40
2.0
 40
2.0
 40
2.0
 40
3.0
 40
3.0
 40
3.0
 40
4.0
 40
4.0
 40
4.0
 40
4.0
 10
159.6608089090031
 20
149.4520080991555
 30
0.0
 10
166.2822824316533
 20
156.0736538765798
 30
0.0
 10
169.9289160027902
 20
164.8581305996441
 30
0.0
 10
169.9289160027902
 20
174.186932409378
 30
0.0
 10
169.9289160027902
 20
183.5364047920232
 30
0.0
 10
166.2895171321723
 20
192.3246711201214
 30
0.0
 10
159.6809627175918
 20
198.9330532799275
 30
0.0
  0
SPLINE
  5
8E5D
330
1F
100
AcDbEntity
  8
0
 62
     0
370
    13
100
AcDbSpline
210
0.0
220
0.0
230
1.0
 70
     8
 71
     3
 72
    11
 73
     7
 74
     0
 42
0.000000001
 43
0.0000000001
 40
4.0
 40
4.0
 40
4.0
 40
4.0
 40
5.0
 40
5.0
 40
5.0
 40
6.0
 40
6.0
 40
6.0
 40
6.0
 10
159.6809627175918
 20
198.9330532799275
 30
0.0
 10
153.0701689909459
 20
205.5443637708963
 30
0.0
 10
144.2803523698795
 20
209.1851406797082
 30
0.0
 10
134.9305354776857
 20
209.1851406797082
 30
0.0
 10
115.6323163527359
 20
209.1851406797082
 30
0.0
 10
99.9321549525811
 20
193.4849792795534
 30
0.0
 10
99.9321549525811
 20
174.186932409378
 30
0.0
  0
SPLINE
  5
8E5E
330
1F
100
AcDbEntity
  8
0
 62
     0
370
    13
100
AcDbSpline
210
0.0
220
0.0
230
1.0
 70
     8
 71
     3
 72
    11
 73
     7
 74
     0
 42
0.000000001
 43
0.0000000001
 40
0.0
 40
0.0
 40
0.0
 40
0.0
 40
1.0
 40
1.0
 40
1.0
 40
2.0
 40
2.0
 40
2.0
 40
2.0
 10
100.4322105622651
 20
174.186932409378
 30
0.0
 10
100.4322105622651
 20
155.16156484686
 30
0.0
 10
115.9080962463302
 20
139.6834398507295
 30
0.0
 10
134.9305354776857
 20
139.6834398507295
 30
0.0
 10
144.1232560157521
 20
139.6834398507295
 30
0.0
 10
152.7804364606364
 20
143.2783969895877
 30
0.0
 10
159.3071698574422
 20
149.8054748959421
 30
0.0
  0
SPLINE
  5
8E5F
330
1F
100
AcDbEntity
  8
0
 62
     0
370
    13
100
AcDbSpline
210
0.0
220
0.0
230
1.0
 70
     8
 71
     3
 72
    11
 73
     7
 74
     0
 42
0.000000001
 43
0.0000000001
 40
2.0
 40
2.0
 40
2.0
 40
2.0
 40
3.0
 40
3.0
 40
3.0
 40
4.0
 40
4.0
 40
4.0
 40
4.0
 10
159.3071698574422
 20
149.8054748959421
 30
0.0
 10
165.8342477637966
 20
156.3327250570707
 30
0.0
 10
169.4288603931062
 20
164.9916280496976
 30
0.0
 10
169.4288603931062
 20
174.186932409378
 30
0.0
 10
169.4288603931062
 20
183.4029073419699
 30
0.0
 10
165.8414824643156
 20
192.0655999396305
 30
0.0
 10
159.3274959208052
 20
198.5794142283667
 30
0.0
  0
SPLINE
  5
8E60
330
1F
100
AcDbEntity
  8
0
 62
     0
370
    13
100
AcDbSpline
210
0.0
220
0.0
230
1.0
 70
     8
 71
     3
 72
    11
 73
     7
 74
     0
 42
0.000000001
 43
0.0000000001
 40
4.0
 40
4.0
 40
4.0
 40
4.0
 40
5.0
 40
5.0
 40
5.0
 40
6.0
 40
6.0
 40
6.0
 40
6.0
 10
159.3274959208052
 20
198.5794142283667
 30
0.0
 10
152.8112700652294
 20
205.0961568482653
 30
0.0
 10
144.146854919826
 20
208.6850850700242
 30
0.0
 10
134.9305354776857
 20
208.6850850700242
 30
0.0
 10
115.9080962463302
 20
208.6850850700242
 30
0.0
 10
100.4322105622651
 20
193.2093716407335
 30
0.0
 10
100.4322105622651
 20
174.186932409378
 30
0.0
  0
SPLINE
  5
8E61
330
1F
100
AcDbEntity
  8
0
 62
     0
370
    13
100
AcDbSpline
210
0.0
220
0.0
230
1.0
 70
     8
 71
     3
 72
    11
 73
     7
 74
     0
 42
0.000000001
 43
0.0000000001
 40
0.0
 40
0.0
 40
0.0
 40
0.0
 40
1.0
 40
1.0
 40
1.0
 40
2.0
 40
2.0
 40
2.0
 40
2.0
 10
100.9322661719491
 20
174.186932409378
 30
0.0
 10
100.9322661719491
 20
155.4373447404543
 30
0.0
 10
116.1838761399244
 20
140.1833232056393
 30
0.0
 10
134.9305354776857
 20
140.1833232056393
 30
0.0
 10
143.9895863109244
 20
140.1833232056393
 30
0.0
 10
152.5210207705971
 20
143.7262594026702
 30
0.0
 10
158.9535308058813
 20
150.1589416927287
 30
0.0
  0
SPLINE
  5
8E62
330
1F
100
AcDbEntity
  8
0
 62
     0
370
    13
100
AcDbSpline
210
0.0
220
0.0
230
1.0
 70
     8
 71
     3
 72
    11
 73
     7
 74
     0
 42
0.000000001
 43
0.0000000001
 40
2.0
 40
2.0
 40
2.0
 40
2.0
 40
3.0
 40
3.0
 40
3.0
 40
4.0
 40
4.0
 40
4.0
 40
4.0
 10
158.9535308058813
 20
150.1589416927287
 30
0.0
 10
165.3862130959398
 20
156.5917962375614
 30
0.0
 10
168.9288047834222
 20
165.1251254997511
 30
0.0
 10
168.9288047834222
 20
174.186932409378
 30
0.0
 10
168.9288047834222
 20
183.2692376371422
 30
0.0
 10
165.3934477964588
 20
191.8065287591398
 30
0.0
 10
158.9740291240186
 20
198.2257751768058
 30
0.0
  0
SPLINE
  5
8E63
330
1F
100
AcDbEntity
  8
0
 62
     0
370
    13
100
AcDbSpline
210
0.0
220
0.0
230
1.0
 70
     8
 71
     3
 72
    11
 73
     7
 74
     0
 42
0.000000001
 43
0.0000000001
 40
4.0
 40
4.0
 40
4.0
 40
4.0
 40
5.0
 40
5.0
 40
5.0
 40
6.0
 40
6.0
 40
6.0
 40
6.0
 10
158.9740291240186
 20
198.2257751768058
 30
0.0
 10
152.5521988847386
 20
204.6481221804086
 30
0.0
 10
144.0133574697726
 20
208.1850294603403
 30
0.0
 10
134.9305354776857
 20
208.1850294603403
 30
0.0
 10
116.1838761399244
 20
208.1850294603403
 30
0.0
 10
100.9322661719491
 20
192.9335917471392
 30
0.0
 10
100.9322661719491
 20
174.186932409378
 30
0.0
  0
SPLINE
  5
8E64
330
1F
100
AcDbEntity
  8
0
 62
     0
370
    13
100
AcDbSpline
210
0.0
220
0.0
230
1.0
 70
     8
 71
     3
 72
    11
 73
     7
 74
     0
 42
0.000000001
 43
0.0000000001
 40
0.0
 40
0.0
 40
0.0
 40
0.0
 40
1.0
 40
1.0
 40
1.0
 40
2.0
 40
2.0
 40
2.0
 40
2.0
 10
101.4323217816331
 20
174.186932409378
 30
0.0
 10
101.4323217816331
 20
155.7129523792743
 30
0.0
 10
116.4594837787444
 20
140.683206560549
 30
0.0
 10
134.9305354776857
 20
140.683206560549
 30
0.0
 10
143.8557443513224
 20
140.683206560549
 30
0.0
 10
152.261777335332
 20
144.1741218157527
 30
0.0
 10
158.5998917543204
 20
150.5124084895153
 30
0.0
  0
SPLINE
  5
8E65
330
1F
100
AcDbEntity
  8
0
 62
     0
370
    13
100
AcDbSpline
210
0.0
220
0.0
230
1.0
 70
     8
 71
     3
 72
    11
 73
     7
 74
     0
 42
0.000000001
 43
0.0000000001
 40
2.0
 40
2.0
 40
2.0
 40
2.0
 40
3.0
 40
3.0
 40
3.0
 40
4.0
 40
4.0
 40
4.0
 40
4.0
 10
158.5998917543204
 20
150.5124084895153
 30
0.0
 10
164.9381784280831
 20
156.8508674180522
 30
0.0
 10
168.4287491737382
 20
165.2586229498045
 30
0.0
 10
168.4287491737382
 20
174.186932409378
 30
0.0
 10
168.4287491737382
 20
183.1357401870886
 30
0.0
 10
164.9454131286021
 20
191.547457578649
 30
0.0
 10
158.6205623272319
 20
197.8721361252449
 30
0.0
  0
SPLINE
  5
8E66
330
1F
100
AcDbEntity
  8
0
 62
     0
370
    13
100
AcDbSpline
210
0.0
220
0.0
230
1.0
 70
     8
 71
     3
 72
    11
 73
     7
 74
     0
 42
0.000000001
 43
0.0000000001
 40
4.0
 40
4.0
 40
4.0
 40
4.0
 40
5.0
 40
5.0
 40
5.0
 40
6.0
 40
6.0
 40
6.0
 40
6.0
 10
158.6205623272319
 20
197.8721361252449
 30
0.0
 10
152.2931277042478
 20
204.2000875125518
 30
0.0
 10
143.8798600197192
 20
207.6849738506563
 30
0.0
 10
134.9305354776857
 20
207.6849738506563
 30
0.0
 10
116.4594837787444
 20
207.6849738506563
 30
0.0
 10
101.4323217816331
 20
192.657811853545
 30
0.0
 10
101.4323217816331
 20
174.186932409378
 30
0.0
  0
SPLINE
  5
8E67
330
1F
100
AcDbEntity
  8
0
 62
     0
370
    13
100
AcDbSpline
210
0.0
220
0.0
230
1.0
 70
     8
 71
     3
 72
    11
 73
     7
 74
     0
 42
0.000000001
 43
0.0000000001
 40
0.0
 40
0.0
 40
0.0
 40
0.0
 40
1.0
 40
1.0
 40
1.0
 40
2.0
 40
2.0
 40
2.0
 40
2.0
 10
101.9323773913172
 20
174.186932409378
 30
0.0
 10
101.9323773913172
 20
155.9885600180942
 30
0.0
 10
116.7352636723387
 20
141.1830899154588
 30
0.0
 10
134.9305354776857
 20
141.1830899154588
 30
0.0
 10
143.7220746464947
 20
141.1830899154588
 30
0.0
 10
152.002533900067
 20
144.6219842288352
 30
0.0
 10
158.2462527027595
 20
150.865875286302
 30
0.0
  0
SPLINE
  5
8E68
330
1F
100
AcDbEntity
  8
0
 62
     0
370
    13
100
AcDbSpline
210
0.0
220
0.0
230
1.0
 70
     8
 71
     3
 72
    11
 73
     7
 74
     0
 42
0.000000001
 43
0.0000000001
 40
2.0
 40
2.0
 40
2.0
 40
2.0
 40
3.0
 40
3.0
 40
3.0
 40
4.0
 40
4.0
 40
4.0
 40
4.0
 10
158.2462527027595
 20
150.865875286302
 30
0.0
 10
164.4901437602263
 20
157.1099385985431
 30
0.0
 10
167.9286935640542
 20
165.392120399858
 30
0.0
 10
167.9286935640542
 20
174.186932409378
 30
0.0
 10
167.9286935640542
 20
183.0022427370353
 30
0.0
 10
164.4975507155196
 20
191.288214143384
 30
0.0
 10
158.2670955304453
 20
197.5184970736839
 30
0.0
  0
SPLINE
  5
8E69
330
1F
100
AcDbEntity
  8
0
 62
     0
370
    13
100
AcDbSpline
210
0.0
220
0.0
230
1.0
 70
     8
 71
     3
 72
    11
 73
     7
 74
     0
 42
0.000000001
 43
0.0000000001
 40
4.0
 40
4.0
 40
4.0
 40
4.0
 40
5.0
 40
5.0
 40
5.0
 40
6.0
 40
6.0
 40
6.0
 40
6.0
 10
158.2670955304453
 20
197.5184970736839
 30
0.0
 10
152.034056523757
 20
203.7520528446951
 30
0.0
 10
143.7463625696657
 20
207.1849182409723
 30
0.0
 10
134.9305354776857
 20
207.1849182409723
 30
0.0
 10
116.7352636723387
 20
207.1849182409723
 30
0.0
 10
101.9323773913172
 20
192.3820319599508
 30
0.0
 10
101.9323773913172
 20
174.186932409378
 30
0.0
  0
SPLINE
  5
8E6A
330
1F
100
AcDbEntity
  8
0
 62
     0
370
    13
100
AcDbSpline
210
0.0
220
0.0
230
1.0
 70
     8
 71
     3
 72
    11
 73
     7
 74
     0
 42
0.000000001
 43
0.0000000001
 40
0.0
 40
0.0
 40
0.0
 40
0.0
 40
1.0
 40
1.0
 40
1.0
 40
2.0
 40
2.0
 40
2.0
 40
2.0
 10
102.4324330010012
 20
174.186932409378
 30
0.0
 10
102.4324330010012
 20
156.2641676569143
 30
0.0
 10
117.0110435659329
 20
141.6829732703686
 30
0.0
 10
134.9305354776857
 20
141.6829732703686
 30
0.0
 10
143.588404941667
 20
141.6829732703686
 30
0.0
 10
151.7432904648019
 20
145.0698466419176
 30
0.0
 10
157.8926136511986
 20
151.2193420830886
 30
0.0
  0
SPLINE
  5
8E6B
330
1F
100
AcDbEntity
  8
0
 62
     0
370
    13
100
AcDbSpline
210
0.0
220
0.0
230
1.0
 70
     8
 71
     3
 72
    11
 73
     7
 74
     0
 42
0.000000001
 43
0.0000000001
 40
2.0
 40
2.0
 40
2.0
 40
2.0
 40
3.0
 40
3.0
 40
3.0
 40
4.0
 40
4.0
 40
4.0
 40
4.0
 10
157.8926136511986
 20
151.2193420830886
 30
0.0
 10
164.0421090923696
 20
157.3690097790338
 30
0.0
 10
167.4286379543702
 20
165.5256178499113
 30
0.0
 10
167.4286379543702
 20
174.186932409378
 30
0.0
 10
167.4286379543702
 20
182.8687452869818
 30
0.0
 10
164.0495160476629
 20
191.0291429628932
 30
0.0
 10
157.9136287336586
 20
197.164858022123
 30
0.0
  0
SPLINE
  5
8E6C
330
1F
100
AcDbEntity
  8
0
 62
     0
370
    13
100
AcDbSpline
210
0.0
220
0.0
230
1.0
 70
     8
 71
     3
 72
    11
 73
     7
 74
     0
 42
0.000000001
 43
0.0000000001
 40
4.0
 40
4.0
 40
4.0
 40
4.0
 40
5.0
 40
5.0
 40
5.0
 40
6.0
 40
6.0
 40
6.0
 40
6.0
 10
157.9136287336586
 20
197.164858022123
 30
0.0
 10
151.7749853432662
 20
203.3040181768383
 30
0.0
 10
143.6128651196123
 20
206.6848626312882
 30
0.0
 10
134.9305354776857
 20
206.6848626312882
 30
0.0
 10
117.0110435659329
 20
206.6848626312882
 30
0.0
 10
102.4324330010012
 20
192.1064243211308
 30
0.0
 10
102.4324330010012
 20
174.186932409378
 30
0.0
  0
SPLINE
  5
8E6D
330
1F
100
AcDbEntity
  8
0
 62
     0
370
    13
100
AcDbSpline
210
0.0
220
0.0
230
1.0
 70
     8
 71
     3
 72
    11
 73
     7
 74
     0
 42
0.000000001
 43
0.0000000001
 40
0.0
 40
0.0
 40
0.0
 40
0.0
 40
1.0
 40
1.0
 40
1.0
 40
2.0
 40
2.0
 40
2.0
 40
2.0
 10
102.9324886106852
 20
174.186932409378
 30
0.0
 10
102.9324886106852
 20
156.5399475505085
 30
0.0
 10
117.2866512047529
 20
142.1828566252783
 30
0.0
 10
134.9305354776857
 20
142.1828566252783
 30
0.0
 10
143.4549074916136
 20
142.1828566252783
 30
0.0
 10
151.4840470295369
 20
145.5177090550001
 30
0.0
 10
157.5389745996377
 20
151.5728088798753
 30
0.0
  0
SPLINE
  5
8E6E
330
1F
100
AcDbEntity
  8
0
 62
     0
370
    13
100
AcDbSpline
210
0.0
220
0.0
230
1.0
 70
     8
 71
     3
 72
    11
 73
     7
 74
     0
 42
0.000000001
 43
0.0000000001
 40
2.0
 40
2.0
 40
2.0
 40
2.0
 40
3.0
 40
3.0
 40
3.0
 40
4.0
 40
4.0
 40
4.0
 40
4.0
 10
157.5389745996377
 20
151.5728088798753
 30
0.0
 10
163.5940744245128
 20
157.6280809595247
 30
0.0
 10
166.9285823446862
 20
165.6591152999648
 30
0.0
 10
166.9285823446862
 20
174.186932409378
 30
0.0
 10
166.9285823446862
 20
182.7352478369284
 30
0.0
 10
163.6014813798061
 20
190.7700717824023
 30
0.0
 10
157.560161936872
 20
196.8112189705622
 30
0.0
  0
SPLINE
  5
8E6F
330
1F
100
AcDbEntity
  8
0
 62
     0
370
    13
100
AcDbSpline
210
0.0
220
0.0
230
1.0
 70
     8
 71
     3
 72
    11
 73
     7
 74
     0
 42
0.000000001
 43
0.0000000001
 40
4.0
 40
4.0
 40
4.0
 40
4.0
 40
5.0
 40
5.0
 40
5.0
 40
6.0
 40
6.0
 40
6.0
 40
6.0
 10
157.560161936872
 20
196.8112189705622
 30
0.0
 10
151.5159141627755
 20
202.8559835089816
 30
0.0
 10
143.4793676695589
 20
206.1848070216042
 30
0.0
 10
134.9305354776857
 20
206.1848070216042
 30
0.0
 10
117.2866512047529
 20
206.1848070216042
 30
0.0
 10
102.9324886106852
 20
191.8306444275365
 30
0.0
 10
102.9324886106852
 20
174.186932409378
 30
0.0
  0
SPLINE
  5
8E70
330
1F
100
AcDbEntity
  8
0
 62
     0
370
    13
100
AcDbSpline
210
0.0
220
0.0
230
1.0
 70
     8
 71
     3
 72
    11
 73
     7
 74
     0
 42
0.000000001
 43
0.0000000001
 40
0.0
 40
0.0
 40
0.0
 40
0.0
 40
1.0
 40
1.0
 40
1.0
 40
2.0
 40
2.0
 40
2.0
 40
2.0
 10
103.4325442203692
 20
174.186932409378
 30
0.0
 10
103.4325442203692
 20
156.8155551893284
 30
0.0
 10
117.5624310983471
 20
142.682739980188
 30
0.0
 10
134.9305354776857
 20
142.682739980188
 30
0.0
 10
143.3212377867859
 20
142.682739980188
 30
0.0
 10
151.2248035942718
 20
145.9655714680826
 30
0.0
 10
157.1853355480768
 20
151.9262756766619
 30
0.0
  0
SPLINE
  5
8E71
330
1F
100
AcDbEntity
  8
0
 62
     0
370
    13
100
AcDbSpline
210
0.0
220
0.0
230
1.0
 70
     8
 71
     3
 72
    11
 73
     7
 74
     0
 42
0.000000001
 43
0.0000000001
 40
2.0
 40
2.0
 40
2.0
 40
2.0
 40
3.0
 40
3.0
 40
3.0
 40
4.0
 40
4.0
 40
4.0
 40
4.0
 10
157.1853355480768
 20
151.9262756766619
 30
0.0
 10
163.1460397566561
 20
157.8871521400155
 30
0.0
 10
166.4285267350022
 20
165.7926127500182
 30
0.0
 10
166.4285267350022
 20
174.186932409378
 30
0.0
 10
166.4285267350022
 20
182.601750386875
 30
0.0
 10
163.1534467119494
 20
190.5110006019116
 30
0.0
 10
157.2066951400854
 20
196.4575799190013
 30
0.0
  0
SPLINE
  5
8E72
330
1F
100
AcDbEntity
  8
0
 62
     0
370
    13
100
AcDbSpline
210
0.0
220
0.0
230
1.0
 70
     8
 71
     3
 72
    11
 73
     7
 74
     0
 42
0.000000001
 43
0.0000000001
 40
4.0
 40
4.0
 40
4.0
 40
4.0
 40
5.0
 40
5.0
 40
5.0
 40
6.0
 40
6.0
 40
6.0
 40
6.0
 10
157.2066951400854
 20
196.4575799190013
 30
0.0
 10
151.2568429822846
 20
202.4079488411248
 30
0.0
 10
143.3456979647312
 20
205.6847514119202
 30
0.0
 10
134.9305354776857
 20
205.6847514119202
 30
0.0
 10
117.5624310983471
 20
205.6847514119202
 30
0.0
 10
103.4325442203692
 20
191.5548645339422
 30
0.0
 10
103.4325442203692
 20
174.186932409378
 30
0.0
  0
SPLINE
  5
8E73
330
1F
100
AcDbEntity
  8
0
 62
     0
370
    13
100
AcDbSpline
210
0.0
220
0.0
230
1.0
 70
     8
 71
     3
 72
    17
 73
    13
 74
     0
 42
0.000000001
 43
0.0000000001
 40
0.0
 40
0.0
 40
0.0
 40
0.0
 40
1.0
 40
1.0
 40
1.0
 40
2.0
 40
2.0
 40
2.0
 40
3.0
 40
3.0
 40
3.0
 40
4.0
 40
4.0
 40
4.0
 40
4.0
 10
103.9325998300532
 20
174.186932409378
 30
0.0
 10
103.9325998300532
 20
157.0911628281485
 30
0.0
 10
117.8382109919414
 20
143.1826233350978
 30
0.0
 10
134.9305354776857
 20
143.1826233350978
 30
0.0
 10
143.1875680819582
 20
143.1826233350978
 30
0.0
 10
150.9655601590068
 20
146.4134338811651
 30
0.0
 10
156.8316964965159
 20
152.2797424734486
 30
0.0
 10
162.6978328340251
 20
158.146051065732
 30
0.0
 10
165.9284711253181
 20
165.9262824548459
 30
0.0
 10
165.9284711253181
 20
174.186932409378
 30
0.0
 10
165.9284711253181
 20
182.4682529368216
 30
0.0
 10
162.7054120440927
 20
190.2517571666464
 30
0.0
 10
156.8532283432988
 20
196.1039408674404
 30
0.0
  0
SPLINE
  5
8E74
330
1F
100
AcDbEntity
  8
0
 62
     0
370
    13
100
AcDbSpline
210
0.0
220
0.0
230
1.0
 70
     8
 71
     3
 72
    11
 73
     7
 74
     0
 42
0.000000001
 43
0.0000000001
 40
4.0
 40
4.0
 40
4.0
 40
4.0
 40
5.0
 40
5.0
 40
5.0
 40
6.0
 40
6.0
 40
6.0
 40
6.0
 10
156.8532283432988
 20
196.1039408674404
 30
0.0
 10
150.9977718017939
 20
201.9597419184939
 30
0.0
 10
143.2122005146778
 20
205.1846958022361
 30
0.0
 10
134.9305354776857
 20
205.1846958022361
 30
0.0
 10
117.8382109919414
 20
205.1846958022361
 30
0.0
 10
103.9325998300532
 20
191.2792568951223
 30
0.0
 10
103.9325998300532
 20
174.186932409378
 30
0.0
  0
SPLINE
  5
8E75
330
1F
100
AcDbEntity
  8
0
 62
     0
370
    13
100
AcDbSpline
210
0.0
220
0.0
230
1.0
 70
     8
 71
     3
 72
     8
 73
     4
 74
     0
 42
0.000000001
 43
0.0000000001
 40
0.0
 40
0.0
 40
0.0
 40
0.0
 40
1.0
 40
1.0
 40
1.0
 40
1.0
 10
104.4326554397372
 20
174.186932409378
 30
0.0
 10
104.4326554397372
 20
166.0522006948318
 30
0.0
 10
107.6085167128148
 20
158.3954759788641
 30
0.0
 10
113.375606555123
 20
152.6273526079103
 30
0.0
  0
SPLINE
  5
8E76
330
1F
100
AcDbEntity
  8
0
 62
     0
370
    13
100
AcDbSpline
210
0.0
220
0.0
230
1.0
 70
     8
 71
     3
 72
    17
 73
    13
 74
     0
 42
0.000000001
 43
0.0000000001
 40
1.0
 40
1.0
 40
1.0
 40
1.0
 40
2.0
 40
2.0
 40
2.0
 40
3.0
 40
3.0
 40
3.0
 40
4.0
 40
4.0
 40
4.0
 40
5.0
 40
5.0
 40
5.0
 40
5.0
 10
113.375606555123
 20
152.6273526079103
 30
0.0
 10
119.142524142657
 20
146.8592292369564
 30
0.0
 10
126.7975263108821
 20
143.6825066900076
 30
0.0
 10
134.9305354776857
 20
143.6825066900076
 30
0.0
 10
143.0538983771305
 20
143.6825066900076
 30
0.0
 10
150.7063167237417
 20
146.8612962942476
 30
0.0
 10
156.478057444955
 20
152.6332092702352
 30
0.0
 10
162.2497981661684
 20
158.4051222462227
 30
0.0
 10
165.4284155156341
 20
166.0597799048994
 30
0.0
 10
165.4284155156341
 20
174.186932409378
 30
0.0
 10
165.4284155156341
 20
182.3345832319939
 30
0.0
 10
162.2575496310102
 20
189.9925137313815
 30
0.0
 10
156.4995892917379
 20
195.7503018158795
 30
0.0
  0
SPLINE
  5
8E77
330
1F
100
AcDbEntity
  8
0
 62
     0
370
    13
100
AcDbSpline
210
0.0
220
0.0
230
1.0
 70
     8
 71
     3
 72
    11
 73
     7
 74
     0
 42
0.000000001
 43
0.0000000001
 40
5.0
 40
5.0
 40
5.0
 40
5.0
 40
6.0
 40
6.0
 40
6.0
 40
7.0
 40
7.0
 40
7.0
 40
7.0
 10
156.4995892917379
 20
195.7503018158795
 30
0.0
 10
150.7387006213031
 20
201.5117072506371
 30
0.0
 10
143.0785308098501
 20
204.6846401925521
 30
0.0
 10
134.9305354776857
 20
204.6846401925521
 30
0.0
 10
118.1139908855356
 20
204.6846401925521
 30
0.0
 10
104.4326554397372
 20
191.0034770015279
 30
0.0
 10
104.4326554397372
 20
174.186932409378
 30
0.0
  0
SPLINE
  5
8E78
330
1F
100
AcDbEntity
  8
0
 62
     0
370
    13
100
AcDbSpline
210
0.0
220
0.0
230
1.0
 70
     8
 71
     3
 72
     8
 73
     4
 74
     0
 42
0.000000001
 43
0.0000000001
 40
0.0
 40
0.0
 40
0.0
 40
0.0
 40
1.0
 40
1.0
 40
1.0
 40
1.0
 10
104.9327110494212
 20
174.186932409378
 30
0.0
 10
104.9327110494212
 20
166.185525890111
 30
0.0
 10
108.0567236354458
 20
158.6543749045805
 30
0.0
 10
113.7292456066839
 20
152.9808194046968
 30
0.0
  0
SPLINE
  5
8E79
330
1F
100
AcDbEntity
  8
0
 62
     0
370
    13
100
AcDbSpline
210
0.0
220
0.0
230
1.0
 70
     8
 71
     3
 72
    17
 73
    13
 74
     0
 42
0.000000001
 43
0.0000000001
 40
1.0
 40
1.0
 40
1.0
 40
1.0
 40
2.0
 40
2.0
 40
2.0
 40
3.0
 40
3.0
 40
3.0
 40
4.0
 40
4.0
 40
4.0
 40
5.0
 40
5.0
 40
5.0
 40
5.0
 10
113.7292456066839
 20
152.9808194046968
 30
0.0
 10
119.401767577922
 20
147.3070916500389
 30
0.0
 10
126.9311960157098
 20
144.1823900449173
 30
0.0
 10
134.9305354776857
 20
144.1823900449173
 30
0.0
 10
142.9204009270771
 20
144.1823900449173
 30
0.0
 10
150.4470732884767
 20
147.3091587073301
 30
0.0
 10
156.1244183933941
 20
152.9866760670217
 30
0.0
 10
161.8017634983116
 20
158.6641934267136
 30
0.0
 10
164.9283599059501
 20
166.1932773549528
 30
0.0
 10
164.9283599059501
 20
174.186932409378
 30
0.0
 10
164.9283599059501
 20
182.2010857819404
 30
0.0
 10
161.8095149631534
 20
189.7334425508906
 30
0.0
 10
156.1459502401769
 20
195.3966627643186
 30
0.0
  0
SPLINE
  5
8E7A
330
1F
100
AcDbEntity
  8
0
 62
     0
370
    13
100
AcDbSpline
210
0.0
220
0.0
230
1.0
 70
     8
 71
     3
 72
    11
 73
     7
 74
     0
 42
0.000000001
 43
0.0000000001
 40
5.0
 40
5.0
 40
5.0
 40
5.0
 40
6.0
 40
6.0
 40
6.0
 40
7.0
 40
7.0
 40
7.0
 40
7.0
 10
156.1459502401769
 20
195.3966627643186
 30
0.0
 10
150.4796294408123
 20
201.0636725827803
 30
0.0
 10
142.9450333597966
 20
204.1845845828681
 30
0.0
 10
134.9305354776857
 20
204.1845845828681
 30
0.0
 10
118.3895985243556
 20
204.1845845828681
 30
0.0
 10
104.9327110494212
 20
190.7276971079337
 30
0.0
 10
104.9327110494212
 20
174.186932409378
 30
0.0
  0
SPLINE
  5
8E7B
330
1F
100
AcDbEntity
  8
0
 62
     0
370
    13
100
AcDbSpline
210
0.0
220
0.0
230
1.0
 70
     8
 71
     3
 72
     8
 73
     4
 74
     0
 42
0.000000001
 43
0.0000000001
 40
0.0
 40
0.0
 40
0.0
 40
0.0
 40
1.0
 40
1.0
 40
1.0
 40
1.0
 10
105.4327666591053
 20
174.186932409378
 30
0.0
 10
105.4327666591053
 20
166.3190233401643
 30
0.0
 10
108.5047583033025
 20
158.9134460850714
 30
0.0
 10
114.0828846582448
 20
153.3342862014835
 30
0.0
  0
SPLINE
  5
8E7C
330
1F
100
AcDbEntity
  8
0
 62
     0
370
    13
100
AcDbSpline
210
0.0
220
0.0
230
1.0
 70
     8
 71
     3
 72
    11
 73
     7
 74
     0
 42
0.000000001
 43
0.0000000001
 40
1.0
 40
1.0
 40
1.0
 40
1.0
 40
2.0
 40
2.0
 40
2.0
 40
3.0
 40
3.0
 40
3.0
 40
3.0
 10
114.0828846582448
 20
153.3342862014835
 30
0.0
 10
119.6610110131871
 20
147.7549540631214
 30
0.0
 10
127.0648657205375
 20
144.6822733998271
 30
0.0
 10
134.9305354776857
 20
144.6822733998271
 30
0.0
 10
142.7867312222494
 20
144.6822733998271
 30
0.0
 10
150.1880021079859
 20
147.7570211204126
 30
0.0
 10
155.7707793418332
 20
153.3401428638085
 30
0.0
  0
SPLINE
  5
8E7D
330
1F
100
AcDbEntity
  8
0
 62
     0
370
    13
100
AcDbSpline
210
0.0
220
0.0
230
1.0
 70
     8
 71
     3
 72
    11
 73
     7
 74
     0
 42
0.000000001
 43
0.0000000001
 40
3.0
 40
3.0
 40
3.0
 40
3.0
 40
4.0
 40
4.0
 40
4.0
 40
5.0
 40
5.0
 40
5.0
 40
5.0
 10
155.7707793418332
 20
153.3401428638085
 30
0.0
 10
161.3537288304549
 20
158.9232646072043
 30
0.0
 10
164.4283042962661
 20
166.3267748050063
 30
0.0
 10
164.4283042962661
 20
174.186932409378
 30
0.0
 10
164.4283042962661
 20
182.067588331887
 30
0.0
 10
161.3613080405224
 20
189.4743713703999
 30
0.0
 10
155.7924834433903
 20
195.0430237127576
 30
0.0
  0
SPLINE
  5
8E7E
330
1F
100
AcDbEntity
  8
0
 62
     0
370
    13
100
AcDbSpline
210
0.0
220
0.0
230
1.0
 70
     8
 71
     3
 72
    11
 73
     7
 74
     0
 42
0.000000001
 43
0.0000000001
 40
5.0
 40
5.0
 40
5.0
 40
5.0
 40
6.0
 40
6.0
 40
6.0
 40
7.0
 40
7.0
 40
7.0
 40
7.0
 10
155.7924834433903
 20
195.0430237127576
 30
0.0
 10
150.2205582603215
 20
200.6156379149236
 30
0.0
 10
142.8117081645175
 20
203.6845289731842
 30
0.0
 10
134.9305354776857
 20
203.6845289731842
 30
0.0
 10
118.6653784179499
 20
203.6845289731842
 30
0.0
 10
105.4327666591053
 20
190.4519172143395
 30
0.0
 10
105.4327666591053
 20
174.186932409378
 30
0.0
  0
SPLINE
  5
8E7F
330
1F
100
AcDbEntity
  8
0
 62
     0
370
    13
100
AcDbSpline
210
0.0
220
0.0
230
1.0
 70
     8
 71
     3
 72
     8
 73
     4
 74
     0
 42
0.000000001
 43
0.0000000001
 40
0.0
 40
0.0
 40
0.0
 40
0.0
 40
1.0
 40
1.0
 40
1.0
 40
1.0
 10
105.9328222687893
 20
174.186932409378
 30
0.0
 10
105.9328222687893
 20
166.4525207902179
 30
0.0
 10
108.9527929711593
 20
159.1725172655621
 30
0.0
 10
114.4365237098057
 20
153.6877529982702
 30
0.0
  0
SPLINE
  5
8E80
330
1F
100
AcDbEntity
  8
0
 62
     0
370
    13
100
AcDbSpline
210
0.0
220
0.0
230
1.0
 70
     8
 71
     3
 72
    11
 73
     7
 74
     0
 42
0.000000001
 43
0.0000000001
 40
1.0
 40
1.0
 40
1.0
 40
1.0
 40
2.0
 40
2.0
 40
2.0
 40
3.0
 40
3.0
 40
3.0
 40
3.0
 10
114.4365237098057
 20
153.6877529982702
 30
0.0
 10
119.9200821936779
 20
148.2028164762039
 30
0.0
 10
127.1983631705909
 20
145.1821567547368
 30
0.0
 10
134.9305354776857
 20
145.1821567547368
 30
0.0
 10
142.653233772196
 20
145.1821567547368
 30
0.0
 10
149.9289309274951
 20
148.204883533495
 30
0.0
 10
155.4171402902724
 20
153.693609660595
 30
0.0
  0
SPLINE
  5
8E81
330
1F
100
AcDbEntity
  8
0
 62
     0
370
    13
100
AcDbSpline
210
0.0
220
0.0
230
1.0
 70
     8
 71
     3
 72
    11
 73
     7
 74
     0
 42
0.000000001
 43
0.0000000001
 40
3.0
 40
3.0
 40
3.0
 40
3.0
 40
4.0
 40
4.0
 40
4.0
 40
5.0
 40
5.0
 40
5.0
 40
5.0
 10
155.4171402902724
 20
153.693609660595
 30
0.0
 10
160.9056941625981
 20
159.182335787695
 30
0.0
 10
163.9282486865821
 20
166.4602722550596
 30
0.0
 10
163.9282486865821
 20
174.186932409378
 30
0.0
 10
163.9282486865821
 20
181.9339186270593
 30
0.0
 10
160.91344562744
 20
189.2151279351348
 30
0.0
 10
155.4390166466037
 20
194.6893846611968
 30
0.0
  0
SPLINE
  5
8E82
330
1F
100
AcDbEntity
  8
0
 62
     0
370
    13
100
AcDbSpline
210
0.0
220
0.0
230
1.0
 70
     8
 71
     3
 72
    11
 73
     7
 74
     0
 42
0.000000001
 43
0.0000000001
 40
5.0
 40
5.0
 40
5.0
 40
5.0
 40
6.0
 40
6.0
 40
6.0
 40
7.0
 40
7.0
 40
7.0
 40
7.0
 10
155.4390166466037
 20
194.6893846611968
 30
0.0
 10
149.9614870798307
 20
200.1676032470668
 30
0.0
 10
142.678210714464
 20
203.1844733635002
 30
0.0
 10
134.9305354776857
 20
203.1844733635002
 30
0.0
 10
118.9411583115441
 20
203.1844733635002
 30
0.0
 10
105.9328222687893
 20
190.1763095755196
 30
0.0
 10
105.9328222687893
 20
174.186932409378
 30
0.0
  0
SPLINE
  5
8E83
330
1F
100
AcDbEntity
  8
0
 62
     0
370
    13
100
AcDbSpline
210
0.0
220
0.0
230
1.0
 70
     8
 71
     3
 72
     8
 73
     4
 74
     0
 42
0.000000001
 43
0.0000000001
 40
0.0
 40
0.0
 40
0.0
 40
0.0
 40
1.0
 40
1.0
 40
1.0
 40
1.0
 10
106.4328778784733
 20
174.186932409378
 30
0.0
 10
106.4328778784733
 20
166.5860182402712
 30
0.0
 10
109.400827639016
 20
159.431588446053
 30
0.0
 10
114.7901627613666
 20
154.0412197950567
 30
0.0
  0
SPLINE
  5
8E84
330
1F
100
AcDbEntity
  8
0
 62
     0
370
    13
100
AcDbSpline
210
0.0
220
0.0
230
1.0
 70
     8
 71
     3
 72
    11
 73
     7
 74
     0
 42
0.000000001
 43
0.0000000001
 40
1.0
 40
1.0
 40
1.0
 40
1.0
 40
2.0
 40
2.0
 40
2.0
 40
3.0
 40
3.0
 40
3.0
 40
3.0
 10
114.7901627613666
 20
154.0412197950567
 30
0.0
 10
120.1791533741687
 20
148.6506788892863
 30
0.0
 10
127.3318606206444
 20
145.6820401096466
 30
0.0
 10
134.9305354776857
 20
145.6820401096466
 30
0.0
 10
142.5197363221425
 20
145.6820401096466
 30
0.0
 10
149.6698597470043
 20
148.6527459465775
 30
0.0
 10
155.0635012387115
 20
154.0470764573816
 30
0.0
  0
SPLINE
  5
8E85
330
1F
100
AcDbEntity
  8
0
 62
     0
370
    13
100
AcDbSpline
210
0.0
220
0.0
230
1.0
 70
     8
 71
     3
 72
    11
 73
     7
 74
     0
 42
0.000000001
 43
0.0000000001
 40
3.0
 40
3.0
 40
3.0
 40
3.0
 40
4.0
 40
4.0
 40
4.0
 40
5.0
 40
5.0
 40
5.0
 40
5.0
 10
155.0635012387115
 20
154.0470764573816
 30
0.0
 10
160.4576594947414
 20
159.4414069681858
 30
0.0
 10
163.4281930768981
 20
166.5937697051131
 30
0.0
 10
163.4281930768981
 20
174.186932409378
 30
0.0
 10
163.4281930768981
 20
181.8004211770058
 30
0.0
 10
160.4654109595832
 20
188.9560567546441
 30
0.0
 10
155.0855498498171
 20
194.335745609636
 30
0.0
  0
SPLINE
  5
8E86
330
1F
100
AcDbEntity
  8
0
 62
     0
370
    13
100
AcDbSpline
210
0.0
220
0.0
230
1.0
 70
     8
 71
     3
 72
    11
 73
     7
 74
     0
 42
0.000000001
 43
0.0000000001
 40
5.0
 40
5.0
 40
5.0
 40
5.0
 40
6.0
 40
6.0
 40
6.0
 40
7.0
 40
7.0
 40
7.0
 40
7.0
 10
155.0855498498171
 20
194.335745609636
 30
0.0
 10
149.7024158993399
 20
199.7195685792101
 30
0.0
 10
142.5445410096363
 20
202.6844177538161
 30
0.0
 10
134.9305354776857
 20
202.6844177538161
 30
0.0
 10
119.2167659503641
 20
202.6844177538161
 30
0.0
 10
106.4328778784733
 20
189.9005296819253
 30
0.0
 10
106.4328778784733
 20
174.186932409378
 30
0.0
  0
SPLINE
  5
8E87
330
1F
100
AcDbEntity
  8
0
 62
     0
370
    13
100
AcDbSpline
210
0.0
220
0.0
230
1.0
 70
     8
 71
     3
 72
     8
 73
     4
 74
     0
 42
0.000000001
 43
0.0000000001
 40
0.0
 40
0.0
 40
0.0
 40
0.0
 40
1.0
 40
1.0
 40
1.0
 40
1.0
 10
106.9329334881573
 20
174.186932409378
 30
0.0
 10
106.9329334881573
 20
166.7196879450989
 30
0.0
 10
109.8488623068728
 20
159.6906596265437
 30
0.0
 10
115.1438018129275
 20
154.3946865918434
 30
0.0
  0
SPLINE
  5
8E88
330
1F
100
AcDbEntity
  8
0
 62
     0
370
    13
100
AcDbSpline
210
0.0
220
0.0
230
1.0
 70
     8
 71
     3
 72
    11
 73
     7
 74
     0
 42
0.000000001
 43
0.0000000001
 40
1.0
 40
1.0
 40
1.0
 40
1.0
 40
2.0
 40
2.0
 40
2.0
 40
3.0
 40
3.0
 40
3.0
 40
3.0
 10
115.1438018129275
 20
154.3946865918434
 30
0.0
 10
120.4382245546595
 20
149.0985413023688
 30
0.0
 10
127.4653580706978
 20
146.1819234645563
 30
0.0
 10
134.9305354776857
 20
146.1819234645563
 30
0.0
 10
142.3862388720891
 20
146.1819234645563
 30
0.0
 10
149.4107885665135
 20
149.10060835966
 30
0.0
 10
154.7098621871506
 20
154.4005432541684
 30
0.0
  0
SPLINE
  5
8E89
330
1F
100
AcDbEntity
  8
0
 62
     0
370
    13
100
AcDbSpline
210
0.0
220
0.0
230
1.0
 70
     8
 71
     3
 72
    11
 73
     7
 74
     0
 42
0.000000001
 43
0.0000000001
 40
3.0
 40
3.0
 40
3.0
 40
3.0
 40
4.0
 40
4.0
 40
4.0
 40
5.0
 40
5.0
 40
5.0
 40
5.0
 10
154.7098621871506
 20
154.4005432541684
 30
0.0
 10
160.0096248268846
 20
159.7004781486767
 30
0.0
 10
162.9281374672141
 20
166.7272671551665
 30
0.0
 10
162.9281374672141
 20
174.186932409378
 30
0.0
 10
162.9281374672141
 20
181.6669237269525
 30
0.0
 10
160.0173762917265
 20
188.6969855741532
 30
0.0
 10
154.7320830530304
 20
193.982106558075
 30
0.0
  0
SPLINE
  5
8E8A
330
1F
100
AcDbEntity
  8
0
 62
     0
370
    13
100
AcDbSpline
210
0.0
220
0.0
230
1.0
 70
     8
 71
     3
 72
    11
 73
     7
 74
     0
 42
0.000000001
 43
0.0000000001
 40
5.0
 40
5.0
 40
5.0
 40
5.0
 40
6.0
 40
6.0
 40
6.0
 40
7.0
 40
7.0
 40
7.0
 40
7.0
 10
154.7320830530304
 20
193.982106558075
 30
0.0
 10
149.4433447188491
 20
199.2715339113533
 30
0.0
 10
142.4110435595829
 20
202.1843621441321
 30
0.0
 10
134.9305354776857
 20
202.1843621441321
 30
0.0
 10
119.4925458439584
 20
202.1843621441321
 30
0.0
 10
106.9329334881573
 20
189.624749788331
 30
0.0
 10
106.9329334881573
 20
174.186932409378
 30
0.0
  0
SPLINE
  5
8E8B
330
1F
100
AcDbEntity
  8
0
 62
     0
370
    13
100
AcDbSpline
210
0.0
220
0.0
230
1.0
 70
     8
 71
     3
 72
     8
 73
     4
 74
     0
 42
0.000000001
 43
0.0000000001
 40
0.0
 40
0.0
 40
0.0
 40
0.0
 40
1.0
 40
1.0
 40
1.0
 40
1.0
 10
107.4329890978413
 20
174.186932409378
 30
0.0
 10
107.4329890978413
 20
166.8531853951524
 30
0.0
 10
110.2968969747295
 20
159.9497308070345
 30
0.0
 10
115.4974408644884
 20
154.74815338863
 30
0.0
  0
SPLINE
  5
8E8C
330
1F
100
AcDbEntity
  8
0
 62
     0
370
    13
100
AcDbSpline
210
0.0
220
0.0
230
1.0
 70
     8
 71
     3
 72
    11
 73
     7
 74
     0
 42
0.000000001
 43
0.0000000001
 40
1.0
 40
1.0
 40
1.0
 40
1.0
 40
2.0
 40
2.0
 40
2.0
 40
3.0
 40
3.0
 40
3.0
 40
3.0
 10
115.4974408644884
 20
154.74815338863
 30
0.0
 10
120.6972957351502
 20
149.5464037154513
 30
0.0
 10
127.5988555207512
 20
146.681806819466
 30
0.0
 10
134.9305354776857
 20
146.681806819466
 30
0.0
 10
142.25291367681
 20
146.681806819466
 30
0.0
 10
149.1517173860227
 20
149.548815282291
 30
0.0
 10
154.3562231355897
 20
154.7540100509549
 30
0.0
  0
SPLINE
  5
8E8D
330
1F
100
AcDbEntity
  8
0
 62
     0
370
    13
100
AcDbSpline
210
0.0
220
0.0
230
1.0
 70
     8
 71
     3
 72
    11
 73
     7
 74
     0
 42
0.000000001
 43
0.0000000001
 40
3.0
 40
3.0
 40
3.0
 40
3.0
 40
4.0
 40
4.0
 40
4.0
 40
5.0
 40
5.0
 40
5.0
 40
5.0
 10
154.3562231355897
 20
154.7540100509549
 30
0.0
 10
159.5614179042536
 20
159.9593770743932
 30
0.0
 10
162.4280818575301
 20
166.86076460522
 30
0.0
 10
162.4280818575301
 20
174.186932409378
 30
0.0
 10
162.4280818575301
 20
181.533426276899
 30
0.0
 10
159.5693416238697
 20
188.4379143936625
 30
0.0
 10
154.3786162562438
 20
193.6284675065141
 30
0.0
  0
SPLINE
  5
8E8E
330
1F
100
AcDbEntity
  8
0
 62
     0
370
    13
100
AcDbSpline
210
0.0
220
0.0
230
1.0
 70
     8
 71
     3
 72
    11
 73
     7
 74
     0
 42
0.000000001
 43
0.0000000001
 40
5.0
 40
5.0
 40
5.0
 40
5.0
 40
6.0
 40
6.0
 40
6.0
 40
7.0
 40
7.0
 40
7.0
 40
7.0
 10
154.3786162562438
 20
193.6284675065141
 30
0.0
 10
149.1842735383584
 20
198.8234992434967
 30
0.0
 10
142.2775461095295
 20
201.6843065344481
 30
0.0
 10
134.9305354776857
 20
201.6843065344481
 30
0.0
 10
119.7683257375526
 20
201.6843065344481
 30
0.0
 10
107.4329890978413
 20
189.3491421495111
 30
0.0
 10
107.4329890978413
 20
174.186932409378
 30
0.0
  0
SPLINE
  5
8E8F
330
1F
100
AcDbEntity
  8
0
 62
     0
370
    13
100
AcDbSpline
210
0.0
220
0.0
230
1.0
 70
     8
 71
     3
 72
     8
 73
     4
 74
     0
 42
0.000000001
 43
0.0000000001
 40
0.0
 40
0.0
 40
0.0
 40
0.0
 40
1.0
 40
1.0
 40
1.0
 40
1.0
 10
107.9330447075253
 20
174.186932409378
 30
0.0
 10
107.9330447075253
 20
166.9866828452058
 30
0.0
 10
110.7449316425862
 20
160.208629732751
 30
0.0
 10
115.8510799160493
 20
155.1016201854167
 30
0.0
  0
SPLINE
  5
8E90
330
1F
100
AcDbEntity
  8
0
 62
     0
370
    13
100
AcDbSpline
210
0.0
220
0.0
230
1.0
 70
     8
 71
     3
 72
    11
 73
     7
 74
     0
 42
0.000000001
 43
0.0000000001
 40
1.0
 40
1.0
 40
1.0
 40
1.0
 40
2.0
 40
2.0
 40
2.0
 40
3.0
 40
3.0
 40
3.0
 40
3.0
 10
115.8510799160493
 20
155.1016201854167
 30
0.0
 10
120.956366915641
 20
149.9946106380823
 30
0.0
 10
127.7321807160304
 20
147.1816901743758
 30
0.0
 10
134.9305354776857
 20
147.1816901743758
 30
0.0
 10
142.119071717208
 20
147.1816901743758
 30
0.0
 10
148.8923016959834
 20
149.9966776953735
 30
0.0
 10
154.0025840840288
 20
155.1074768477416
 30
0.0
  0
SPLINE
  5
8E91
330
1F
100
AcDbEntity
  8
0
 62
     0
370
    13
100
AcDbSpline
210
0.0
220
0.0
230
1.0
 70
     8
 71
     3
 72
    11
 73
     7
 74
     0
 42
0.000000001
 43
0.0000000001
 40
3.0
 40
3.0
 40
3.0
 40
3.0
 40
4.0
 40
4.0
 40
4.0
 40
5.0
 40
5.0
 40
5.0
 40
5.0
 10
154.0025840840288
 20
155.1074768477416
 30
0.0
 10
159.1133832363969
 20
160.2184482548839
 30
0.0
 10
161.928026247846
 20
166.9944343100477
 30
0.0
 10
161.928026247846
 20
174.186932409378
 30
0.0
 10
161.928026247846
 20
181.3997565720712
 30
0.0
 10
159.1214792107872
 20
188.1786709583974
 30
0.0
 10
154.0251494594572
 20
193.2748284549533
 30
0.0
  0
SPLINE
  5
8E92
330
1F
100
AcDbEntity
  8
0
 62
     0
370
    13
100
AcDbSpline
210
0.0
220
0.0
230
1.0
 70
     8
 71
     3
 72
    11
 73
     7
 74
     0
 42
0.000000001
 43
0.0000000001
 40
5.0
 40
5.0
 40
5.0
 40
5.0
 40
6.0
 40
6.0
 40
6.0
 40
7.0
 40
7.0
 40
7.0
 40
7.0
 10
154.0251494594572
 20
193.2748284549533
 30
0.0
 10
148.9252023578676
 20
198.3752923208655
 30
0.0
 10
142.144048659476
 20
201.1842509247641
 30
0.0
 10
134.9305354776857
 20
201.1842509247641
 30
0.0
 10
120.0441056311469
 20
201.1842509247641
 30
0.0
 10
107.9330447075253
 20
189.0733622559168
 30
0.0
 10
107.9330447075253
 20
174.186932409378
 30
0.0
  0
SPLINE
  5
8E93
330
1F
100
AcDbEntity
  8
0
 62
     0
370
    13
100
AcDbSpline
210
0.0
220
0.0
230
1.0
 70
     8
 71
     3
 72
     8
 73
     4
 74
     0
 42
0.000000001
 43
0.0000000001
 40
0.0
 40
0.0
 40
0.0
 40
0.0
 40
1.0
 40
1.0
 40
1.0
 40
1.0
 10
108.4331003172093
 20
174.186932409378
 30
0.0
 10
108.4331003172093
 20
167.1200080404849
 30
0.0
 10
111.1931385652173
 20
160.4675286584676
 30
0.0
 10
116.2047189676102
 20
155.4550869822033
 30
0.0
  0
SPLINE
  5
8E94
330
1F
100
AcDbEntity
  8
0
 62
     0
370
    13
100
AcDbSpline
210
0.0
220
0.0
230
1.0
 70
     8
 71
     3
 72
    11
 73
     7
 74
     0
 42
0.000000001
 43
0.0000000001
 40
1.0
 40
1.0
 40
1.0
 40
1.0
 40
2.0
 40
2.0
 40
2.0
 40
3.0
 40
3.0
 40
3.0
 40
3.0
 10
116.2047189676102
 20
155.4550869822033
 30
0.0
 10
121.2157826056803
 20
150.4424730511648
 30
0.0
 10
127.8660226756324
 20
147.6815735292856
 30
0.0
 10
134.9305354776857
 20
147.6815735292856
 30
0.0
 10
141.985229757606
 20
147.6815735292856
 30
0.0
 10
148.6328860059441
 20
150.444540108456
 30
0.0
 10
153.6489450324679
 20
155.4609436445282
 30
0.0
  0
SPLINE
  5
8E95
330
1F
100
AcDbEntity
  8
0
 62
     0
370
    13
100
AcDbSpline
210
0.0
220
0.0
230
1.0
 70
     8
 71
     3
 72
    11
 73
     7
 74
     0
 42
0.000000001
 43
0.0000000001
 40
3.0
 40
3.0
 40
3.0
 40
3.0
 40
4.0
 40
4.0
 40
4.0
 40
5.0
 40
5.0
 40
5.0
 40
5.0
 10
153.6489450324679
 20
155.4609436445282
 30
0.0
 10
158.6653485685402
 20
160.4775194353747
 30
0.0
 10
161.427970638162
 20
167.127931760101
 30
0.0
 10
161.427970638162
 20
174.186932409378
 30
0.0
 10
161.427970638162
 20
181.2662591220179
 30
0.0
 10
158.6734445429305
 20
187.9195997779066
 30
0.0
 10
153.6716826626705
 20
192.9211894033924
 30
0.0
  0
SPLINE
  5
8E96
330
1F
100
AcDbEntity
  8
0
 62
     0
370
    13
100
AcDbSpline
210
0.0
220
0.0
230
1.0
 70
     8
 71
     3
 72
    11
 73
     7
 74
     0
 42
0.000000001
 43
0.0000000001
 40
5.0
 40
5.0
 40
5.0
 40
5.0
 40
6.0
 40
6.0
 40
6.0
 40
7.0
 40
7.0
 40
7.0
 40
7.0
 10
153.6716826626705
 20
192.9211894033924
 30
0.0
 10
148.6661311773768
 20
197.9272576530088
 30
0.0
 10
142.0103789546484
 20
200.68419531508
 30
0.0
 10
134.9305354776857
 20
200.68419531508
 30
0.0
 10
120.3197132699669
 20
200.68419531508
 30
0.0
 10
108.4331003172093
 20
188.7975823623225
 30
0.0
 10
108.4331003172093
 20
174.186932409378
 30
0.0
  0
SPLINE
  5
8E97
330
1F
100
AcDbEntity
  8
0
 62
     0
370
    13
100
AcDbSpline
210
0.0
220
0.0
230
1.0
 70
     8
 71
     3
 72
     8
 73
     4
 74
     0
 42
0.000000001
 43
0.0000000001
 40
0.0
 40
0.0
 40
0.0
 40
0.0
 40
1.0
 40
1.0
 40
1.0
 40
1.0
 10
108.9331559268933
 20
174.186932409378
 30
0.0
 10
108.9331559268933
 20
167.2535054905385
 30
0.0
 10
111.641173233074
 20
160.7265998389584
 30
0.0
 10
116.5583580191711
 20
155.80855377899
 30
0.0
  0
SPLINE
  5
8E98
330
1F
100
AcDbEntity
  8
0
 62
     0
370
    13
100
AcDbSpline
210
0.0
220
0.0
230
1.0
 70
     8
 71
     3
 72
    11
 73
     7
 74
     0
 42
0.000000001
 43
0.0000000001
 40
1.0
 40
1.0
 40
1.0
 40
1.0
 40
2.0
 40
2.0
 40
2.0
 40
3.0
 40
3.0
 40
3.0
 40
3.0
 10
116.5583580191711
 20
155.80855377899
 30
0.0
 10
121.4751982957197
 20
150.8903354642472
 30
0.0
 10
127.9998646352343
 20
148.1814568841953
 30
0.0
 10
134.9305354776857
 20
148.1814568841953
 30
0.0
 10
141.8513877980041
 20
148.1814568841953
 30
0.0
 10
148.3734703159048
 20
150.8924025215384
 30
0.0
 10
153.295305980907
 20
155.8144104413149
 30
0.0
  0
SPLINE
  5
8E99
330
1F
100
AcDbEntity
  8
0
 62
     0
370
    13
100
AcDbSpline
210
0.0
220
0.0
230
1.0
 70
     8
 71
     3
 72
    11
 73
     7
 74
     0
 42
0.000000001
 43
0.0000000001
 40
3.0
 40
3.0
 40
3.0
 40
3.0
 40
4.0
 40
4.0
 40
4.0
 40
5.0
 40
5.0
 40
5.0
 40
5.0
 10
153.295305980907
 20
155.8144104413149
 30
0.0
 10
158.2173139006834
 20
160.7365906158656
 30
0.0
 10
160.927915028478
 20
167.2614292101545
 30
0.0
 10
160.927915028478
 20
174.186932409378
 30
0.0
 10
160.927915028478
 20
181.1327616719644
 30
0.0
 10
158.2254098750738
 20
187.6605285974159
 30
0.0
 10
153.3182158658839
 20
192.5675503518315
 30
0.0
  0
SPLINE
  5
8E9A
330
1F
100
AcDbEntity
  8
0
 62
     0
370
    13
100
AcDbSpline
210
0.0
220
0.0
230
1.0
 70
     8
 71
     3
 72
    11
 73
     7
 74
     0
 42
0.000000001
 43
0.0000000001
 40
5.0
 40
5.0
 40
5.0
 40
5.0
 40
6.0
 40
6.0
 40
6.0
 40
7.0
 40
7.0
 40
7.0
 40
7.0
 10
153.3182158658839
 20
192.5675503518315
 30
0.0
 10
148.407059996886
 20
197.4792229851521
 30
0.0
 10
141.8768815045949
 20
200.184139705396
 30
0.0
 10
134.9305354776857
 20
200.184139705396
 30
0.0
 10
120.5954931635611
 20
200.184139705396
 30
0.0
 10
108.9331559268933
 20
188.5218024687283
 30
0.0
 10
108.9331559268933
 20
174.186932409378
 30
0.0
  0
SPLINE
  5
8E9B
330
1F
100
AcDbEntity
  8
0
 62
     0
370
    13
100
AcDbSpline
210
0.0
220
0.0
230
1.0
 70
     8
 71
     3
 72
     8
 73
     4
 74
     0
 42
0.000000001
 43
0.0000000001
 40
0.0
 40
0.0
 40
0.0
 40
0.0
 40
1.0
 40
1.0
 40
1.0
 40
1.0
 10
109.4332115365774
 20
174.186932409378
 30
0.0
 10
109.4332115365774
 20
167.3870029405919
 30
0.0
 10
112.0892079009307
 20
160.9856710194492
 30
0.0
 10
116.911997070732
 20
156.1620205757765
 30
0.0
  0
SPLINE
  5
8E9C
330
1F
100
AcDbEntity
  8
0
 62
     0
370
    13
100
AcDbSpline
210
0.0
220
0.0
230
1.0
 70
     8
 71
     3
 72
    11
 73
     7
 74
     0
 42
0.000000001
 43
0.0000000001
 40
1.0
 40
1.0
 40
1.0
 40
1.0
 40
2.0
 40
2.0
 40
2.0
 40
3.0
 40
3.0
 40
3.0
 40
3.0
 10
116.911997070732
 20
156.1620205757765
 30
0.0
 10
121.734613985759
 20
151.3381978773298
 30
0.0
 10
128.1337065948363
 20
148.6813402391051
 30
0.0
 10
134.9305354776857
 20
148.6813402391051
 30
0.0
 10
141.7177180931764
 20
148.6813402391051
 30
0.0
 10
148.1142268806398
 20
151.3402649346208
 30
0.0
 10
152.9416669293461
 20
156.1678772381015
 30
0.0
  0
SPLINE
  5
8E9D
330
1F
100
AcDbEntity
  8
0
 62
     0
370
    13
100
AcDbSpline
210
0.0
220
0.0
230
1.0
 70
     8
 71
     3
 72
    11
 73
     7
 74
     0
 42
0.000000001
 43
0.0000000001
 40
3.0
 40
3.0
 40
3.0
 40
3.0
 40
4.0
 40
4.0
 40
4.0
 40
5.0
 40
5.0
 40
5.0
 40
5.0
 10
152.9416669293461
 20
156.1678772381015
 30
0.0
 10
157.7692792328267
 20
160.9956617963563
 30
0.0
 10
160.427859418794
 20
167.3949266602079
 30
0.0
 10
160.427859418794
 20
174.186932409378
 30
0.0
 10
160.427859418794
 20
180.9992642219109
 30
0.0
 10
157.777375207217
 20
187.401457416925
 30
0.0
 10
152.9647490690973
 20
192.2139113002706
 30
0.0
  0
SPLINE
  5
8E9E
330
1F
100
AcDbEntity
  8
0
 62
     0
370
    13
100
AcDbSpline
210
0.0
220
0.0
230
1.0
 70
     8
 71
     3
 72
    11
 73
     7
 74
     0
 42
0.000000001
 43
0.0000000001
 40
5.0
 40
5.0
 40
5.0
 40
5.0
 40
6.0
 40
6.0
 40
6.0
 40
7.0
 40
7.0
 40
7.0
 40
7.0
 10
152.9647490690973
 20
192.2139113002706
 30
0.0
 10
148.1479888163952
 20
197.0311883172953
 30
0.0
 10
141.7433840545415
 20
199.6840840957121
 30
0.0
 10
134.9305354776857
 20
199.6840840957121
 30
0.0
 10
120.8712730571553
 20
199.6840840957121
 30
0.0
 10
109.4332115365774
 20
188.2461948299083
 30
0.0
 10
109.4332115365774
 20
174.186932409378
 30
0.0
  0
SPLINE
  5
8E9F
330
1F
100
AcDbEntity
  8
0
 62
     0
370
    13
100
AcDbSpline
210
0.0
220
0.0
230
1.0
 70
     8
 71
     3
 72
     8
 73
     4
 74
     0
 42
0.000000001
 43
0.0000000001
 40
0.0
 40
0.0
 40
0.0
 40
0.0
 40
1.0
 40
1.0
 40
1.0
 40
1.0
 10
109.9332671462614
 20
174.186932409378
 30
0.0
 10
109.9332671462614
 20
167.5205003906452
 30
0.0
 10
112.5372425687875
 20
161.2447421999399
 30
0.0
 10
117.2656361222929
 20
156.5154873725631
 30
0.0
  0
SPLINE
  5
8EA0
330
1F
100
AcDbEntity
  8
0
 62
     0
370
    13
100
AcDbSpline
210
0.0
220
0.0
230
1.0
 70
     8
 71
     3
 72
    11
 73
     7
 74
     0
 42
0.000000001
 43
0.0000000001
 40
1.0
 40
1.0
 40
1.0
 40
1.0
 40
2.0
 40
2.0
 40
2.0
 40
3.0
 40
3.0
 40
3.0
 40
3.0
 10
117.2656361222929
 20
156.5154873725631
 30
0.0
 10
121.993857421024
 20
151.7860602904123
 30
0.0
 10
128.2675485544382
 20
149.1812235940148
 30
0.0
 10
134.9305354776857
 20
149.1812235940148
 30
0.0
 10
141.5840483883487
 20
149.1812235940148
 30
0.0
 10
147.8549834453747
 20
151.7881273477034
 30
0.0
 10
152.5880278777852
 20
156.5213440348882
 30
0.0
  0
SPLINE
  5
8EA1
330
1F
100
AcDbEntity
  8
0
 62
     0
370
    13
100
AcDbSpline
210
0.0
220
0.0
230
1.0
 70
     8
 71
     3
 72
    11
 73
     7
 74
     0
 42
0.000000001
 43
0.0000000001
 40
3.0
 40
3.0
 40
3.0
 40
3.0
 40
4.0
 40
4.0
 40
4.0
 40
5.0
 40
5.0
 40
5.0
 40
5.0
 10
152.5880278777852
 20
156.5213440348882
 30
0.0
 10
157.32124456497
 20
161.2547329768472
 30
0.0
 10
159.92780380911
 20
167.5284241102614
 30
0.0
 10
159.92780380911
 20
174.186932409378
 30
0.0
 10
159.92780380911
 20
180.8657667718576
 30
0.0
 10
157.3293405393603
 20
187.1423862364343
 30
0.0
 10
152.6112822723106
 20
191.8602722487096
 30
0.0
  0
SPLINE
  5
8EA2
330
1F
100
AcDbEntity
  8
0
 62
     0
370
    13
100
AcDbSpline
210
0.0
220
0.0
230
1.0
 70
     8
 71
     3
 72
    11
 73
     7
 74
     0
 42
0.000000001
 43
0.0000000001
 40
5.0
 40
5.0
 40
5.0
 40
5.0
 40
6.0
 40
6.0
 40
6.0
 40
7.0
 40
7.0
 40
7.0
 40
7.0
 10
152.6112822723106
 20
191.8602722487096
 30
0.0
 10
147.8889176359044
 20
196.5831536494387
 30
0.0
 10
141.6098866044881
 20
199.184028486028
 30
0.0
 10
134.9305354776857
 20
199.184028486028
 30
0.0
 10
121.1468806959753
 20
199.184028486028
 30
0.0
 10
109.9332671462614
 20
187.9704149363141
 30
0.0
 10
109.9332671462614
 20
174.186932409378
 30
0.0
  0
SPLINE
  5
8EA3
330
1F
100
AcDbEntity
  8
0
 62
     0
370
    13
100
AcDbSpline
210
0.0
220
0.0
230
1.0
 70
     8
 71
     3
 72
     8
 73
     4
 74
     0
 42
0.000000001
 43
0.0000000001
 40
0.0
 40
0.0
 40
0.0
 40
0.0
 40
1.0
 40
1.0
 40
1.0
 40
1.0
 10
110.4333227559454
 20
174.186932409378
 30
0.0
 10
110.4333227559454
 20
167.6539978406988
 30
0.0
 10
112.9852772366442
 20
161.5038133804306
 30
0.0
 10
117.6192751738538
 20
156.8689541693499
 30
0.0
  0
SPLINE
  5
8EA4
330
1F
100
AcDbEntity
  8
0
 62
     0
370
    13
100
AcDbSpline
210
0.0
220
0.0
230
1.0
 70
     8
 71
     3
 72
    11
 73
     7
 74
     0
 42
0.000000001
 43
0.0000000001
 40
1.0
 40
1.0
 40
1.0
 40
1.0
 40
2.0
 40
2.0
 40
2.0
 40
3.0
 40
3.0
 40
3.0
 40
3.0
 10
117.6192751738538
 20
156.8689541693499
 30
0.0
 10
122.2531008562891
 20
152.2339227034947
 30
0.0
 10
128.4010460044917
 20
149.6811069489246
 30
0.0
 10
134.9305354776857
 20
149.6811069489246
 30
0.0
 10
141.450378683521
 20
149.6811069489246
 30
0.0
 10
147.5957400101096
 20
152.2359897607859
 30
0.0
 10
152.2343888262243
 20
156.8748108316747
 30
0.0
  0
SPLINE
  5
8EA5
330
1F
100
AcDbEntity
  8
0
 62
     0
370
    13
100
AcDbSpline
210
0.0
220
0.0
230
1.0
 70
     8
 71
     3
 72
    11
 73
     7
 74
     0
 42
0.000000001
 43
0.0000000001
 40
3.0
 40
3.0
 40
3.0
 40
3.0
 40
4.0
 40
4.0
 40
4.0
 40
5.0
 40
5.0
 40
5.0
 40
5.0
 10
152.2343888262243
 20
156.8748108316747
 30
0.0
 10
156.8732098971132
 20
161.513804157338
 30
0.0
 10
159.4277481994259
 20
167.6619215603147
 30
0.0
 10
159.4277481994259
 20
174.186932409378
 30
0.0
 10
159.4277481994259
 20
180.7322693218042
 30
0.0
 10
156.8814781262778
 20
186.8831428011691
 30
0.0
 10
152.257815475524
 20
191.5066331971487
 30
0.0
  0
SPLINE
  5
8EA6
330
1F
100
AcDbEntity
  8
0
 62
     0
370
    13
100
AcDbSpline
210
0.0
220
0.0
230
1.0
 70
     8
 71
     3
 72
    11
 73
     7
 74
     0
 42
0.000000001
 43
0.0000000001
 40
5.0
 40
5.0
 40
5.0
 40
5.0
 40
6.0
 40
6.0
 40
6.0
 40
7.0
 40
7.0
 40
7.0
 40
7.0
 10
152.257815475524
 20
191.5066331971487
 30
0.0
 10
147.6298464554136
 20
196.1351189815819
 30
0.0
 10
141.4762168996604
 20
198.6839728763439
 30
0.0
 10
134.9305354776857
 20
198.6839728763439
 30
0.0
 10
121.4226605895696
 20
198.6839728763439
 30
0.0
 10
110.4333227559454
 20
187.6946350427199
 30
0.0
 10
110.4333227559454
 20
174.186932409378
 30
0.0
  0
SPLINE
  5
8EA7
330
1F
100
AcDbEntity
  8
0
 62
     0
370
    13
100
AcDbSpline
210
0.0
220
0.0
230
1.0
 70
     8
 71
     3
 72
     8
 73
     4
 74
     0
 42
0.000000001
 43
0.0000000001
 40
0.0
 40
0.0
 40
0.0
 40
0.0
 40
1.0
 40
1.0
 40
1.0
 40
1.0
 10
110.9333783656294
 20
174.186932409378
 30
0.0
 10
110.9333783656294
 20
167.7876675455263
 30
0.0
 10
113.433311904501
 20
161.7628845609215
 30
0.0
 10
117.9729142254147
 20
157.2224209661364
 30
0.0
  0
SPLINE
  5
8EA8
330
1F
100
AcDbEntity
  8
0
 62
     0
370
    13
100
AcDbSpline
210
0.0
220
0.0
230
1.0
 70
     8
 71
     3
 72
    11
 73
     7
 74
     0
 42
0.000000001
 43
0.0000000001
 40
1.0
 40
1.0
 40
1.0
 40
1.0
 40
2.0
 40
2.0
 40
2.0
 40
3.0
 40
3.0
 40
3.0
 40
3.0
 10
117.9729142254147
 20
157.2224209661364
 30
0.0
 10
122.5123442915541
 20
152.6817851165771
 30
0.0
 10
128.5347157093194
 20
150.1809903038343
 30
0.0
 10
134.9305354776857
 20
150.1809903038343
 30
0.0
 10
141.3167089786933
 20
150.1809903038343
 30
0.0
 10
147.3364965748446
 20
152.6838521738683
 30
0.0
 10
151.8807497746634
 20
157.2282776284613
 30
0.0
  0
SPLINE
  5
8EA9
330
1F
100
AcDbEntity
  8
0
 62
     0
370
    13
100
AcDbSpline
210
0.0
220
0.0
230
1.0
 70
     8
 71
     3
 72
    11
 73
     7
 74
     0
 42
0.000000001
 43
0.0000000001
 40
3.0
 40
3.0
 40
3.0
 40
3.0
 40
4.0
 40
4.0
 40
4.0
 40
5.0
 40
5.0
 40
5.0
 40
5.0
 10
151.8807497746634
 20
157.2282776284613
 30
0.0
 10
156.4251752292565
 20
161.7728753378287
 30
0.0
 10
158.9276925897419
 20
167.7954190103683
 30
0.0
 10
158.9276925897419
 20
174.186932409378
 30
0.0
 10
158.9276925897419
 20
180.5987718717507
 30
0.0
 10
156.433443458421
 20
186.6240716206785
 30
0.0
 10
151.9043486787374
 20
191.1529941455879
 30
0.0
  0
SPLINE
  5
8EAA
330
1F
100
AcDbEntity
  8
0
 62
     0
370
    13
100
AcDbSpline
210
0.0
220
0.0
230
1.0
 70
     8
 71
     3
 72
    11
 73
     7
 74
     0
 42
0.000000001
 43
0.0000000001
 40
5.0
 40
5.0
 40
5.0
 40
5.0
 40
6.0
 40
6.0
 40
6.0
 40
7.0
 40
7.0
 40
7.0
 40
7.0
 10
151.9043486787374
 20
191.1529941455879
 30
0.0
 10
147.3707752749228
 20
195.6870843137252
 30
0.0
 10
141.3427194496069
 20
198.1839172666599
 30
0.0
 10
134.9305354776857
 20
198.1839172666599
 30
0.0
 10
121.6984404831638
 20
198.1839172666599
 30
0.0
 10
110.9333783656294
 20
187.4190274038999
 30
0.0
 10
110.9333783656294
 20
174.186932409378
 30
0.0
  0
SPLINE
  5
8EAB
330
1F
100
AcDbEntity
  8
0
 62
     0
370
    13
100
AcDbSpline
210
0.0
220
0.0
230
1.0
 70
     8
 71
     3
 72
     8
 73
     4
 74
     0
 42
0.000000001
 43
0.0000000001
 40
0.0
 40
0.0
 40
0.0
 40
0.0
 40
1.0
 40
1.0
 40
1.0
 40
1.0
 10
111.4334339753134
 20
174.186932409378
 30
0.0
 10
111.4334339753134
 20
167.9211649955798
 30
0.0
 10
113.8813465723577
 20
162.0219557414123
 30
0.0
 10
118.3265532769756
 20
157.5758877629231
 30
0.0
  0
SPLINE
  5
8EAC
330
1F
100
AcDbEntity
  8
0
 62
     0
370
    13
100
AcDbSpline
210
0.0
220
0.0
230
1.0
 70
     8
 71
     3
 72
    17
 73
    13
 74
     0
 42
0.000000001
 43
0.0000000001
 40
1.0
 40
1.0
 40
1.0
 40
1.0
 40
2.0
 40
2.0
 40
2.0
 40
3.0
 40
3.0
 40
3.0
 40
4.0
 40
4.0
 40
4.0
 40
5.0
 40
5.0
 40
5.0
 40
5.0
 10
118.3265532769756
 20
157.5758877629231
 30
0.0
 10
122.7715877268191
 20
153.1296475296597
 30
0.0
 10
128.6683854141471
 20
150.6808736587441
 30
0.0
 10
134.9305354776857
 20
150.6808736587441
 30
0.0
 10
141.1832115286399
 20
150.6808736587441
 30
0.0
 10
147.0772531395796
 20
153.1317145869509
 30
0.0
 10
151.5271107231025
 20
157.5817444252481
 30
0.0
 10
155.9769683066255
 20
162.0317742635452
 30
0.0
 10
158.4276369800579
 20
167.9289164604216
 30
0.0
 10
158.4276369800579
 20
174.186932409378
 30
0.0
 10
158.4276369800579
 20
180.4652744216972
 30
0.0
 10
155.9854087905643
 20
186.3650004401877
 30
0.0
 10
151.5508818819507
 20
190.799355094027
 30
0.0
  0
SPLINE
  5
8EAD
330
1F
100
AcDbEntity
  8
0
 62
     0
370
    13
100
AcDbSpline
210
0.0
220
0.0
230
1.0
 70
     8
 71
     3
 72
    11
 73
     7
 74
     0
 42
0.000000001
 43
0.0000000001
 40
5.0
 40
5.0
 40
5.0
 40
5.0
 40
6.0
 40
6.0
 40
6.0
 40
7.0
 40
7.0
 40
7.0
 40
7.0
 10
151.5508818819507
 20
190.799355094027
 30
0.0
 10
147.1117040944321
 20
195.2390496458685
 30
0.0
 10
141.2092219995535
 20
197.683861656976
 30
0.0
 10
134.9305354776857
 20
197.683861656976
 30
0.0
 10
121.9742203767581
 20
197.683861656976
 30
0.0
 10
111.4334339753134
 20
187.1432475103056
 30
0.0
 10
111.4334339753134
 20
174.186932409378
 30
0.0
  0
SPLINE
  5
8EAE
330
1F
100
AcDbEntity
  8
0
 62
     0
370
    13
100
AcDbSpline
210
0.0
220
0.0
230
1.0
 70
     8
 71
     3
 72
     8
 73
     4
 74
     0
 42
0.000000001
 43
0.0000000001
 40
0.0
 40
0.0
 40
0.0
 40
0.0
 40
1.0
 40
1.0
 40
1.0
 40
1.0
 10
111.9334895849974
 20
174.186932409378
 30
0.0
 10
111.9334895849974
 20
168.0546624456333
 30
0.0
 10
114.3293812402144
 20
162.2808546671288
 30
0.0
 10
118.6801923285365
 20
157.9293545597097
 30
0.0
  0
SPLINE
  5
8EAF
330
1F
100
AcDbEntity
  8
0
 62
     0
370
    13
100
AcDbSpline
210
0.0
220
0.0
230
1.0
 70
     8
 71
     3
 72
    17
 73
    13
 74
     0
 42
0.000000001
 43
0.0000000001
 40
1.0
 40
1.0
 40
1.0
 40
1.0
 40
2.0
 40
2.0
 40
2.0
 40
3.0
 40
3.0
 40
3.0
 40
4.0
 40
4.0
 40
4.0
 40
5.0
 40
5.0
 40
5.0
 40
5.0
 10
118.6801923285365
 20
157.9293545597097
 30
0.0
 10
123.0308311620842
 20
153.5775099427422
 30
0.0
 10
128.8020551189747
 20
151.1807570136539
 30
0.0
 10
134.9305354776857
 20
151.1807570136539
 30
0.0
 10
141.0495418238122
 20
151.1807570136539
 30
0.0
 10
146.8180097043145
 20
153.5795770000333
 30
0.0
 10
151.1734716715416
 20
157.9352112220346
 30
0.0
 10
155.5289336387687
 20
162.2908454440361
 30
0.0
 10
157.9275813703739
 20
168.0625861652493
 30
0.0
 10
157.9275813703739
 20
174.186932409378
 30
0.0
 10
157.9275813703739
 20
180.3316047168695
 30
0.0
 10
155.5373741227076
 20
186.1059292596968
 30
0.0
 10
151.1974150851641
 20
190.4457160424661
 30
0.0
  0
SPLINE
  5
8EB0
330
1F
100
AcDbEntity
  8
0
 62
     0
370
    13
100
AcDbSpline
210
0.0
220
0.0
230
1.0
 70
     8
 71
     3
 72
    11
 73
     7
 74
     0
 42
0.000000001
 43
0.0000000001
 40
5.0
 40
5.0
 40
5.0
 40
5.0
 40
6.0
 40
6.0
 40
6.0
 40
7.0
 40
7.0
 40
7.0
 40
7.0
 10
151.1974150851641
 20
190.4457160424661
 30
0.0
 10
146.8528051687155
 20
194.7908427232375
 30
0.0
 10
141.0757245495001
 20
197.183806047292
 30
0.0
 10
134.9305354776857
 20
197.183806047292
 30
0.0
 10
122.2498280155781
 20
197.183806047292
 30
0.0
 10
111.9334895849974
 20
186.8674676167113
 30
0.0
 10
111.9334895849974
 20
174.186932409378
 30
0.0
  0
SPLINE
  5
8EB1
330
1F
100
AcDbEntity
  8
0
 62
     0
370
    13
100
AcDbSpline
210
0.0
220
0.0
230
1.0
 70
     8
 71
     3
 72
     8
 73
     4
 74
     0
 42
0.000000001
 43
0.0000000001
 40
0.0
 40
0.0
 40
0.0
 40
0.0
 40
1.0
 40
1.0
 40
1.0
 40
1.0
 10
112.4335451946814
 20
174.186932409378
 30
0.0
 10
112.4335451946814
 20
168.1879876409125
 30
0.0
 10
114.7775881628454
 20
162.5397535928454
 30
0.0
 10
119.0338313800974
 20
158.2828213564964
 30
0.0
  0
SPLINE
  5
8EB2
330
1F
100
AcDbEntity
  8
0
 62
     0
370
    13
100
AcDbSpline
210
0.0
220
0.0
230
1.0
 70
     8
 71
     3
 72
    17
 73
    13
 74
     0
 42
0.000000001
 43
0.0000000001
 40
1.0
 40
1.0
 40
1.0
 40
1.0
 40
2.0
 40
2.0
 40
2.0
 40
3.0
 40
3.0
 40
3.0
 40
4.0
 40
4.0
 40
4.0
 40
5.0
 40
5.0
 40
5.0
 40
5.0
 10
119.0338313800974
 20
158.2828213564964
 30
0.0
 10
123.2900745973493
 20
154.0253723558246
 30
0.0
 10
128.9355525690282
 20
151.6806403685636
 30
0.0
 10
134.9305354776857
 20
151.6806403685636
 30
0.0
 10
140.9158721189845
 20
151.6806403685636
 30
0.0
 10
146.5587662690494
 20
154.0274394131158
 30
0.0
 10
150.8198326199807
 20
158.2886780188213
 30
0.0
 10
155.080898970912
 20
162.5499166245269
 30
0.0
 10
157.4275257606899
 20
168.1960836153028
 30
0.0
 10
157.4275257606899
 20
174.186932409378
 30
0.0
 10
157.4275257606899
 20
180.1981072668162
 30
0.0
 10
155.0895117096251
 20
185.8466858244317
 30
0.0
 10
150.8439482883775
 20
190.0920769909051
 30
0.0
  0
SPLINE
  5
8EB3
330
1F
100
AcDbEntity
  8
0
 62
     0
370
    13
100
AcDbSpline
210
0.0
220
0.0
230
1.0
 70
     8
 71
     3
 72
    11
 73
     7
 74
     0
 42
0.000000001
 43
0.0000000001
 40
5.0
 40
5.0
 40
5.0
 40
5.0
 40
6.0
 40
6.0
 40
6.0
 40
7.0
 40
7.0
 40
7.0
 40
7.0
 10
150.8439482883775
 20
190.0920769909051
 30
0.0
 10
146.5937339882248
 20
194.3428080553807
 30
0.0
 10
140.9422270994467
 20
196.683750437608
 30
0.0
 10
134.9305354776857
 20
196.683750437608
 30
0.0
 10
122.5256079091723
 20
196.683750437608
 30
0.0
 10
112.4335451946814
 20
186.591687723117
 30
0.0
 10
112.4335451946814
 20
174.186932409378
 30
0.0
  0
SPLINE
  5
8EB4
330
1F
100
AcDbEntity
  8
0
 62
     0
370
    13
100
AcDbSpline
210
0.0
220
0.0
230
1.0
 70
     8
 71
     3
 72
     8
 73
     4
 74
     0
 42
0.000000001
 43
0.0000000001
 40
0.0
 40
0.0
 40
0.0
 40
0.0
 40
1.0
 40
1.0
 40
1.0
 40
1.0
 10
112.9336008043655
 20
174.186932409378
 30
0.0
 10
112.9336008043655
 20
168.3214850909658
 30
0.0
 10
115.2256228307022
 20
162.7988247733362
 30
0.0
 10
119.3874704316582
 20
158.636288153283
 30
0.0
  0
SPLINE
  5
8EB5
330
1F
100
AcDbEntity
  8
0
 62
     0
370
    13
100
AcDbSpline
210
0.0
220
0.0
230
1.0
 70
     8
 71
     3
 72
    11
 73
     7
 74
     0
 42
0.000000001
 43
0.0000000001
 40
1.0
 40
1.0
 40
1.0
 40
1.0
 40
2.0
 40
2.0
 40
2.0
 40
3.0
 40
3.0
 40
3.0
 40
3.0
 10
119.3874704316582
 20
158.636288153283
 30
0.0
 10
123.5493180326143
 20
154.473234768907
 30
0.0
 10
129.0692222738559
 20
152.1805237234734
 30
0.0
 10
134.9305354776857
 20
152.1805237234734
 30
0.0
 10
140.7822024141568
 20
152.1805237234734
 30
0.0
 10
146.2996950885587
 20
154.4753018261982
 30
0.0
 10
150.4661935684198
 20
158.6421448156079
 30
0.0
  0
SPLINE
  5
8EB6
330
1F
100
AcDbEntity
  8
0
 62
     0
370
    13
100
AcDbSpline
210
0.0
220
0.0
230
1.0
 70
     8
 71
     3
 72
    11
 73
     7
 74
     0
 42
0.000000001
 43
0.0000000001
 40
3.0
 40
3.0
 40
3.0
 40
3.0
 40
4.0
 40
4.0
 40
4.0
 40
5.0
 40
5.0
 40
5.0
 40
5.0
 10
150.4661935684198
 20
158.6421448156079
 30
0.0
 10
154.6328643030552
 20
162.8089878050175
 30
0.0
 10
156.9274701510059
 20
168.3295810653561
 30
0.0
 10
156.9274701510059
 20
174.186932409378
 30
0.0
 10
156.9274701510059
 20
180.0646098167628
 30
0.0
 10
154.6414770417684
 20
185.587614643941
 30
0.0
 10
150.4904814915908
 20
189.7384379393442
 30
0.0
  0
SPLINE
  5
8EB7
330
1F
100
AcDbEntity
  8
0
 62
     0
370
    13
100
AcDbSpline
210
0.0
220
0.0
230
1.0
 70
     8
 71
     3
 72
    11
 73
     7
 74
     0
 42
0.000000001
 43
0.0000000001
 40
5.0
 40
5.0
 40
5.0
 40
5.0
 40
6.0
 40
6.0
 40
6.0
 40
7.0
 40
7.0
 40
7.0
 40
7.0
 10
150.4904814915908
 20
189.7384379393442
 30
0.0
 10
146.3346628077339
 20
193.894773387524
 30
0.0
 10
140.8087296493932
 20
196.1836948279239
 30
0.0
 10
134.9305354776857
 20
196.1836948279239
 30
0.0
 10
122.8013878027666
 20
196.1836948279239
 30
0.0
 10
112.9336008043655
 20
186.316080084297
 30
0.0
 10
112.9336008043655
 20
174.186932409378
 30
0.0
  0
SPLINE
  5
8EB8
330
1F
100
AcDbEntity
  8
0
 62
     0
370
    13
100
AcDbSpline
210
0.0
220
0.0
230
1.0
 70
     8
 71
     3
 72
     8
 73
     4
 74
     0
 42
0.000000001
 43
0.0000000001
 40
0.0
 40
0.0
 40
0.0
 40
0.0
 40
1.0
 40
1.0
 40
1.0
 40
1.0
 10
113.4336564140495
 20
174.186932409378
 30
0.0
 10
113.4336564140495
 20
168.4549825410193
 30
0.0
 10
115.6736574985589
 20
163.0578959538269
 30
0.0
 10
119.7411094832191
 20
158.9897549500697
 30
0.0
  0
SPLINE
  5
8EB9
330
1F
100
AcDbEntity
  8
0
 62
     0
370
    13
100
AcDbSpline
210
0.0
220
0.0
230
1.0
 70
     8
 71
     3
 72
    11
 73
     7
 74
     0
 42
0.000000001
 43
0.0000000001
 40
1.0
 40
1.0
 40
1.0
 40
1.0
 40
2.0
 40
2.0
 40
2.0
 40
3.0
 40
3.0
 40
3.0
 40
3.0
 10
119.7411094832191
 20
158.9897549500697
 30
0.0
 10
123.8085614678794
 20
154.9210971819896
 30
0.0
 10
129.2028919786836
 20
152.680407078383
 30
0.0
 10
134.9305354776857
 20
152.680407078383
 30
0.0
 10
140.6488772188776
 20
152.680407078383
 30
0.0
 10
146.0406239080679
 20
154.9231642392808
 30
0.0
 10
150.1125545168589
 20
158.9956116123946
 30
0.0
  0
SPLINE
  5
8EBA
330
1F
100
AcDbEntity
  8
0
 62
     0
370
    13
100
AcDbSpline
210
0.0
220
0.0
230
1.0
 70
     8
 71
     3
 72
    11
 73
     7
 74
     0
 42
0.000000001
 43
0.0000000001
 40
3.0
 40
3.0
 40
3.0
 40
3.0
 40
4.0
 40
4.0
 40
4.0
 40
5.0
 40
5.0
 40
5.0
 40
5.0
 10
150.1125545168589
 20
158.9956116123946
 30
0.0
 10
154.1848296351985
 20
163.0680589855083
 30
0.0
 10
156.4274145413219
 20
168.4630785154096
 30
0.0
 10
156.4274145413219
 20
174.186932409378
 30
0.0
 10
156.4274145413219
 20
179.9311123667093
 30
0.0
 10
154.1934423739116
 20
185.3285434634502
 30
0.0
 10
150.1370146948042
 20
189.3847988877833
 30
0.0
  0
SPLINE
  5
8EBB
330
1F
100
AcDbEntity
  8
0
 62
     0
370
    13
100
AcDbSpline
210
0.0
220
0.0
230
1.0
 70
     8
 71
     3
 72
    11
 73
     7
 74
     0
 42
0.000000001
 43
0.0000000001
 40
5.0
 40
5.0
 40
5.0
 40
5.0
 40
6.0
 40
6.0
 40
6.0
 40
7.0
 40
7.0
 40
7.0
 40
7.0
 10
150.1370146948042
 20
189.3847988877833
 30
0.0
 10
146.0755916272432
 20
193.4467387196672
 30
0.0
 10
140.6752321993398
 20
195.6836392182399
 30
0.0
 10
134.9305354776857
 20
195.6836392182399
 30
0.0
 10
123.0771676963608
 20
195.6836392182399
 30
0.0
 10
113.4336564140495
 20
186.0403001907029
 30
0.0
 10
113.4336564140495
 20
174.186932409378
 30
0.0
  0
SPLINE
  5
8EBC
330
1F
100
AcDbEntity
  8
0
 62
     0
370
    13
100
AcDbSpline
210
0.0
220
0.0
230
1.0
 70
     8
 71
     3
 72
     8
 73
     4
 74
     0
 42
0.000000001
 43
0.0000000001
 40
0.0
 40
0.0
 40
0.0
 40
0.0
 40
1.0
 40
1.0
 40
1.0
 40
1.0
 10
113.9337120237335
 20
174.186932409378
 30
0.0
 10
113.9337120237335
 20
168.5884799910727
 30
0.0
 10
116.1216921664157
 20
163.3169671343177
 30
0.0
 10
120.09474853478
 20
159.3432217468563
 30
0.0
  0
SPLINE
  5
8EBD
330
1F
100
AcDbEntity
  8
0
 62
     0
370
    13
100
AcDbSpline
210
0.0
220
0.0
230
1.0
 70
     8
 71
     3
 72
    11
 73
     7
 74
     0
 42
0.000000001
 43
0.0000000001
 40
1.0
 40
1.0
 40
1.0
 40
1.0
 40
2.0
 40
2.0
 40
2.0
 40
3.0
 40
3.0
 40
3.0
 40
3.0
 10
120.09474853478
 20
159.3432217468563
 30
0.0
 10
124.0676326483702
 20
155.3689595950721
 30
0.0
 10
129.3365616835113
 20
153.1802904332928
 30
0.0
 10
134.9305354776857
 20
153.1802904332928
 30
0.0
 10
140.5153797688242
 20
153.1802904332928
 30
0.0
 10
145.7815527275771
 20
155.3710266523632
 30
0.0
 10
149.758915465298
 20
159.3490784091812
 30
0.0
  0
SPLINE
  5
8EBE
330
1F
100
AcDbEntity
  8
0
 62
     0
370
    13
100
AcDbSpline
210
0.0
220
0.0
230
1.0
 70
     8
 71
     3
 72
    11
 73
     7
 74
     0
 42
0.000000001
 43
0.0000000001
 40
3.0
 40
3.0
 40
3.0
 40
3.0
 40
4.0
 40
4.0
 40
4.0
 40
5.0
 40
5.0
 40
5.0
 40
5.0
 10
149.758915465298
 20
159.3490784091812
 30
0.0
 10
153.7367949673418
 20
163.3271301659992
 30
0.0
 10
155.9273589316379
 20
168.596575965463
 30
0.0
 10
155.9273589316379
 20
174.186932409378
 30
0.0
 10
155.9273589316379
 20
179.7976149166558
 30
0.0
 10
153.7454077060549
 20
185.0694722829595
 30
0.0
 10
149.7835478980176
 20
189.0311598362225
 30
0.0
  0
SPLINE
  5
8EBF
330
1F
100
AcDbEntity
  8
0
 62
     0
370
    13
100
AcDbSpline
210
0.0
220
0.0
230
1.0
 70
     8
 71
     3
 72
    11
 73
     7
 74
     0
 42
0.000000001
 43
0.0000000001
 40
5.0
 40
5.0
 40
5.0
 40
5.0
 40
6.0
 40
6.0
 40
6.0
 40
7.0
 40
7.0
 40
7.0
 40
7.0
 10
149.7835478980176
 20
189.0311598362225
 30
0.0
 10
145.8165204467524
 20
192.9987040518105
 30
0.0
 10
140.5417347492863
 20
195.183583608556
 30
0.0
 10
134.9305354776857
 20
195.183583608556
 30
0.0
 10
123.3527753351808
 20
195.183583608556
 30
0.0
 10
113.9337120237335
 20
185.7645202971086
 30
0.0
 10
113.9337120237335
 20
174.186932409378
 30
0.0
  0
SPLINE
  5
8EC0
330
1F
100
AcDbEntity
  8
0
 62
     0
370
    13
100
AcDbSpline
210
0.0
220
0.0
230
1.0
 70
     8
 71
     3
 72
     8
 73
     4
 74
     0
 42
0.000000001
 43
0.0000000001
 40
0.0
 40
0.0
 40
0.0
 40
0.0
 40
1.0
 40
1.0
 40
1.0
 40
1.0
 10
114.4337676334175
 20
174.186932409378
 30
0.0
 10
114.4337676334175
 20
168.7219774411262
 30
0.0
 10
116.5697268342724
 20
163.5760383148084
 30
0.0
 10
120.4483875863409
 20
159.6966885436428
 30
0.0
  0
SPLINE
  5
8EC1
330
1F
100
AcDbEntity
  8
0
 62
     0
370
    13
100
AcDbSpline
210
0.0
220
0.0
230
1.0
 70
     8
 71
     3
 72
    11
 73
     7
 74
     0
 42
0.000000001
 43
0.0000000001
 40
1.0
 40
1.0
 40
1.0
 40
1.0
 40
2.0
 40
2.0
 40
2.0
 40
3.0
 40
3.0
 40
3.0
 40
3.0
 10
120.4483875863409
 20
159.6966885436428
 30
0.0
 10
124.3267038288609
 20
155.8169942629287
 30
0.0
 10
129.4698868787904
 20
153.6801737882025
 30
0.0
 10
134.9305354776857
 20
153.6801737882025
 30
0.0
 10
140.3818823187707
 20
153.6801737882025
 30
0.0
 10
145.5224815470863
 20
155.8190613202199
 30
0.0
 10
149.4052764137371
 20
159.7025452059679
 30
0.0
  0
SPLINE
  5
8EC2
330
1F
100
AcDbEntity
  8
0
 62
     0
370
    13
100
AcDbSpline
210
0.0
220
0.0
230
1.0
 70
     8
 71
     3
 72
    11
 73
     7
 74
     0
 42
0.000000001
 43
0.0000000001
 40
3.0
 40
3.0
 40
3.0
 40
3.0
 40
4.0
 40
4.0
 40
4.0
 40
5.0
 40
5.0
 40
5.0
 40
5.0
 10
149.4052764137371
 20
159.7025452059679
 30
0.0
 10
153.288760299485
 20
163.5862013464899
 30
0.0
 10
155.4273033219538
 20
168.7300734155165
 30
0.0
 10
155.4273033219538
 20
174.186932409378
 30
0.0
 10
155.4273033219538
 20
179.6641174666025
 30
0.0
 10
153.2973730381981
 20
184.8102288476944
 30
0.0
 10
149.4300811012309
 20
188.6775207846616
 30
0.0
  0
SPLINE
  5
8EC3
330
1F
100
AcDbEntity
  8
0
 62
     0
370
    13
100
AcDbSpline
210
0.0
220
0.0
230
1.0
 70
     8
 71
     3
 72
    11
 73
     7
 74
     0
 42
0.000000001
 43
0.0000000001
 40
5.0
 40
5.0
 40
5.0
 40
5.0
 40
6.0
 40
6.0
 40
6.0
 40
7.0
 40
7.0
 40
7.0
 40
7.0
 10
149.4300811012309
 20
188.6775207846616
 30
0.0
 10
145.5574492662616
 20
192.5506693839537
 30
0.0
 10
140.4080650444587
 20
194.6835279988719
 30
0.0
 10
134.9305354776857
 20
194.6835279988719
 30
0.0
 10
123.6285552287751
 20
194.6835279988719
 30
0.0
 10
114.4337676334175
 20
185.4887404035143
 30
0.0
 10
114.4337676334175
 20
174.186932409378
 30
0.0
  0
SPLINE
  5
8EC4
330
1F
100
AcDbEntity
  8
0
 62
     0
370
    13
100
AcDbSpline
210
0.0
220
0.0
230
1.0
 70
     8
 71
     3
 72
     8
 73
     4
 74
     0
 42
0.000000001
 43
0.0000000001
 40
0.0
 40
0.0
 40
0.0
 40
0.0
 40
1.0
 40
1.0
 40
1.0
 40
1.0
 10
114.9338232431015
 20
174.186932409378
 30
0.0
 10
114.9338232431015
 20
168.8556471459539
 30
0.0
 10
117.0177615021291
 20
163.8351094952993
 30
0.0
 10
120.8020266379018
 20
160.0501553404296
 30
0.0
  0
SPLINE
  5
8EC5
330
1F
100
AcDbEntity
  8
0
 62
     0
370
    13
100
AcDbSpline
210
0.0
220
0.0
230
1.0
 70
     8
 71
     3
 72
    11
 73
     7
 74
     0
 42
0.000000001
 43
0.0000000001
 40
1.0
 40
1.0
 40
1.0
 40
1.0
 40
2.0
 40
2.0
 40
2.0
 40
3.0
 40
3.0
 40
3.0
 40
3.0
 10
120.8020266379018
 20
160.0501553404296
 30
0.0
 10
124.585947264126
 20
156.2648566760113
 30
0.0
 10
129.6035565836181
 20
154.1800571431123
 30
0.0
 10
134.9305354776857
 20
154.1800571431123
 30
0.0
 10
140.2482126139431
 20
154.1800571431123
 30
0.0
 10
145.2632381118212
 20
156.2669237333025
 30
0.0
 10
149.0516373621762
 20
160.0560120027545
 30
0.0
  0
SPLINE
  5
8EC6
330
1F
100
AcDbEntity
  8
0
 62
     0
370
    13
100
AcDbSpline
210
0.0
220
0.0
230
1.0
 70
     8
 71
     3
 72
    11
 73
     7
 74
     0
 42
0.000000001
 43
0.0000000001
 40
3.0
 40
3.0
 40
3.0
 40
3.0
 40
4.0
 40
4.0
 40
4.0
 40
5.0
 40
5.0
 40
5.0
 40
5.0
 10
149.0516373621762
 20
160.0560120027545
 30
0.0
 10
152.8407256316283
 20
163.8452725269808
 30
0.0
 10
154.9272477122698
 20
168.86357086557
 30
0.0
 10
154.9272477122698
 20
174.186932409378
 30
0.0
 10
154.9272477122698
 20
179.5304477617748
 30
0.0
 10
152.8495106251157
 20
184.5509854124293
 30
0.0
 10
149.07644204967
 20
188.3238817331007
 30
0.0
  0
SPLINE
  5
8EC7
330
1F
100
AcDbEntity
  8
0
 62
     0
370
    13
100
AcDbSpline
210
0.0
220
0.0
230
1.0
 70
     8
 71
     3
 72
    11
 73
     7
 74
     0
 42
0.000000001
 43
0.0000000001
 40
5.0
 40
5.0
 40
5.0
 40
5.0
 40
6.0
 40
6.0
 40
6.0
 40
7.0
 40
7.0
 40
7.0
 40
7.0
 10
149.07644204967
 20
188.3238817331007
 30
0.0
 10
145.2983780857708
 20
192.1026347160969
 30
0.0
 10
140.2745675944052
 20
194.1834723891878
 30
0.0
 10
134.9305354776857
 20
194.1834723891878
 30
0.0
 10
123.9043351223693
 20
194.1834723891878
 30
0.0
 10
114.9338232431015
 20
185.2131327646944
 30
0.0
 10
114.9338232431015
 20
174.186932409378
 30
0.0
  0
SPLINE
  5
8EC8
330
1F
100
AcDbEntity
  8
0
 62
     0
370
    13
100
AcDbSpline
210
0.0
220
0.0
230
1.0
 70
     8
 71
     3
 72
     8
 73
     4
 74
     0
 42
0.000000001
 43
0.0000000001
 40
0.0
 40
0.0
 40
0.0
 40
0.0
 40
1.0
 40
1.0
 40
1.0
 40
1.0
 10
115.4338788527855
 20
174.186932409378
 30
0.0
 10
115.4338788527855
 20
168.9891445960072
 30
0.0
 10
117.4657961699859
 20
164.0941806757901
 30
0.0
 10
121.1556656894627
 20
160.4036221372162
 30
0.0
  0
SPLINE
  5
8EC9
330
1F
100
AcDbEntity
  8
0
 62
     0
370
    13
100
AcDbSpline
210
0.0
220
0.0
230
1.0
 70
     8
 71
     3
 72
    11
 73
     7
 74
     0
 42
0.000000001
 43
0.0000000001
 40
1.0
 40
1.0
 40
1.0
 40
1.0
 40
2.0
 40
2.0
 40
2.0
 40
3.0
 40
3.0
 40
3.0
 40
3.0
 10
121.1556656894627
 20
160.4036221372162
 30
0.0
 10
124.845190699391
 20
156.7127190890938
 30
0.0
 10
129.7372262884458
 20
154.6799404980221
 30
0.0
 10
134.9305354776857
 20
154.6799404980221
 30
0.0
 10
140.1145429091154
 20
154.6799404980221
 30
0.0
 10
145.0039946765562
 20
156.7147861463849
 30
0.0
 10
148.6979983106153
 20
160.409478799541
 30
0.0
  0
SPLINE
  5
8ECA
330
1F
100
AcDbEntity
  8
0
 62
     0
370
    13
100
AcDbSpline
210
0.0
220
0.0
230
1.0
 70
     8
 71
     3
 72
    11
 73
     7
 74
     0
 42
0.000000001
 43
0.0000000001
 40
3.0
 40
3.0
 40
3.0
 40
3.0
 40
4.0
 40
4.0
 40
4.0
 40
5.0
 40
5.0
 40
5.0
 40
5.0
 10
148.6979983106153
 20
160.409478799541
 30
0.0
 10
152.3925187089973
 20
164.1041714526972
 30
0.0
 10
154.4271921025858
 20
168.9970683156233
 30
0.0
 10
154.4271921025858
 20
174.186932409378
 30
0.0
 10
154.4271921025858
 20
179.3969503117214
 30
0.0
 10
152.4014759572589
 20
184.2919142319386
 30
0.0
 10
148.7229752528834
 20
187.9702426815397
 30
0.0
  0
SPLINE
  5
8ECB
330
1F
100
AcDbEntity
  8
0
 62
     0
370
    13
100
AcDbSpline
210
0.0
220
0.0
230
1.0
 70
     8
 71
     3
 72
    11
 73
     7
 74
     0
 42
0.000000001
 43
0.0000000001
 40
5.0
 40
5.0
 40
5.0
 40
5.0
 40
6.0
 40
6.0
 40
6.0
 40
7.0
 40
7.0
 40
7.0
 40
7.0
 10
148.7229752528834
 20
187.9702426815397
 30
0.0
 10
145.03930690528
 20
191.654427793466
 30
0.0
 10
140.141242399126
 20
193.6834167795038
 30
0.0
 10
134.9305354776857
 20
193.6834167795038
 30
0.0
 10
124.1799427611893
 20
193.6834167795038
 30
0.0
 10
115.4338788527855
 20
184.9373528711001
 30
0.0
 10
115.4338788527855
 20
174.186932409378
 30
0.0
  0
SPLINE
  5
8ECC
330
1F
100
AcDbEntity
  8
0
 62
     0
370
    13
100
AcDbSpline
210
0.0
220
0.0
230
1.0
 70
     8
 71
     3
 72
     8
 73
     4
 74
     0
 42
0.000000001
 43
0.0000000001
 40
0.0
 40
0.0
 40
0.0
 40
0.0
 40
1.0
 40
1.0
 40
1.0
 40
1.0
 10
115.9339344624696
 20
174.186932409378
 30
0.0
 10
115.9339344624696
 20
169.1226420460608
 30
0.0
 10
117.9140030926169
 20
164.3530796015066
 30
0.0
 10
121.5093047410236
 20
160.7570889340028
 30
0.0
  0
SPLINE
  5
8ECD
330
1F
100
AcDbEntity
  8
0
 62
     0
370
    13
100
AcDbSpline
210
0.0
220
0.0
230
1.0
 70
     8
 71
     3
 72
    11
 73
     7
 74
     0
 42
0.000000001
 43
0.0000000001
 40
1.0
 40
1.0
 40
1.0
 40
1.0
 40
2.0
 40
2.0
 40
2.0
 40
3.0
 40
3.0
 40
3.0
 40
3.0
 10
121.5093047410236
 20
160.7570889340028
 30
0.0
 10
125.1044341346561
 20
157.1605815021762
 30
0.0
 10
129.8708959932735
 20
155.1798238529319
 30
0.0
 10
134.9305354776857
 20
155.1798238529319
 30
0.0
 10
139.9810454590619
 20
155.1798238529319
 30
0.0
 10
144.7447512412912
 20
157.1626485594674
 30
0.0
 10
148.3443592590544
 20
160.7629455963278
 30
0.0
  0
SPLINE
  5
8ECE
330
1F
100
AcDbEntity
  8
0
 62
     0
370
    13
100
AcDbSpline
210
0.0
220
0.0
230
1.0
 70
     8
 71
     3
 72
    11
 73
     7
 74
     0
 42
0.000000001
 43
0.0000000001
 40
3.0
 40
3.0
 40
3.0
 40
3.0
 40
4.0
 40
4.0
 40
4.0
 40
5.0
 40
5.0
 40
5.0
 40
5.0
 10
148.3443592590544
 20
160.7629455963278
 30
0.0
 10
151.9444840411405
 20
164.3632426331881
 30
0.0
 10
153.9271364929018
 20
169.1307380204511
 30
0.0
 10
153.9271364929018
 20
174.186932409378
 30
0.0
 10
153.9271364929018
 20
179.2634528616679
 30
0.0
 10
151.9534412894022
 20
184.0328430514477
 30
0.0
 10
148.3695084560968
 20
187.6166036299788
 30
0.0
  0
SPLINE
  5
8ECF
330
1F
100
AcDbEntity
  8
0
 62
     0
370
    13
100
AcDbSpline
210
0.0
220
0.0
230
1.0
 70
     8
 71
     3
 72
    11
 73
     7
 74
     0
 42
0.000000001
 43
0.0000000001
 40
5.0
 40
5.0
 40
5.0
 40
5.0
 40
6.0
 40
6.0
 40
6.0
 40
7.0
 40
7.0
 40
7.0
 40
7.0
 10
148.3695084560968
 20
187.6166036299788
 30
0.0
 10
144.7802357247892
 20
191.2063931256093
 30
0.0
 10
140.0074004395241
 20
193.1833611698199
 30
0.0
 10
134.9305354776857
 20
193.1833611698199
 30
0.0
 10
124.4557226547835
 20
193.1833611698199
 30
0.0
 10
115.9339344624696
 20
184.6615729775058
 30
0.0
 10
115.9339344624696
 20
174.186932409378
 30
0.0
  0
SPLINE
  5
8ED0
330
1F
100
AcDbEntity
  8
0
 62
     0
370
    13
100
AcDbSpline
210
0.0
220
0.0
230
1.0
 70
     8
 71
     3
 72
     8
 73
     4
 74
     0
 42
0.000000001
 43
0.0000000001
 40
0.0
 40
0.0
 40
0.0
 40
0.0
 40
1.0
 40
1.0
 40
1.0
 40
1.0
 10
116.4339900721536
 20
174.186932409378
 30
0.0
 10
116.4339900721536
 20
169.2561394961141
 30
0.0
 10
118.3620377604736
 20
164.6121507819973
 30
0.0
 10
121.8629437925845
 20
161.1105557307894
 30
0.0
  0
SPLINE
  5
8ED1
330
1F
100
AcDbEntity
  8
0
 62
     0
370
    13
100
AcDbSpline
210
0.0
220
0.0
230
1.0
 70
     8
 71
     3
 72
    11
 73
     7
 74
     0
 42
0.000000001
 43
0.0000000001
 40
1.0
 40
1.0
 40
1.0
 40
1.0
 40
2.0
 40
2.0
 40
2.0
 40
3.0
 40
3.0
 40
3.0
 40
3.0
 10
121.8629437925845
 20
161.1105557307894
 30
0.0
 10
125.3636775699211
 20
157.6084439152586
 30
0.0
 10
130.0045656981012
 20
155.6798794626159
 30
0.0
 10
134.9305354776857
 20
155.6798794626159
 30
0.0
 10
139.8473757542342
 20
155.6798794626159
 30
0.0
 10
144.4855078060261
 20
157.6105109725498
 30
0.0
 10
147.9907202074936
 20
161.1164123931144
 30
0.0
  0
SPLINE
  5
8ED2
330
1F
100
AcDbEntity
  8
0
 62
     0
370
    13
100
AcDbSpline
210
0.0
220
0.0
230
1.0
 70
     8
 71
     3
 72
    11
 73
     7
 74
     0
 42
0.000000001
 43
0.0000000001
 40
3.0
 40
3.0
 40
3.0
 40
3.0
 40
4.0
 40
4.0
 40
4.0
 40
5.0
 40
5.0
 40
5.0
 40
5.0
 10
147.9907202074936
 20
161.1164123931144
 30
0.0
 10
151.4964493732838
 20
164.6223138136788
 30
0.0
 10
153.4270808832178
 20
169.2642354705044
 30
0.0
 10
153.4270808832178
 20
174.186932409378
 30
0.0
 10
153.4270808832178
 20
179.1299554116144
 30
0.0
 10
151.5054066215454
 20
183.773771870957
 30
0.0
 10
148.0160416593101
 20
187.262964578418
 30
0.0
  0
SPLINE
  5
8ED3
330
1F
100
AcDbEntity
  8
0
 62
     0
370
    13
100
AcDbSpline
210
0.0
220
0.0
230
1.0
 70
     8
 71
     3
 72
    11
 73
     7
 74
     0
 42
0.000000001
 43
0.0000000001
 40
5.0
 40
5.0
 40
5.0
 40
5.0
 40
6.0
 40
6.0
 40
6.0
 40
7.0
 40
7.0
 40
7.0
 40
7.0
 10
148.0160416593101
 20
187.262964578418
 30
0.0
 10
144.5211645442984
 20
190.7583584577525
 30
0.0
 10
139.8739029894707
 20
192.6833055601359
 30
0.0
 10
134.9305354776857
 20
192.6833055601359
 30
0.0
 10
124.7315025483778
 20
192.6833055601359
 30
0.0
 10
116.4339900721536
 20
184.3859653386859
 30
0.0
 10
116.4339900721536
 20
174.186932409378
 30
0.0
  0
SPLINE
  5
8ED4
330
1F
100
AcDbEntity
  8
0
 62
     0
370
    13
100
AcDbSpline
210
0.0
220
0.0
230
1.0
 70
     8
 71
     3
 72
     8
 73
     4
 74
     0
 42
0.000000001
 43
0.0000000001
 40
0.0
 40
0.0
 40
0.0
 40
0.0
 40
1.0
 40
1.0
 40
1.0
 40
1.0
 10
116.9340456818376
 20
174.186932409378
 30
0.0
 10
116.9340456818376
 20
169.3896369461676
 30
0.0
 10
118.8100724283304
 20
164.8712219624882
 30
0.0
 10
122.2165828441454
 20
161.464022527576
 30
0.0
  0
SPLINE
  5
8ED5
330
1F
100
AcDbEntity
  8
0
 62
     0
370
    13
100
AcDbSpline
210
0.0
220
0.0
230
1.0
 70
     8
 71
     3
 72
    11
 73
     7
 74
     0
 42
0.000000001
 43
0.0000000001
 40
1.0
 40
1.0
 40
1.0
 40
1.0
 40
2.0
 40
2.0
 40
2.0
 40
3.0
 40
3.0
 40
3.0
 40
3.0
 10
122.2165828441454
 20
161.464022527576
 30
0.0
 10
125.6227487504119
 20
158.0564785831154
 30
0.0
 10
130.1380631481546
 20
156.1799350722998
 30
0.0
 10
134.9305354776857
 20
156.1799350722998
 30
0.0
 10
139.7138783041808
 20
156.1799350722998
 30
0.0
 10
144.2264366255353
 20
158.0585456404066
 30
0.0
 10
147.6370811559327
 20
161.469879189901
 30
0.0
  0
SPLINE
  5
8ED6
330
1F
100
AcDbEntity
  8
0
 62
     0
370
    13
100
AcDbSpline
210
0.0
220
0.0
230
1.0
 70
     8
 71
     3
 72
    11
 73
     7
 74
     0
 42
0.000000001
 43
0.0000000001
 40
3.0
 40
3.0
 40
3.0
 40
3.0
 40
4.0
 40
4.0
 40
4.0
 40
5.0
 40
5.0
 40
5.0
 40
5.0
 10
147.6370811559327
 20
161.469879189901
 30
0.0
 10
151.048414705427
 20
164.8813849941697
 30
0.0
 10
152.9270252735338
 20
169.3977329205579
 30
0.0
 10
152.9270252735338
 20
174.186932409378
 30
0.0
 10
152.9270252735338
 20
178.9964579615611
 30
0.0
 10
151.0573719536887
 20
183.5147006904662
 30
0.0
 10
147.6625748625235
 20
186.9093255268571
 30
0.0
  0
SPLINE
  5
8ED7
330
1F
100
AcDbEntity
  8
0
 62
     0
370
    13
100
AcDbSpline
210
0.0
220
0.0
230
1.0
 70
     8
 71
     3
 72
    11
 73
     7
 74
     0
 42
0.000000001
 43
0.0000000001
 40
5.0
 40
5.0
 40
5.0
 40
5.0
 40
6.0
 40
6.0
 40
6.0
 40
7.0
 40
7.0
 40
7.0
 40
7.0
 10
147.6625748625235
 20
186.9093255268571
 30
0.0
 10
144.2620933638077
 20
190.3103237898957
 30
0.0
 10
139.7404055394172
 20
192.1832499504519
 30
0.0
 10
134.9305354776857
 20
192.1832499504519
 30
0.0
 10
125.0072824419721
 20
192.1832499504519
 30
0.0
 10
116.9340456818376
 20
184.1101854450915
 30
0.0
 10
116.9340456818376
 20
174.186932409378
 30
0.0
  0
TEXT
  5
8ED8
330
1F
100
AcDbEntity
  8
図枠
  6
Continuous
 62
     7
100
AcDbText
 10
238.9561696508168
 20
42.25078378069942
 30
0.0
 40
3.0
  1
小林
100
AcDbText
  0
TEXT
  5
8ED9
330
1F
100
AcDbEntity
  8
図枠
  6
Continuous
 62
     7
100
AcDbText
 10
241.2571696508168
 20
55.54203071089941
 30
0.0
 40
3.0
  1
原
100
AcDbText
  0
TEXT
  5
8EDA
330
1F
100
AcDbEntity
  8
図枠
  6
Continuous
 62
     7
100
AcDbText
 10
362.599598397
 20
29.16793142687501
 30
0.0
 40
3.0
  1
5106666
100
AcDbText
  0
TEXT
  5
8EDB
330
1F
100
AcDbEntity
  8
0
  6
Continuous
 62
     7
370
     9
100
AcDbText
 10
388.327183117371
 20
79.32645129644852
 30
0.0
 40
3.0
  1
【COLOR】
100
AcDbText
  0
TEXT
  5
8EDC
330
1F
100
AcDbEntity
  8
0
  6
Continuous
 62
     7
370
     9
100
AcDbText
 10
388.531183117371
 20
74.32645129644852
 30
0.0
 40
3.0
  1
NA
100
AcDbText
  0
TEXT
  5
8EDD
330
1F
100
AcDbEntity
  8
0
  6
Continuous
 62
     7
370
     9
100
AcDbText
 10
330.2580881422846
 20
271.2651241310617
 30
0.0
 40
3.0
  1
注.本図において寸法公差は±0.5とする。
100
AcDbText
  0
POLYLINE
  5
8EDE
330
1F
100
AcDbEntity
  8
図枠
 62
     0
370
     0
100
AcDb2dPolyline
 66
     1
 10
0.0
 20
0.0
 30
0.0
  0
VERTEX
  5
8EDF
330
8EDE
100
AcDbEntity
  8
図枠
 62
     0
370
     0
100
AcDbVertex
100
AcDb2dVertex
 10
352.8419647532385
 20
21.22035332814248
 30
0.0
  0
VERTEX
  5
8EE0
330
8EDE
100
AcDbEntity
  8
図枠
 62
     0
370
     0
100
AcDbVertex
100
AcDb2dVertex
 10
351.9622657567668
 20
21.22035332814248
 30
0.0
  0
VERTEX
  5
8EE1
330
8EDE
100
AcDbEntity
  8
図枠
 62
     0
370
     0
100
AcDbVertex
100
AcDb2dVertex
 10
351.9622657567668
 20
23.47065566004929
 30
0.0
  0
VERTEX
  5
8EE2
330
8EDE
100
AcDbEntity
  8
図枠
 62
     0
370
     0
100
AcDbVertex
100
AcDb2dVertex
 10
351.880220746468
 20
23.47065566004929
 30
0.0
  0
VERTEX
  5
8EE3
330
8EDE
100
AcDbEntity
  8
図枠
 62
     0
370
     0
100
AcDbVertex
100
AcDb2dVertex
 10
350.7550695520921
 20
23.47065566004929
 30
0.0
  0
VERTEX
  5
8EE4
330
8EDE
100
AcDbEntity
  8
図枠
 62
     0
370
     0
100
AcDbVertex
100
AcDb2dVertex
 10
350.7550695520921
 20
21.22035332814248
 30
0.0
  0
VERTEX
  5
8EE5
330
8EDE
100
AcDbEntity
  8
図枠
 62
     0
370
     0
100
AcDbVertex
100
AcDb2dVertex
 10
350.0102563343963
 20
21.22035332814248
 30
0.0
  0
VERTEX
  5
8EE6
330
8EDE
100
AcDbEntity
  8
図枠
 62
     0
370
     0
100
AcDbVertex
100
AcDb2dVertex
 10
350.0102563343963
 20
20.08212328443831
 30
0.0
  0
VERTEX
  5
8EE7
330
8EDE
100
AcDbEntity
  8
図枠
 62
     0
370
     0
100
AcDbVertex
100
AcDb2dVertex
 10
350.7550695520921
 20
20.08212328443831
 30
0.0
  0
VERTEX
  5
8EE8
330
8EDE
100
AcDbEntity
  8
図枠
 62
     0
370
     0
100
AcDbVertex
100
AcDb2dVertex
 10
350.7550695520921
 20
12.95607835738157
 30
0.0
  0
VERTEX
  5
8EE9
330
8EDE
100
AcDbEntity
  8
図枠
 62
     0
370
     0
100
AcDbVertex
100
AcDb2dVertex
 10
351.9622657567668
 20
12.95607835738157
 30
0.0
  0
VERTEX
  5
8EEA
330
8EDE
100
AcDbEntity
  8
図枠
 62
     0
370
     0
100
AcDbVertex
100
AcDb2dVertex
 10
351.9622657567668
 20
20.08212328443831
 30
0.0
  0
VERTEX
  5
8EEB
330
8EDE
100
AcDbEntity
  8
図枠
 62
     0
370
     0
100
AcDbVertex
100
AcDb2dVertex
 10
352.8419647532385
 20
20.08212328443831
 30
0.0
  0
VERTEX
  5
8EEC
330
8EDE
100
AcDbEntity
  8
図枠
 62
     0
370
     0
100
AcDbVertex
100
AcDb2dVertex
 10
352.8419647532385
 20
21.22035332814248
 30
0.0
  0
SEQEND
  5
8EED
330
8EDE
100
AcDbEntity
  8
図枠
 62
     0
370
     0
  0
SPLINE
  5
8EEE
330
1F
100
AcDbEntity
  8
図枠
 62
     0
370
     0
100
AcDbSpline
210
0.0
220
0.0
230
1.0
 70
    11
 71
     3
 72
    77
 73
    73
 74
     0
 42
0.000000001
 43
0.0000000001
 40
0.0
 40
0.0
 40
0.0
 40
0.0
 40
1.0
 40
1.0
 40
1.0
 40
2.0
 40
2.0
 40
2.0
 40
3.0
 40
3.0
 40
3.0
 40
4.0
 40
4.0
 40
4.0
 40
5.0
 40
5.0
 40
5.0
 40
6.0
 40
6.0
 40
6.0
 40
7.0
 40
7.0
 40
7.0
 40
8.0
 40
8.0
 40
8.0
 40
9.0
 40
9.0
 40
9.0
 40
10.0
 40
10.0
 40
10.0
 40
11.0
 40
11.0
 40
11.0
 40
12.0
 40
12.0
 40
12.0
 40
13.0
 40
13.0
 40
13.0
 40
14.0
 40
14.0
 40
14.0
 40
15.0
 40
15.0
 40
15.0
 40
16.0
 40
16.0
 40
16.0
 40
17.0
 40
17.0
 40
17.0
 40
18.0
 40
18.0
 40
18.0
 40
19.0
 40
19.0
 40
19.0
 40
20.0
 40
20.0
 40
20.0
 40
21.0
 40
21.0
 40
21.0
 40
22.0
 40
22.0
 40
22.0
 40
23.0
 40
23.0
 40
23.0
 40
24.0
 40
24.0
 40
24.0
 40
24.0
 10
353.2238784983639
 20
19.86619790214547
 30
0.0
 10
353.2238784983639
 20
19.86619790214547
 30
0.0
 10
353.2238784983639
 20
19.86619790214547
 30
0.0
 10
353.2238784983639
 20
19.86619790214547
 30
0.0
 10
353.2238784983639
 20
19.86619790214547
 30
0.0
 10
353.1105282216502
 20
19.84260648705672
 30
0.0
 10
353.1105282216502
 20
19.84260648705672
 30
0.0
 10
353.1105282216502
 20
19.84260648705672
 30
0.0
 10
353.1105282216502
 20
18.80518048342528
 30
0.0
 10
353.1105282216502
 20
18.80518048342528
 30
0.0
 10
353.1105282216502
 20
18.80518048342528
 30
0.0
 10
353.2723596408134
 20
18.82671598549009
 30
0.0
 10
353.2723596408134
 20
18.82671598549009
 30
0.0
 10
355.1012490221198
 20
19.08576492269264
 30
0.0
 10
356.0896760412043
 20
19.86771373029135
 30
0.0
 10
356.4731130291577
 20
21.51045229129077
 30
0.0
 10
356.4731130291577
 20
21.51045229129077
 30
0.0
 10
358.1953228868296
 20
21.51045229129077
 30
0.0
 10
358.1953228868296
 20
21.51045229129077
 30
0.0
 10
358.1953228868296
 20
21.51045229129077
 30
0.0
 10
358.1953228868296
 20
19.99188428051341
 30
0.0
 10
358.1953228868296
 20
19.99188428051341
 30
0.0
 10
358.1953228868296
 20
19.99188428051341
 30
0.0
 10
356.8991482907046
 20
19.99188428051341
 30
0.0
 10
356.8991482907046
 20
19.99188428051341
 30
0.0
 10
356.8991482907046
 20
19.99188428051341
 30
0.0
 10
356.8991482907046
 20
18.85312898067388
 30
0.0
 10
356.8991482907046
 20
18.85312898067388
 30
0.0
 10
356.8991482907046
 20
18.85312898067388
 30
0.0
 10
358.6849666678845
 20
18.85312898067388
 30
0.0
 10
358.6849666678845
 20
18.85312898067388
 30
0.0
 10
358.9275824825907
 20
18.85312898067388
 30
0.0
 10
359.3348660996575
 20
18.94494375300489
 30
0.0
 10
359.3348660996575
 20
19.56280254414988
 30
0.0
 10
359.3348660996575
 20
19.56280254414988
 30
0.0
 10
359.3348660996575
 20
22.04085593602242
 30
0.0
 10
359.3348660996575
 20
22.04085593602242
 30
0.0
 10
359.3348660996575
 20
22.33447411527076
 30
0.0
 10
359.1045412788131
 20
22.64968032164983
 30
0.0
 10
358.7310841576691
 20
22.64968032164983
 30
0.0
 10
358.7310841576691
 20
22.64968032164983
 30
0.0
 10
356.6344191921714
 20
22.64968032164983
 30
0.0
 10
356.6344191921714
 20
22.64968032164983
 30
0.0
 10
356.6385687157374
 20
22.78561660928839
 30
0.0
 10
356.6601042178028
 20
23.32778599143591
 30
0.0
 10
356.6601042178028
 20
23.32778599143591
 30
0.0
 10
356.6601042178028
 20
23.32778599143591
 30
0.0
 10
356.6601042178028
 20
23.47065566004929
 30
0.0
 10
356.6601042178028
 20
23.47065566004929
 30
0.0
 10
356.6601042178028
 20
23.47065566004929
 30
0.0
 10
356.5803178089392
 20
23.47065566004929
 30
0.0
 10
356.5803178089392
 20
23.47065566004929
 30
0.0
 10
356.5803178089392
 20
23.47065566004929
 30
0.0
 10
355.4021157436281
 20
23.47065566004929
 30
0.0
 10
355.4021157436281
 20
23.47065566004929
 30
0.0
 10
355.4021157436281
 20
23.47065566004929
 30
0.0
 10
355.4021157436281
 20
23.32778599143591
 30
0.0
 10
355.4021157436281
 20
23.32778599143591
 30
0.0
 10
355.4021157436281
 20
23.32778599143591
 30
0.0
 10
355.3890368655472
 20
22.77201247540002
 30
0.0
 10
355.3848873419774
 20
22.64968032164983
 30
0.0
 10
355.3848873419774
 20
22.64968032164983
 30
0.0
 10
352.7883886261557
 20
22.64968032164983
 30
0.0
 10
352.7883886261557
 20
22.64968032164983
 30
0.0
 10
352.7883886261557
 20
22.64968032164983
 30
0.0
 10
352.7883886261557
 20
21.51045229129077
 30
0.0
 10
352.7883886261557
 20
21.51045229129077
 30
0.0
 10
352.7883886261557
 20
21.51045229129077
 30
0.0
 10
355.2307771881884
 20
21.51045229129077
 30
0.0
 10
355.2307771881884
 20
21.51045229129077
 30
0.0
 10
354.9799148519585
 20
20.54019915943462
 30
0.0
 10
354.3936239396942
 20
20.10781573017174
 30
0.0
 10
353.2238784983639
 20
19.86619790214547
 30
0.0
  0
SPLINE
  5
8EEF
330
1F
100
AcDbEntity
  8
図枠
 62
     0
370
     0
100
AcDbSpline
210
0.0
220
0.0
230
1.0
 70
    11
 71
     3
 72
    74
 73
    70
 74
     0
 42
0.000000001
 43
0.0000000001
 40
0.0
 40
0.0
 40
0.0
 40
0.0
 40
1.0
 40
1.0
 40
1.0
 40
2.0
 40
2.0
 40
2.0
 40
3.0
 40
3.0
 40
3.0
 40
4.0
 40
4.0
 40
4.0
 40
5.0
 40
5.0
 40
5.0
 40
6.0
 40
6.0
 40
6.0
 40
7.0
 40
7.0
 40
7.0
 40
8.0
 40
8.0
 40
8.0
 40
9.0
 40
9.0
 40
9.0
 40
10.0
 40
10.0
 40
10.0
 40
11.0
 40
11.0
 40
11.0
 40
12.0
 40
12.0
 40
12.0
 40
13.0
 40
13.0
 40
13.0
 40
14.0
 40
14.0
 40
14.0
 40
15.0
 40
15.0
 40
15.0
 40
16.0
 40
16.0
 40
16.0
 40
17.0
 40
17.0
 40
17.0
 40
18.0
 40
18.0
 40
18.0
 40
19.0
 40
19.0
 40
19.0
 40
20.0
 40
20.0
 40
20.0
 40
21.0
 40
21.0
 40
21.0
 40
22.0
 40
22.0
 40
22.0
 40
23.0
 40
23.0
 40
23.0
 40
23.0
 10
355.1569261737967
 20
18.1986073113328
 30
0.0
 10
355.1569261737967
 20
18.1986073113328
 30
0.0
 10
354.1671860143437
 20
18.1986073113328
 30
0.0
 10
354.1671860143437
 20
18.1986073113328
 30
0.0
 10
354.1671860143437
 20
18.1986073113328
 30
0.0
 10
354.1671860143437
 20
18.56203203087069
 30
0.0
 10
354.1671860143437
 20
18.56203203087069
 30
0.0
 10
354.1671860143437
 20
18.56203203087069
 30
0.0
 10
354.0868743493337
 20
18.56203203087069
 30
0.0
 10
354.0868743493337
 20
18.56203203087069
 30
0.0
 10
354.0868743493337
 20
18.56203203087069
 30
0.0
 10
353.1933611161721
 20
18.56203203087069
 30
0.0
 10
353.1933611161721
 20
18.56203203087069
 30
0.0
 10
353.1933611161721
 20
18.56203203087069
 30
0.0
 10
353.1125767206272
 20
18.56203203087069
 30
0.0
 10
353.1125767206272
 20
18.56203203087069
 30
0.0
 10
353.1125767206272
 20
18.56203203087069
 30
0.0
 10
353.1130494511608
 20
18.33350046262746
 30
0.0
 10
353.1130494511608
 20
18.33350046262746
 30
0.0
 10
353.1130494511608
 20
18.33350046262746
 30
0.0
 10
353.1146252196048
 20
18.26069258644576
 30
0.0
 10
353.1146252196048
 20
18.1986073113328
 30
0.0
 10
353.1146252196048
 20
18.1986073113328
 30
0.0
 10
352.2143887077501
 20
18.1986073113328
 30
0.0
 10
352.2143887077501
 20
18.1986073113328
 30
0.0
 10
352.2143887077501
 20
18.1986073113328
 30
0.0
 10
352.2143887077501
 20
17.05985201149038
 30
0.0
 10
352.2143887077501
 20
17.05985201149038
 30
0.0
 10
352.2143887077501
 20
17.05985201149038
 30
0.0
 10
353.1146252196048
 20
17.05985201149038
 30
0.0
 10
353.1146252196048
 20
17.05985201149038
 30
0.0
 10
353.0989725863981
 20
15.72055391945737
 30
0.0
 10
353.1146252196048
 20
14.56903489554708
 30
0.0
 10
352.2941751166132
 20
14.00401687154434
 30
0.0
 10
352.2941751166132
 20
14.00401687154434
 30
0.0
 10
352.2338757108367
 20
13.96141859902769
 30
0.0
 10
352.2338757108367
 20
13.96141859902769
 30
0.0
 10
352.2338757108367
 20
13.96141859902769
 30
0.0
 10
352.2338757108367
 20
12.91038107366726
 30
0.0
 10
352.2338757108367
 20
12.91038107366726
 30
0.0
 10
352.2338757108367
 20
12.91038107366726
 30
0.0
 10
352.4344710337129
 20
12.99862410428237
 30
0.0
 10
352.4344710337129
 20
12.99862410428237
 30
0.0
 10
354.0148092058442
 20
13.68881066516528
 30
0.0
 10
354.1053633657371
 20
15.37535558779064
 30
0.0
 10
354.1541071362627
 20
17.05985201149038
 30
0.0
 10
354.1541071362627
 20
17.05985201149038
 30
0.0
 10
354.6588257687611
 20
17.05985201149038
 30
0.0
 10
354.6588257687611
 20
17.05985201149038
 30
0.0
 10
354.6588257687611
 20
17.05985201149038
 30
0.0
 10
354.6588257687611
 20
14.08532652118078
 30
0.0
 10
354.6588257687611
 20
14.08532652118078
 30
0.0
 10
354.6588257687611
 20
14.08532652118078
 30
0.0
 10
353.8688930479638
 20
14.08532652118078
 30
0.0
 10
353.8688930479638
 20
14.08532652118078
 30
0.0
 10
353.8688930479638
 20
14.08532652118078
 30
0.0
 10
353.8688930479638
 20
12.95607835738157
 30
0.0
 10
353.8688930479638
 20
12.95607835738157
 30
0.0
 10
353.8688930479638
 20
12.95607835738157
 30
0.0
 10
355.0571275056976
 20
12.95607835738157
 30
0.0
 10
355.0571275056976
 20
12.95607835738157
 30
0.0
 10
355.4992881309868
 20
12.95607835738157
 30
0.0
 10
355.797581097366
 20
13.28278767310688
 30
0.0
 10
355.797581097366
 20
13.78163068508682
 30
0.0
 10
355.797581097366
 20
13.78163068508682
 30
0.0
 10
355.797581097366
 20
17.53000877758672
 30
0.0
 10
355.797581097366
 20
17.53000877758672
 30
0.0
 10
355.797581097366
 20
17.95546624662268
 30
0.0
 10
355.5644198933243
 20
18.1986073113328
 30
0.0
 10
355.1569261737967
 20
18.1986073113328
 30
0.0
  0
SPLINE
  5
8EF0
330
1F
100
AcDbEntity
  8
図枠
 62
     0
370
     0
100
AcDbSpline
210
0.0
220
0.0
230
1.0
 70
    11
 71
     3
 72
    68
 73
    64
 74
     0
 42
0.000000001
 43
0.0000000001
 40
0.0
 40
0.0
 40
0.0
 40
0.0
 40
1.0
 40
1.0
 40
1.0
 40
2.0
 40
2.0
 40
2.0
 40
3.0
 40
3.0
 40
3.0
 40
4.0
 40
4.0
 40
4.0
 40
5.0
 40
5.0
 40
5.0
 40
6.0
 40
6.0
 40
6.0
 40
7.0
 40
7.0
 40
7.0
 40
8.0
 40
8.0
 40
8.0
 40
9.0
 40
9.0
 40
9.0
 40
10.0
 40
10.0
 40
10.0
 40
11.0
 40
11.0
 40
11.0
 40
12.0
 40
12.0
 40
12.0
 40
13.0
 40
13.0
 40
13.0
 40
14.0
 40
14.0
 40
14.0
 40
15.0
 40
15.0
 40
15.0
 40
16.0
 40
16.0
 40
16.0
 40
17.0
 40
17.0
 40
17.0
 40
18.0
 40
18.0
 40
18.0
 40
19.0
 40
19.0
 40
19.0
 40
20.0
 40
20.0
 40
20.0
 40
21.0
 40
21.0
 40
21.0
 40
21.0
 10
358.9454937172352
 20
18.1986073113328
 30
0.0
 10
358.9454937172352
 20
18.1986073113328
 30
0.0
 10
357.9552808272479
 20
18.1986073113328
 30
0.0
 10
357.9552808272479
 20
18.1986073113328
 30
0.0
 10
357.9542303149528
 20
18.30633734454358
 30
0.0
 10
357.9542303149528
 20
18.56203203087069
 30
0.0
 10
357.9542303149528
 20
18.56203203087069
 30
0.0
 10
357.9542303149528
 20
18.56203203087069
 30
0.0
 10
357.8744964317049
 20
18.56203203087069
 30
0.0
 10
357.8744964317049
 20
18.56203203087069
 30
0.0
 10
357.8744964317049
 20
18.56203203087069
 30
0.0
 10
356.9011967896796
 20
18.56203203087069
 30
0.0
 10
356.9011967896796
 20
18.56203203087069
 30
0.0
 10
356.9011967896796
 20
18.56203203087069
 30
0.0
 10
356.9021947763589
 20
18.26016733031039
 30
0.0
 10
356.9021947763589
 20
18.1986073113328
 30
0.0
 10
356.9021947763589
 20
18.1986073113328
 30
0.0
 10
356.0040592890977
 20
18.1986073113328
 30
0.0
 10
356.0040592890977
 20
18.1986073113328
 30
0.0
 10
356.0040592890977
 20
18.1986073113328
 30
0.0
 10
356.0040592890977
 20
17.05985201149038
 30
0.0
 10
356.0040592890977
 20
17.05985201149038
 30
0.0
 10
356.0040592890977
 20
17.05985201149038
 30
0.0
 10
356.9011967896796
 20
17.05985201149038
 30
0.0
 10
356.9011967896796
 20
17.05985201149038
 30
0.0
 10
356.8801340181516
 20
15.72312767451838
 30
0.0
 10
356.8891158982786
 20
14.57439250811964
 30
0.0
 10
356.064568797335
 20
14.00401687154434
 30
0.0
 10
356.064568797335
 20
14.00401687154434
 30
0.0
 10
356.0014855339764
 20
13.96141859902769
 30
0.0
 10
356.0014855339764
 20
13.96141859902769
 30
0.0
 10
356.0014855339764
 20
13.96141859902769
 30
0.0
 10
356.0014855339764
 20
12.91038107366726
 30
0.0
 10
356.0014855339764
 20
12.91038107366726
 30
0.0
 10
356.0014855339764
 20
12.91038107366726
 30
0.0
 10
356.2015030750891
 20
12.99862410428237
 30
0.0
 10
356.2015030750891
 20
12.99862410428237
 30
0.0
 10
357.7903503968145
 20
13.6918571507458
 30
0.0
 10
357.8870500536395
 20
15.44715810138998
 30
0.0
 10
357.9411514368718
 20
17.05985201149038
 30
0.0
 10
357.9411514368718
 20
17.05985201149038
 30
0.0
 10
358.4474458378154
 20
17.05985201149038
 30
0.0
 10
358.4474458378154
 20
17.05985201149038
 30
0.0
 10
358.4474458378154
 20
17.05985201149038
 30
0.0
 10
358.4474458378154
 20
14.08532652118078
 30
0.0
 10
358.4474458378154
 20
14.08532652118078
 30
0.0
 10
358.4474458378154
 20
14.08532652118078
 30
0.0
 10
357.6569878608686
 20
14.08532652118078
 30
0.0
 10
357.6569878608686
 20
14.08532652118078
 30
0.0
 10
357.6569878608686
 20
14.08532652118078
 30
0.0
 10
357.6569878608686
 20
12.95607835738157
 30
0.0
 10
357.6569878608686
 20
12.95607835738157
 30
0.0
 10
357.6569878608686
 20
12.95607835738157
 30
0.0
 10
358.845747574752
 20
12.95607835738157
 30
0.0
 10
358.845747574752
 20
12.95607835738157
 30
0.0
 10
359.2884334561868
 20
12.95607835738157
 30
0.0
 10
359.5874617811731
 20
13.28278767310688
 30
0.0
 10
359.5874617811731
 20
13.78163068508682
 30
0.0
 10
359.5874617811731
 20
13.78163068508682
 30
0.0
 10
359.5874617811731
 20
17.53000877758672
 30
0.0
 10
359.5874617811731
 20
17.53000877758672
 30
0.0
 10
359.5874617811731
 20
17.95546624662268
 30
0.0
 10
359.3530399623748
 20
18.1986073113328
 30
0.0
 10
358.9454937172352
 20
18.1986073113328
 30
0.0
  0
HATCH
  5
8EF1
330
1F
100
AcDbEntity
  8
図枠
 62
     0
100
AcDbHatch
 10
0.0
 20
0.0
 30
0.0
210
0.0
220
0.0
230
1.0
  2
SOLID
 70
     1
 71
     0
 91
        4
 92
        1
 93
       13
 72
     1
 10
352.8419647532385
 20
21.22035332814248
 11
351.9622657567668
 21
21.22035332814248
 72
     1
 10
351.9622657567668
 20
21.22035332814248
 11
351.9622657567668
 21
23.4706556600493
 72
     1
 10
351.9622657567668
 20
23.47065566004929
 11
351.880220746468
 21
23.47065566004929
 72
     1
 10
351.880220746468
 20
23.47065566004929
 11
350.7550695520921
 21
23.47065566004929
 72
     1
 10
350.7550695520921
 20
23.47065566004929
 11
350.7550695520921
 21
21.22035332814248
 72
     1
 10
350.7550695520921
 20
21.22035332814248
 11
350.0102563343963
 21
21.22035332814248
 72
     1
 10
350.0102563343963
 20
21.22035332814248
 11
350.0102563343963
 21
20.08212328443831
 72
     1
 10
350.0102563343963
 20
20.08212328443831
 11
350.7550695520921
 21
20.08212328443831
 72
     1
 10
350.7550695520921
 20
20.08212328443831
 11
350.7550695520921
 21
12.95607835738157
 72
     1
 10
350.7550695520921
 20
12.95607835738157
 11
351.9622657567668
 21
12.95607835738157
 72
     1
 10
351.9622657567668
 20
12.95607835738157
 11
351.9622657567668
 21
20.08212328443831
 72
     1
 10
351.9622657567668
 20
20.08212328443831
 11
352.8419647532385
 21
20.08212328443831
 72
     1
 10
352.8419647532385
 20
20.08212328443831
 11
352.8419647532385
 21
21.22035332814248
 97
        0
 92
        1
 93
        2
 72
     4
 94
        3
 73
     0
 74
     0
 95
       77
 96
       73
 40
0.0
 40
0.0
 40
0.0
 40
0.0
 40
0.3527777776895833
 40
0.3527777776895833
 40
0.3527777776895833
 40
0.7055555553791667
 40
0.7055555553791667
 40
0.7055555553791667
 40
1.05833333306875
 40
1.05833333306875
 40
1.05833333306875
 40
1.411111110758333
 40
1.411111110758333
 40
1.411111110758333
 40
1.763888888447917
 40
1.763888888447917
 40
1.763888888447917
 40
2.1166666661375
 40
2.1166666661375
 40
2.1166666661375
 40
2.469444443827083
 40
2.469444443827083
 40
2.469444443827083
 40
2.822222221516667
 40
2.822222221516667
 40
2.822222221516667
 40
3.17499999920625
 40
3.17499999920625
 40
3.17499999920625
 40
3.527777776895833
 40
3.527777776895833
 40
3.527777776895833
 40
3.880555554585417
 40
3.880555554585417
 40
3.880555554585417
 40
4.233333332275
 40
4.233333332275
 40
4.233333332275
 40
4.586111109964584
 40
4.586111109964584
 40
4.586111109964584
 40
4.938888887654167
 40
4.938888887654167
 40
4.938888887654167
 40
5.29166666534375
 40
5.29166666534375
 40
5.29166666534375
 40
5.644444443033334
 40
5.644444443033334
 40
5.644444443033334
 40
5.997222220722917
 40
5.997222220722917
 40
5.997222220722917
 40
6.349999998412501
 40
6.349999998412501
 40
6.349999998412501
 40
6.702777776102083
 40
6.702777776102083
 40
6.702777776102083
 40
7.055555553791667
 40
7.055555553791667
 40
7.055555553791667
 40
7.40833333148125
 40
7.40833333148125
 40
7.40833333148125
 40
7.761111109170834
 40
7.761111109170834
 40
7.761111109170834
 40
8.113888886860417
 40
8.113888886860417
 40
8.113888886860417
 40
8.46666666455
 40
8.46666666455
 40
8.46666666455
 40
8.46666666455
 10
353.2238784983639
 20
19.86619790214547
 10
353.2238784983639
 20
19.86619790214547
 10
353.2238784983639
 20
19.86619790214547
 10
353.2238784983639
 20
19.86619790214547
 10
353.2238784983639
 20
19.86619790214547
 10
353.1105282216502
 20
19.84260648705672
 10
353.1105282216502
 20
19.84260648705672
 10
353.1105282216502
 20
19.84260648705672
 10
353.1105282216502
 20
18.80518048342528
 10
353.1105282216502
 20
18.80518048342528
 10
353.1105282216502
 20
18.80518048342528
 10
353.2723596408134
 20
18.82671598549009
 10
353.2723596408134
 20
18.82671598549009
 10
355.1012490221198
 20
19.08576492269264
 10
356.0896760412043
 20
19.86771373029135
 10
356.4731130291577
 20
21.51045229129077
 10
356.4731130291577
 20
21.51045229129077
 10
358.1953228868296
 20
21.51045229129077
 10
358.1953228868296
 20
21.51045229129077
 10
358.1953228868296
 20
21.51045229129077
 10
358.1953228868296
 20
19.99188428051341
 10
358.1953228868296
 20
19.99188428051341
 10
358.1953228868296
 20
19.99188428051341
 10
356.8991482907046
 20
19.99188428051341
 10
356.8991482907046
 20
19.99188428051341
 10
356.8991482907046
 20
19.99188428051341
 10
356.8991482907046
 20
18.85312898067388
 10
356.8991482907046
 20
18.85312898067388
 10
356.8991482907046
 20
18.85312898067388
 10
358.6849666678845
 20
18.85312898067388
 10
358.6849666678845
 20
18.85312898067388
 10
358.9275824825907
 20
18.85312898067388
 10
359.3348660996575
 20
18.94494375300489
 10
359.3348660996575
 20
19.56280254414988
 10
359.3348660996575
 20
19.56280254414988
 10
359.3348660996575
 20
22.04085593602242
 10
359.3348660996575
 20
22.04085593602242
 10
359.3348660996575
 20
22.33447411527076
 10
359.1045412788131
 20
22.64968032164983
 10
358.7310841576691
 20
22.64968032164983
 10
358.7310841576691
 20
22.64968032164983
 10
356.6344191921714
 20
22.64968032164983
 10
356.6344191921714
 20
22.64968032164983
 10
356.6385687157374
 20
22.78561660928839
 10
356.6601042178028
 20
23.32778599143591
 10
356.6601042178028
 20
23.32778599143591
 10
356.6601042178028
 20
23.32778599143591
 10
356.6601042178028
 20
23.47065566004929
 10
356.6601042178028
 20
23.47065566004929
 10
356.6601042178028
 20
23.47065566004929
 10
356.5803178089392
 20
23.47065566004929
 10
356.5803178089392
 20
23.47065566004929
 10
356.5803178089392
 20
23.47065566004929
 10
355.4021157436281
 20
23.47065566004929
 10
355.4021157436281
 20
23.47065566004929
 10
355.4021157436281
 20
23.47065566004929
 10
355.4021157436281
 20
23.32778599143591
 10
355.4021157436281
 20
23.32778599143591
 10
355.4021157436281
 20
23.32778599143591
 10
355.3890368655472
 20
22.77201247540002
 10
355.3848873419774
 20
22.64968032164983
 10
355.3848873419774
 20
22.64968032164983
 10
352.7883886261557
 20
22.64968032164983
 10
352.7883886261557
 20
22.64968032164983
 10
352.7883886261557
 20
22.64968032164983
 10
352.7883886261557
 20
21.51045229129077
 10
352.7883886261557
 20
21.51045229129077
 10
352.7883886261557
 20
21.51045229129077
 10
355.2307771881884
 20
21.51045229129077
 10
355.2307771881884
 20
21.51045229129077
 10
354.9799148519585
 20
20.54019915943462
 10
354.3936239396942
 20
20.10781573017174
 10
353.2238784983639
 20
19.86619790214547
 97
        0
 72
     1
 10
353.2238784983639
 20
19.86619790214547
 11
353.2238784983639
 21
19.86619790214547
 97
        0
 92
        1
 93
        2
 72
     4
 94
        3
 73
     0
 74
     0
 95
       74
 96
       70
 40
0.0
 40
0.0
 40
0.0
 40
0.0
 40
0.3527777776895833
 40
0.3527777776895833
 40
0.3527777776895833
 40
0.7055555553791667
 40
0.7055555553791667
 40
0.7055555553791667
 40
1.05833333306875
 40
1.05833333306875
 40
1.05833333306875
 40
1.411111110758333
 40
1.411111110758333
 40
1.411111110758333
 40
1.763888888447917
 40
1.763888888447917
 40
1.763888888447917
 40
2.1166666661375
 40
2.1166666661375
 40
2.1166666661375
 40
2.469444443827083
 40
2.469444443827083
 40
2.469444443827083
 40
2.822222221516667
 40
2.822222221516667
 40
2.822222221516667
 40
3.17499999920625
 40
3.17499999920625
 40
3.17499999920625
 40
3.527777776895833
 40
3.527777776895833
 40
3.527777776895833
 40
3.880555554585417
 40
3.880555554585417
 40
3.880555554585417
 40
4.233333332275
 40
4.233333332275
 40
4.233333332275
 40
4.586111109964584
 40
4.586111109964584
 40
4.586111109964584
 40
4.938888887654167
 40
4.938888887654167
 40
4.938888887654167
 40
5.29166666534375
 40
5.29166666534375
 40
5.29166666534375
 40
5.644444443033334
 40
5.644444443033334
 40
5.644444443033334
 40
5.997222220722917
 40
5.997222220722917
 40
5.997222220722917
 40
6.349999998412501
 40
6.349999998412501
 40
6.349999998412501
 40
6.702777776102083
 40
6.702777776102083
 40
6.702777776102083
 40
7.055555553791667
 40
7.055555553791667
 40
7.055555553791667
 40
7.40833333148125
 40
7.40833333148125
 40
7.40833333148125
 40
7.761111109170834
 40
7.761111109170834
 40
7.761111109170834
 40
8.113888886860417
 40
8.113888886860417
 40
8.113888886860417
 40
8.113888886860417
 10
355.1569261737967
 20
18.1986073113328
 10
355.1569261737967
 20
18.1986073113328
 10
354.1671860143437
 20
18.1986073113328
 10
354.1671860143437
 20
18.1986073113328
 10
354.1671860143437
 20
18.1986073113328
 10
354.1671860143437
 20
18.56203203087069
 10
354.1671860143437
 20
18.56203203087069
 10
354.1671860143437
 20
18.56203203087069
 10
354.0868743493337
 20
18.56203203087069
 10
354.0868743493337
 20
18.56203203087069
 10
354.0868743493337
 20
18.56203203087069
 10
353.1933611161721
 20
18.56203203087069
 10
353.1933611161721
 20
18.56203203087069
 10
353.1933611161721
 20
18.56203203087069
 10
353.1125767206272
 20
18.56203203087069
 10
353.1125767206272
 20
18.56203203087069
 10
353.1125767206272
 20
18.56203203087069
 10
353.1130494511608
 20
18.33350046262746
 10
353.1130494511608
 20
18.33350046262746
 10
353.1130494511608
 20
18.33350046262746
 10
353.1146252196048
 20
18.26069258644576
 10
353.1146252196048
 20
18.1986073113328
 10
353.1146252196048
 20
18.1986073113328
 10
352.2143887077501
 20
18.1986073113328
 10
352.2143887077501
 20
18.1986073113328
 10
352.2143887077501
 20
18.1986073113328
 10
352.2143887077501
 20
17.05985201149038
 10
352.2143887077501
 20
17.05985201149038
 10
352.2143887077501
 20
17.05985201149038
 10
353.1146252196048
 20
17.05985201149038
 10
353.1146252196048
 20
17.05985201149038
 10
353.0989725863981
 20
15.72055391945737
 10
353.1146252196048
 20
14.56903489554708
 10
352.2941751166132
 20
14.00401687154434
 10
352.2941751166132
 20
14.00401687154434
 10
352.2338757108367
 20
13.96141859902769
 10
352.2338757108367
 20
13.96141859902769
 10
352.2338757108367
 20
13.96141859902769
 10
352.2338757108367
 20
12.91038107366726
 10
352.2338757108367
 20
12.91038107366726
 10
352.2338757108367
 20
12.91038107366726
 10
352.4344710337129
 20
12.99862410428237
 10
352.4344710337129
 20
12.99862410428237
 10
354.0148092058442
 20
13.68881066516528
 10
354.1053633657371
 20
15.37535558779064
 10
354.1541071362627
 20
17.05985201149038
 10
354.1541071362627
 20
17.05985201149038
 10
354.6588257687611
 20
17.05985201149038
 10
354.6588257687611
 20
17.05985201149038
 10
354.6588257687611
 20
17.05985201149038
 10
354.6588257687611
 20
14.08532652118078
 10
354.6588257687611
 20
14.08532652118078
 10
354.6588257687611
 20
14.08532652118078
 10
353.8688930479638
 20
14.08532652118078
 10
353.8688930479638
 20
14.08532652118078
 10
353.8688930479638
 20
14.08532652118078
 10
353.8688930479638
 20
12.95607835738157
 10
353.8688930479638
 20
12.95607835738157
 10
353.8688930479638
 20
12.95607835738157
 10
355.0571275056976
 20
12.95607835738157
 10
355.0571275056976
 20
12.95607835738157
 10
355.4992881309868
 20
12.95607835738157
 10
355.797581097366
 20
13.28278767310688
 10
355.797581097366
 20
13.78163068508682
 10
355.797581097366
 20
13.78163068508682
 10
355.797581097366
 20
17.53000877758672
 10
355.797581097366
 20
17.53000877758672
 10
355.797581097366
 20
17.95546624662268
 10
355.5644198933243
 20
18.1986073113328
 10
355.1569261737967
 20
18.1986073113328
 97
        0
 72
     1
 10
355.1569261737967
 20
18.1986073113328
 11
355.1569261737967
 21
18.1986073113328
 97
        0
 92
        1
 93
        2
 72
     4
 94
        3
 73
     0
 74
     0
 95
       68
 96
       64
 40
0.0
 40
0.0
 40
0.0
 40
0.0
 40
0.3527777776895833
 40
0.3527777776895833
 40
0.3527777776895833
 40
0.7055555553791667
 40
0.7055555553791667
 40
0.7055555553791667
 40
1.05833333306875
 40
1.05833333306875
 40
1.05833333306875
 40
1.411111110758333
 40
1.411111110758333
 40
1.411111110758333
 40
1.763888888447917
 40
1.763888888447917
 40
1.763888888447917
 40
2.1166666661375
 40
2.1166666661375
 40
2.1166666661375
 40
2.469444443827083
 40
2.469444443827083
 40
2.469444443827083
 40
2.822222221516667
 40
2.822222221516667
 40
2.822222221516667
 40
3.17499999920625
 40
3.17499999920625
 40
3.17499999920625
 40
3.527777776895833
 40
3.527777776895833
 40
3.527777776895833
 40
3.880555554585417
 40
3.880555554585417
 40
3.880555554585417
 40
4.233333332275
 40
4.233333332275
 40
4.233333332275
 40
4.586111109964584
 40
4.586111109964584
 40
4.586111109964584
 40
4.938888887654167
 40
4.938888887654167
 40
4.938888887654167
 40
5.29166666534375
 40
5.29166666534375
 40
5.29166666534375
 40
5.644444443033334
 40
5.644444443033334
 40
5.644444443033334
 40
5.997222220722917
 40
5.997222220722917
 40
5.997222220722917
 40
6.349999998412501
 40
6.349999998412501
 40
6.349999998412501
 40
6.702777776102083
 40
6.702777776102083
 40
6.702777776102083
 40
7.055555553791667
 40
7.055555553791667
 40
7.055555553791667
 40
7.40833333148125
 40
7.40833333148125
 40
7.40833333148125
 40
7.40833333148125
 10
358.9454937172352
 20
18.1986073113328
 10
358.9454937172352
 20
18.1986073113328
 10
357.9552808272479
 20
18.1986073113328
 10
357.9552808272479
 20
18.1986073113328
 10
357.9542303149528
 20
18.30633734454358
 10
357.9542303149528
 20
18.56203203087069
 10
357.9542303149528
 20
18.56203203087069
 10
357.9542303149528
 20
18.56203203087069
 10
357.8744964317049
 20
18.56203203087069
 10
357.8744964317049
 20
18.56203203087069
 10
357.8744964317049
 20
18.56203203087069
 10
356.9011967896796
 20
18.56203203087069
 10
356.9011967896796
 20
18.56203203087069
 10
356.9011967896796
 20
18.56203203087069
 10
356.9021947763589
 20
18.26016733031039
 10
356.9021947763589
 20
18.1986073113328
 10
356.9021947763589
 20
18.1986073113328
 10
356.0040592890977
 20
18.1986073113328
 10
356.0040592890977
 20
18.1986073113328
 10
356.0040592890977
 20
18.1986073113328
 10
356.0040592890977
 20
17.05985201149038
 10
356.0040592890977
 20
17.05985201149038
 10
356.0040592890977
 20
17.05985201149038
 10
356.9011967896796
 20
17.05985201149038
 10
356.9011967896796
 20
17.05985201149038
 10
356.8801340181516
 20
15.72312767451838
 10
356.8891158982786
 20
14.57439250811964
 10
356.064568797335
 20
14.00401687154434
 10
356.064568797335
 20
14.00401687154434
 10
356.0014855339764
 20
13.96141859902769
 10
356.0014855339764
 20
13.96141859902769
 10
356.0014855339764
 20
13.96141859902769
 10
356.0014855339764
 20
12.91038107366726
 10
356.0014855339764
 20
12.91038107366726
 10
356.0014855339764
 20
12.91038107366726
 10
356.2015030750891
 20
12.99862410428237
 10
356.2015030750891
 20
12.99862410428237
 10
357.7903503968145
 20
13.6918571507458
 10
357.8870500536395
 20
15.44715810138998
 10
357.9411514368718
 20
17.05985201149038
 10
357.9411514368718
 20
17.05985201149038
 10
358.4474458378154
 20
17.05985201149038
 10
358.4474458378154
 20
17.05985201149038
 10
358.4474458378154
 20
17.05985201149038
 10
358.4474458378154
 20
14.08532652118078
 10
358.4474458378154
 20
14.08532652118078
 10
358.4474458378154
 20
14.08532652118078
 10
357.6569878608686
 20
14.08532652118078
 10
357.6569878608686
 20
14.08532652118078
 10
357.6569878608686
 20
14.08532652118078
 10
357.6569878608686
 20
12.95607835738157
 10
357.6569878608686
 20
12.95607835738157
 10
357.6569878608686
 20
12.95607835738157
 10
358.845747574752
 20
12.95607835738157
 10
358.845747574752
 20
12.95607835738157
 10
359.2884334561868
 20
12.95607835738157
 10
359.5874617811731
 20
13.28278767310688
 10
359.5874617811731
 20
13.78163068508682
 10
359.5874617811731
 20
13.78163068508682
 10
359.5874617811731
 20
17.53000877758672
 10
359.5874617811731
 20
17.53000877758672
 10
359.5874617811731
 20
17.95546624662268
 10
359.3530399623748
 20
18.1986073113328
 10
358.9454937172352
 20
18.1986073113328
 97
        0
 72
     1
 10
358.9454937172352
 20
18.1986073113328
 11
358.9454937172352
 21
18.1986073113328
 97
        0
 75
     2
 76
     1
 98
        0
  0
POLYLINE
  5
8EF2
330
1F
100
AcDbEntity
  8
図枠
 62
     0
370
     0
100
AcDb2dPolyline
 66
     1
 10
0.0
 20
0.0
 30
0.0
  0
VERTEX
  5
8EF3
330
8EF2
100
AcDbEntity
  8
図枠
 62
     0
370
     0
100
AcDbVertex
100
AcDb2dVertex
 10
349.282146262203
 20
22.76949124595486
 30
0.0
  0
VERTEX
  5
8EF4
330
8EF2
100
AcDbEntity
  8
図枠
 62
     0
370
     0
100
AcDbVertex
100
AcDb2dVertex
 10
341.1532295919783
 20
22.76949124595486
 30
0.0
  0
VERTEX
  5
8EF5
330
8EF2
100
AcDbEntity
  8
図枠
 62
     0
370
     0
100
AcDbVertex
100
AcDb2dVertex
 10
341.1532295919783
 20
21.63073594611533
 30
0.0
  0
VERTEX
  5
8EF6
330
8EF2
100
AcDbEntity
  8
図枠
 62
     0
370
     0
100
AcDbVertex
100
AcDb2dVertex
 10
349.282146262203
 20
21.63073594611533
 30
0.0
  0
VERTEX
  5
8EF7
330
8EF2
100
AcDbEntity
  8
図枠
 62
     0
370
     0
100
AcDbVertex
100
AcDb2dVertex
 10
349.282146262203
 20
22.76949124595486
 30
0.0
  0
SEQEND
  5
8EF8
330
8EF2
100
AcDbEntity
  8
図枠
 62
     0
370
     0
  0
HATCH
  5
8EF9
330
1F
100
AcDbEntity
  8
図枠
 62
     0
100
AcDbHatch
 10
0.0
 20
0.0
 30
0.0
210
0.0
220
0.0
230
1.0
  2
SOLID
 70
     1
 71
     0
 91
        1
 92
        1
 93
        4
 72
     1
 10
349.282146262203
 20
22.76949124595486
 11
341.1532295919784
 21
22.76949124595486
 72
     1
 10
341.1532295919783
 20
22.76949124595486
 11
341.1532295919783
 21
21.63073594611533
 72
     1
 10
341.1532295919783
 20
21.63073594611533
 11
349.282146262203
 21
21.63073594611533
 72
     1
 10
349.282146262203
 20
21.63073594611533
 11
349.282146262203
 21
22.76949124595486
 97
        0
 75
     2
 76
     1
 98
        0
  0
POLYLINE
  5
8EFA
330
1F
100
AcDbEntity
  8
図枠
 62
     0
370
     0
100
AcDb2dPolyline
 66
     1
 10
0.0
 20
0.0
 30
0.0
  0
VERTEX
  5
8EFB
330
8EFA
100
AcDbEntity
  8
図枠
 62
     0
370
     0
100
AcDbVertex
100
AcDb2dVertex
 10
348.9979826862004
 20
18.57820991981686
 30
0.0
  0
VERTEX
  5
8EFC
330
8EFA
100
AcDbEntity
  8
図枠
 62
     0
370
     0
100
AcDbVertex
100
AcDb2dVertex
 10
341.4358699251528
 20
18.57820991981686
 30
0.0
  0
VERTEX
  5
8EFD
330
8EFA
100
AcDbEntity
  8
図枠
 62
     0
370
     0
100
AcDbVertex
100
AcDb2dVertex
 10
341.4358699251528
 20
17.43997987611173
 30
0.0
  0
VERTEX
  5
8EFE
330
8EFA
100
AcDbEntity
  8
図枠
 62
     0
370
     0
100
AcDbVertex
100
AcDb2dVertex
 10
348.9979826862004
 20
17.43997987611173
 30
0.0
  0
VERTEX
  5
8EFF
330
8EFA
100
AcDbEntity
  8
図枠
 62
     0
370
     0
100
AcDbVertex
100
AcDb2dVertex
 10
348.9979826862004
 20
18.57820991981686
 30
0.0
  0
SEQEND
  5
8F00
330
8EFA
100
AcDbEntity
  8
図枠
 62
     0
370
     0
  0
HATCH
  5
8F01
330
1F
100
AcDbEntity
  8
図枠
 62
     0
100
AcDbHatch
 10
0.0
 20
0.0
 30
0.0
210
0.0
220
0.0
230
1.0
  2
SOLID
 70
     1
 71
     0
 91
        1
 92
        1
 93
        4
 72
     1
 10
348.9979826862004
 20
18.57820991981686
 11
341.4358699251528
 21
18.57820991981686
 72
     1
 10
341.4358699251528
 20
18.57820991981686
 11
341.4358699251528
 21
17.43997987611173
 72
     1
 10
341.4358699251528
 20
17.43997987611173
 11
348.9979826862004
 21
17.43997987611173
 72
     1
 10
348.9979826862004
 20
17.43997987611173
 11
348.9979826862004
 21
18.57820991981686
 97
        0
 75
     2
 76
     1
 98
        0
  0
POLYLINE
  5
8F02
330
1F
100
AcDbEntity
  8
図枠
 62
     0
370
     0
100
AcDb2dPolyline
 66
     1
 10
0.0
 20
0.0
 30
0.0
  0
VERTEX
  5
8F03
330
8F02
100
AcDbEntity
  8
図枠
 62
     0
370
     0
100
AcDbVertex
100
AcDb2dVertex
 10
340.6407896941058
 20
13.17637078023646
 30
0.0
  0
VERTEX
  5
8F04
330
8F02
100
AcDbEntity
  8
図枠
 62
     0
370
     0
100
AcDbVertex
100
AcDb2dVertex
 10
349.7937982758539
 20
13.17637078023646
 30
0.0
  0
VERTEX
  5
8F05
330
8F02
100
AcDbEntity
  8
図枠
 62
     0
370
     0
100
AcDbVertex
100
AcDb2dVertex
 10
349.7937982758539
 20
14.31460082394062
 30
0.0
  0
VERTEX
  5
8F06
330
8F02
100
AcDbEntity
  8
図枠
 62
     0
370
     0
100
AcDbVertex
100
AcDb2dVertex
 10
340.6407896941058
 20
14.31460082394062
 30
0.0
  0
VERTEX
  5
8F07
330
8F02
100
AcDbEntity
  8
図枠
 62
     0
370
     0
100
AcDbVertex
100
AcDb2dVertex
 10
340.6407896941058
 20
13.17637078023646
 30
0.0
  0
SEQEND
  5
8F08
330
8F02
100
AcDbEntity
  8
図枠
 62
     0
370
     0
  0
HATCH
  5
8F09
330
1F
100
AcDbEntity
  8
図枠
 62
     0
100
AcDbHatch
 10
0.0
 20
0.0
 30
0.0
210
0.0
220
0.0
230
1.0
  2
SOLID
 70
     1
 71
     0
 91
        1
 92
        1
 93
        4
 72
     1
 10
340.6407896941058
 20
13.17637078023646
 11
349.7937982758539
 21
13.17637078023646
 72
     1
 10
349.7937982758539
 20
13.17637078023646
 11
349.7937982758539
 21
14.31460082394062
 72
     1
 10
349.7937982758539
 20
14.31460082394062
 11
340.6407896941058
 21
14.31460082394062
 72
     1
 10
340.6407896941058
 20
14.31460082394062
 11
340.6407896941058
 21
13.17637078023646
 97
        0
 75
     2
 76
     1
 98
        0
  0
SPLINE
  5
8F0A
330
1F
100
AcDbEntity
  8
図枠
 62
     0
370
     0
100
AcDbSpline
210
0.0
220
0.0
230
1.0
 70
    11
 71
     3
 72
    59
 73
    55
 74
     0
 42
0.000000001
 43
0.0000000001
 40
0.0
 40
0.0
 40
0.0
 40
0.0
 40
1.0
 40
1.0
 40
1.0
 40
2.0
 40
2.0
 40
2.0
 40
3.0
 40
3.0
 40
3.0
 40
4.0
 40
4.0
 40
4.0
 40
5.0
 40
5.0
 40
5.0
 40
6.0
 40
6.0
 40
6.0
 40
7.0
 40
7.0
 40
7.0
 40
8.0
 40
8.0
 40
8.0
 40
9.0
 40
9.0
 40
9.0
 40
10.0
 40
10.0
 40
10.0
 40
11.0
 40
11.0
 40
11.0
 40
12.0
 40
12.0
 40
12.0
 40
13.0
 40
13.0
 40
13.0
 40
14.0
 40
14.0
 40
14.0
 40
15.0
 40
15.0
 40
15.0
 40
16.0
 40
16.0
 40
16.0
 40
17.0
 40
17.0
 40
17.0
 40
18.0
 40
18.0
 40
18.0
 40
18.0
 10
360.4238271454481
 20
22.98668465761659
 30
0.0
 10
360.4238271454481
 20
22.98668465761659
 30
0.0
 10
360.3445659927307
 20
22.98668465761659
 30
0.0
 10
360.3445659927307
 20
22.98668465761659
 30
0.0
 10
360.3445659927307
 20
22.98668465761659
 30
0.0
 10
360.3445659927307
 20
21.81284224798708
 30
0.0
 10
360.3445659927307
 20
21.81284224798708
 30
0.0
 10
360.3445659927307
 20
21.81284224798708
 30
0.0
 10
367.6245636767483
 20
21.81284224798708
 30
0.0
 10
367.6245636767483
 20
21.81284224798708
 30
0.0
 10
367.5399449113274
 20
20.39711938836747
 30
0.0
 10
366.1516403868611
 20
18.73258269778035
 30
0.0
 10
364.9136641719185
 20
18.26142794503489
 30
0.0
 10
364.9169732856502
 20
18.33606684176099
 30
0.0
 10
364.9136641719185
 20
18.58818978637606
 30
0.0
 10
364.9136641719185
 20
18.58818978637606
 30
0.0
 10
364.9136641719185
 20
18.58818978637606
 30
0.0
 10
364.9136641719185
 20
20.24626582650467
 30
0.0
 10
364.9136641719185
 20
20.24626582650467
 30
0.0
 10
364.9136641719185
 20
20.24626582650467
 30
0.0
 10
363.6258936741584
 20
20.24626582650467
 30
0.0
 10
363.6258936741584
 20
20.24626582650467
 30
0.0
 10
363.6258936741584
 20
20.24626582650467
 30
0.0
 10
363.6258936741584
 20
18.96264488474132
 30
0.0
 10
363.6258936741584
 20
18.96264488474132
 30
0.0
 10
363.6258936741584
 20
16.2191795680447
 30
0.0
 10
363.2486021831378
 20
15.00705327809477
 30
0.0
 10
360.4920579190564
 20
14.05633965042684
 30
0.0
 10
360.4920579190564
 20
14.05633965042684
 30
0.0
 10
360.4468858903392
 20
14.04478401517534
 30
0.0
 10
360.4468858903392
 20
14.04478401517534
 30
0.0
 10
360.4468858903392
 20
14.04478401517534
 30
0.0
 10
360.3886875091529
 20
14.02733824392294
 30
0.0
 10
360.3886875091529
 20
14.02733824392294
 30
0.0
 10
360.3886875091529
 20
14.02733824392294
 30
0.0
 10
360.3886875091529
 20
12.91657909605744
 30
0.0
 10
360.3886875091529
 20
12.91657909605744
 30
0.0
 10
360.3886875091529
 20
12.91657909605744
 30
0.0
 10
360.5661715615209
 20
12.96170583824341
 30
0.0
 10
360.5661715615209
 20
12.96170583824341
 30
0.0
 10
363.0185399903624
 20
13.63491938575228
 30
0.0
 10
364.2986417483648
 20
14.54156399970843
 30
0.0
 10
364.8102937620182
 20
16.88315584780703
 30
0.0
 10
367.3424485997234
 20
17.72876569892384
 30
0.0
 10
369.0479553118939
 20
20.22908995090361
 30
0.0
 10
369.0479553118939
 20
22.39425574189988
 30
0.0
 10
369.0533654502165
 20
22.39219976446284
 30
0.0
 10
369.0779999635521
 20
22.60944570174106
 30
0.0
 10
368.926148411199
 20
22.78666712155593
 30
0.0
 10
368.8112748916598
 20
22.91898663363101
 30
0.0
 10
368.6324776989193
 20
22.98668465761659
 30
0.0
 10
368.3957447530693
 20
22.98668465761659
 30
0.0
 10
368.3957447530693
 20
22.98668465761659
 30
0.0
 10
360.4238271454481
 20
22.98668465761659
 30
0.0
 10
360.4238271454481
 20
22.98668465761659
 30
0.0
  0
HATCH
  5
8F0B
330
1F
100
AcDbEntity
  8
図枠
 62
     0
100
AcDbHatch
 10
0.0
 20
0.0
 30
0.0
210
0.0
220
0.0
230
1.0
  2
SOLID
 70
     1
 71
     0
 91
        1
 92
        1
 93
        1
 72
     4
 94
        3
 73
     0
 74
     1
 95
       59
 96
       55
 40
0.0
 40
0.0
 40
0.0
 40
0.0
 40
1.0
 40
1.0
 40
1.0
 40
2.0
 40
2.0
 40
2.0
 40
3.0
 40
3.0
 40
3.0
 40
4.0
 40
4.0
 40
4.0
 40
5.0
 40
5.0
 40
5.0
 40
6.0
 40
6.0
 40
6.0
 40
7.0
 40
7.0
 40
7.0
 40
8.0
 40
8.0
 40
8.0
 40
9.0
 40
9.0
 40
9.0
 40
10.0
 40
10.0
 40
10.0
 40
11.0
 40
11.0
 40
11.0
 40
12.0
 40
12.0
 40
12.0
 40
13.0
 40
13.0
 40
13.0
 40
14.0
 40
14.0
 40
14.0
 40
15.0
 40
15.0
 40
15.0
 40
16.0
 40
16.0
 40
16.0
 40
17.0
 40
17.0
 40
17.0
 40
18.0
 40
18.0
 40
18.0
 40
18.0
 10
360.4238271454481
 20
22.98668465761659
 10
360.4238271454481
 20
22.98668465761659
 10
360.3445659927307
 20
22.98668465761659
 10
360.3445659927307
 20
22.98668465761659
 10
360.3445659927307
 20
22.98668465761659
 10
360.3445659927307
 20
21.81284224798708
 10
360.3445659927307
 20
21.81284224798708
 10
360.3445659927307
 20
21.81284224798708
 10
367.6245636767483
 20
21.81284224798708
 10
367.6245636767483
 20
21.81284224798708
 10
367.5399449113274
 20
20.39711938836747
 10
366.1516403868611
 20
18.73258269778035
 10
364.9136641719185
 20
18.26142794503489
 10
364.9169732856502
 20
18.33606684176099
 10
364.9136641719185
 20
18.58818978637606
 10
364.9136641719185
 20
18.58818978637606
 10
364.9136641719185
 20
18.58818978637606
 10
364.9136641719185
 20
20.24626582650467
 10
364.9136641719185
 20
20.24626582650467
 10
364.9136641719185
 20
20.24626582650467
 10
363.6258936741584
 20
20.24626582650467
 10
363.6258936741584
 20
20.24626582650467
 10
363.6258936741584
 20
20.24626582650467
 10
363.6258936741584
 20
18.96264488474132
 10
363.6258936741584
 20
18.96264488474132
 10
363.6258936741584
 20
16.2191795680447
 10
363.2486021831378
 20
15.00705327809477
 10
360.4920579190564
 20
14.05633965042684
 10
360.4920579190564
 20
14.05633965042684
 10
360.4468858903392
 20
14.04478401517534
 10
360.4468858903392
 20
14.04478401517534
 10
360.4468858903392
 20
14.04478401517534
 10
360.3886875091529
 20
14.02733824392294
 10
360.3886875091529
 20
14.02733824392294
 10
360.3886875091529
 20
14.02733824392294
 10
360.3886875091529
 20
12.91657909605744
 10
360.3886875091529
 20
12.91657909605744
 10
360.3886875091529
 20
12.91657909605744
 10
360.5661715615209
 20
12.96170583824341
 10
360.5661715615209
 20
12.96170583824341
 10
363.0185399903624
 20
13.63491938575228
 10
364.2986417483648
 20
14.54156399970843
 10
364.8102937620182
 20
16.88315584780703
 10
367.3424485997234
 20
17.72876569892384
 10
369.0479553118939
 20
20.22908995090361
 10
369.0479553118939
 20
22.39425574189988
 10
369.0533654502165
 20
22.39219976446284
 10
369.0779999635521
 20
22.60944570174106
 10
368.926148411199
 20
22.78666712155593
 10
368.8112748916598
 20
22.91898663363101
 10
368.6324776989193
 20
22.98668465761659
 10
368.3957447530693
 20
22.98668465761659
 10
368.3957447530693
 20
22.98668465761659
 10
360.4238271454481
 20
22.98668465761659
 10
360.4238271454481
 20
22.98668465761659
 97
        0
 97
        0
 75
     2
 76
     1
 98
        0
  0
SPLINE
  5
8F0C
330
1F
100
AcDbEntity
  8
図枠
 62
     0
370
     0
100
AcDbSpline
210
0.0
220
0.0
230
1.0
 70
    11
 71
     3
 72
    35
 73
    31
 74
     0
 42
0.000000001
 43
0.0000000001
 40
0.0
 40
0.0
 40
0.0
 40
0.0
 40
1.0
 40
1.0
 40
1.0
 40
2.0
 40
2.0
 40
2.0
 40
3.0
 40
3.0
 40
3.0
 40
4.0
 40
4.0
 40
4.0
 40
5.0
 40
5.0
 40
5.0
 40
6.0
 40
6.0
 40
6.0
 40
7.0
 40
7.0
 40
7.0
 40
8.0
 40
8.0
 40
8.0
 40
9.0
 40
9.0
 40
9.0
 40
10.0
 40
10.0
 40
10.0
 40
10.0
 10
371.5439725266272
 20
22.9705592942837
 30
0.0
 10
371.5439725266272
 20
22.9705592942837
 30
0.0
 10
370.2975396877039
 20
22.9705592942837
 30
0.0
 10
370.2975396877039
 20
22.9705592942837
 30
0.0
 10
370.2975396877039
 20
22.9705592942837
 30
0.0
 10
370.2975396877039
 20
18.16861518604899
 30
0.0
 10
370.2975396877039
 20
18.16861518604899
 30
0.0
 10
370.2975396877039
 20
16.00041038798007
 30
0.0
 10
369.5947994874514
 20
14.71878541952329
 30
0.0
 10
368.5894066947929
 20
14.24967916570347
 30
0.0
 10
368.5894066947929
 20
14.24967916570347
 30
0.0
 10
368.5537418023514
 20
14.23302854623457
 30
0.0
 10
368.5537418023514
 20
14.23302854623457
 30
0.0
 10
368.5537418023514
 20
14.23302854623457
 30
0.0
 10
368.5052606599024
 20
14.21249103137138
 30
0.0
 10
368.5052606599024
 20
14.21249103137138
 30
0.0
 10
368.5052606599024
 20
14.21249103137138
 30
0.0
 10
368.5052606599024
 20
12.88732232935891
 30
0.0
 10
368.5052606599024
 20
12.88732232935891
 30
0.0
 10
368.5052606599024
 20
12.88732232935891
 30
0.0
 10
368.7392097481671
 20
12.96810672286319
 30
0.0
 10
368.7392097481671
 20
12.96810672286319
 30
0.0
 10
370.5980912555196
 20
13.72237453216563
 30
0.0
 10
371.5849950317753
 20
15.18095829237151
 30
0.0
 10
371.6237589354877
 20
17.846212970621
 30
0.0
 10
371.6237589354877
 20
17.846212970621
 30
0.0
 10
371.6237589354877
 20
22.9705592942837
 30
0.0
 10
371.6237589354877
 20
22.9705592942837
 30
0.0
 10
371.6237589354877
 20
22.9705592942837
 30
0.0
 10
371.5439725266272
 20
22.9705592942837
 30
0.0
 10
371.5439725266272
 20
22.9705592942837
 30
0.0
  0
HATCH
  5
8F0D
330
1F
100
AcDbEntity
  8
図枠
 62
     0
100
AcDbHatch
 10
0.0
 20
0.0
 30
0.0
210
0.0
220
0.0
230
1.0
  2
SOLID
 70
     1
 71
     0
 91
        1
 92
        1
 93
        1
 72
     4
 94
        3
 73
     0
 74
     1
 95
       35
 96
       31
 40
0.0
 40
0.0
 40
0.0
 40
0.0
 40
1.0
 40
1.0
 40
1.0
 40
2.0
 40
2.0
 40
2.0
 40
3.0
 40
3.0
 40
3.0
 40
4.0
 40
4.0
 40
4.0
 40
5.0
 40
5.0
 40
5.0
 40
6.0
 40
6.0
 40
6.0
 40
7.0
 40
7.0
 40
7.0
 40
8.0
 40
8.0
 40
8.0
 40
9.0
 40
9.0
 40
9.0
 40
10.0
 40
10.0
 40
10.0
 40
10.0
 10
371.5439725266272
 20
22.9705592942837
 10
371.5439725266272
 20
22.9705592942837
 10
370.2975396877039
 20
22.9705592942837
 10
370.2975396877039
 20
22.9705592942837
 10
370.2975396877039
 20
22.9705592942837
 10
370.2975396877039
 20
18.16861518604899
 10
370.2975396877039
 20
18.16861518604899
 10
370.2975396877039
 20
16.00041038798007
 10
369.5947994874514
 20
14.71878541952329
 10
368.5894066947929
 20
14.24967916570347
 10
368.5894066947929
 20
14.24967916570347
 10
368.5537418023514
 20
14.23302854623457
 10
368.5537418023514
 20
14.23302854623457
 10
368.5537418023514
 20
14.23302854623457
 10
368.5052606599024
 20
14.21249103137138
 10
368.5052606599024
 20
14.21249103137138
 10
368.5052606599024
 20
14.21249103137138
 10
368.5052606599024
 20
12.88732232935891
 10
368.5052606599024
 20
12.88732232935891
 10
368.5052606599024
 20
12.88732232935891
 10
368.7392097481671
 20
12.96810672286319
 10
368.7392097481671
 20
12.96810672286319
 10
370.5980912555196
 20
13.72237453216563
 10
371.5849950317753
 20
15.18095829237151
 10
371.6237589354877
 20
17.846212970621
 10
371.6237589354877
 20
17.846212970621
 10
371.6237589354877
 20
22.9705592942837
 10
371.6237589354877
 20
22.9705592942837
 10
371.6237589354877
 20
22.9705592942837
 10
371.5439725266272
 20
22.9705592942837
 10
371.5439725266272
 20
22.9705592942837
 97
        0
 97
        0
 75
     2
 76
     1
 98
        0
  0
SPLINE
  5
8F0E
330
1F
100
AcDbEntity
  8
図枠
 62
     0
370
     0
100
AcDbSpline
210
0.0
220
0.0
230
1.0
 70
    11
 71
     3
 72
    38
 73
    34
 74
     0
 42
0.000000001
 43
0.0000000001
 40
0.0
 40
0.0
 40
0.0
 40
0.0
 40
1.0
 40
1.0
 40
1.0
 40
2.0
 40
2.0
 40
2.0
 40
3.0
 40
3.0
 40
3.0
 40
4.0
 40
4.0
 40
4.0
 40
5.0
 40
5.0
 40
5.0
 40
6.0
 40
6.0
 40
6.0
 40
7.0
 40
7.0
 40
7.0
 40
8.0
 40
8.0
 40
8.0
 40
9.0
 40
9.0
 40
9.0
 40
10.0
 40
10.0
 40
10.0
 40
11.0
 40
11.0
 40
11.0
 40
11.0
 10
374.154863260897
 20
22.9705592942837
 30
0.0
 10
374.154863260897
 20
22.9705592942837
 30
0.0
 10
372.908430421977
 20
22.9705592942837
 30
0.0
 10
372.908430421977
 20
22.9705592942837
 30
0.0
 10
372.908430421977
 20
22.9705592942837
 30
0.0
 10
372.908430421977
 20
13.65624478481725
 30
0.0
 10
372.908430421977
 20
13.65624478481725
 30
0.0
 10
372.908430421977
 20
13.42975433957218
 30
0.0
 10
372.973036928165
 20
13.2522702916877
 30
0.0
 10
373.1002539671825
 20
13.12611101253117
 30
0.0
 10
373.2656571281527
 20
12.96500771167002
 30
0.0
 10
373.4736585627093
 20
12.95655108790045
 30
0.0
 10
373.5134204531047
 20
12.95655108790045
 30
0.0
 10
375.9481402753815
 20
12.95655108790045
 30
0.0
 10
378.4051309583265
 20
14.84805095425216
 30
0.0
 10
378.4051309583265
 20
19.23221373165463
 30
0.0
 10
378.4051309583265
 20
19.23221373165463
 30
0.0
 10
378.4051309583265
 20
19.44556537490264
 30
0.0
 10
378.4051309583265
 20
19.44556537490264
 30
0.0
 10
378.4051309583265
 20
19.44556537490264
 30
0.0
 10
377.1814942362207
 20
19.44556537490264
 30
0.0
 10
377.1814942362207
 20
19.44556537490264
 30
0.0
 10
377.1814942362207
 20
19.44556537490264
 30
0.0
 10
377.1814942362207
 20
19.33836059782723
 30
0.0
 10
377.1814942362207
 20
19.33836059782723
 30
0.0
 10
377.1814942362207
 20
16.26303845528649
 30
0.0
 10
375.7231730672439
 20
14.61594026836877
 30
0.0
 10
374.2346496697607
 20
14.37999521269987
 30
0.0
 10
374.2346496697607
 20
14.37999521269987
 30
0.0
 10
374.2346496697607
 20
22.9705592942837
 30
0.0
 10
374.2346496697607
 20
22.9705592942837
 30
0.0
 10
374.2346496697607
 20
22.9705592942837
 30
0.0
 10
374.154863260897
 20
22.9705592942837
 30
0.0
 10
374.154863260897
 20
22.9705592942837
 30
0.0
  0
HATCH
  5
8F0F
330
1F
100
AcDbEntity
  8
図枠
 62
     0
100
AcDbHatch
 10
0.0
 20
0.0
 30
0.0
210
0.0
220
0.0
230
1.0
  2
SOLID
 70
     1
 71
     0
 91
        1
 92
        1
 93
        1
 72
     4
 94
        3
 73
     0
 74
     1
 95
       38
 96
       34
 40
0.0
 40
0.0
 40
0.0
 40
0.0
 40
1.0
 40
1.0
 40
1.0
 40
2.0
 40
2.0
 40
2.0
 40
3.0
 40
3.0
 40
3.0
 40
4.0
 40
4.0
 40
4.0
 40
5.0
 40
5.0
 40
5.0
 40
6.0
 40
6.0
 40
6.0
 40
7.0
 40
7.0
 40
7.0
 40
8.0
 40
8.0
 40
8.0
 40
9.0
 40
9.0
 40
9.0
 40
10.0
 40
10.0
 40
10.0
 40
11.0
 40
11.0
 40
11.0
 40
11.0
 10
374.154863260897
 20
22.9705592942837
 10
374.154863260897
 20
22.9705592942837
 10
372.908430421977
 20
22.9705592942837
 10
372.908430421977
 20
22.9705592942837
 10
372.908430421977
 20
22.9705592942837
 10
372.908430421977
 20
13.65624478481725
 10
372.908430421977
 20
13.65624478481725
 10
372.908430421977
 20
13.42975433957218
 10
372.973036928165
 20
13.2522702916877
 10
373.1002539671825
 20
13.12611101253117
 10
373.2656571281527
 20
12.96500771167002
 10
373.4736585627093
 20
12.95655108790045
 10
373.5134204531047
 20
12.95655108790045
 10
375.9481402753815
 20
12.95655108790045
 10
378.4051309583265
 20
14.84805095425216
 10
378.4051309583265
 20
19.23221373165463
 10
378.4051309583265
 20
19.23221373165463
 10
378.4051309583265
 20
19.44556537490264
 10
378.4051309583265
 20
19.44556537490264
 10
378.4051309583265
 20
19.44556537490264
 10
377.1814942362207
 20
19.44556537490264
 10
377.1814942362207
 20
19.44556537490264
 10
377.1814942362207
 20
19.44556537490264
 10
377.1814942362207
 20
19.33836059782723
 10
377.1814942362207
 20
19.33836059782723
 10
377.1814942362207
 20
16.26303845528649
 10
375.7231730672439
 20
14.61594026836877
 10
374.2346496697607
 20
14.37999521269987
 10
374.2346496697607
 20
14.37999521269987
 10
374.2346496697607
 20
22.9705592942837
 10
374.2346496697607
 20
22.9705592942837
 10
374.2346496697607
 20
22.9705592942837
 10
374.154863260897
 20
22.9705592942837
 10
374.154863260897
 20
22.9705592942837
 97
        0
 97
        0
 75
     2
 76
     1
 98
        0
  0
SPLINE
  5
8F10
330
1F
100
AcDbEntity
  8
図枠
 62
     0
370
     0
100
AcDbSpline
210
0.0
220
0.0
230
1.0
 70
    11
 71
     3
 72
    35
 73
    31
 74
     0
 42
0.000000001
 43
0.0000000001
 40
0.0
 40
0.0
 40
0.0
 40
0.0
 40
1.0
 40
1.0
 40
1.0
 40
2.0
 40
2.0
 40
2.0
 40
3.0
 40
3.0
 40
3.0
 40
4.0
 40
4.0
 40
4.0
 40
5.0
 40
5.0
 40
5.0
 40
6.0
 40
6.0
 40
6.0
 40
7.0
 40
7.0
 40
7.0
 40
8.0
 40
8.0
 40
8.0
 40
9.0
 40
9.0
 40
9.0
 40
10.0
 40
10.0
 40
10.0
 40
10.0
 10
379.3807417274003
 20
22.93284590381945
 30
0.0
 10
379.3807417274003
 20
22.93284590381945
 30
0.0
 10
379.2363488123447
 20
22.93284590381945
 30
0.0
 10
379.2363488123447
 20
22.93284590381945
 30
0.0
 10
379.2363488123447
 20
22.93284590381945
 30
0.0
 10
379.2363488123447
 20
21.67433220529072
 30
0.0
 10
379.2363488123447
 20
21.67433220529072
 30
0.0
 10
379.2363488123447
 20
21.67433220529072
 30
0.0
 10
381.2548017914929
 20
21.67433220529072
 30
0.0
 10
381.2548017914929
 20
21.67433220529072
 30
0.0
 10
384.1070476536643
 20
21.67433220529072
 30
0.0
 10
385.9484906103885
 20
20.85388212302342
 30
0.0
 10
386.147510159795
 20
20.76028147983639
 30
0.0
 10
386.147510159795
 20
20.76028147983639
 30
0.0
 10
386.3455317225394
 20
20.66846670750538
 30
0.0
 10
386.3455317225394
 20
20.66846670750538
 30
0.0
 10
386.3455317225394
 20
20.66846670750538
 30
0.0
 10
386.3555115890986
 20
20.88439950444645
 30
0.0
 10
386.3555115890986
 20
20.88439950444645
 30
0.0
 10
386.3555115890986
 20
20.88439950444645
 30
0.0
 10
386.3568262042546
 20
21.89184077063149
 30
0.0
 10
386.3568262042546
 20
21.89184077063149
 30
0.0
 10
386.3568262042546
 20
21.89184077063149
 30
0.0
 10
386.2852323182896
 20
21.93338853088126
 30
0.0
 10
386.2852323182896
 20
21.93338853088126
 30
0.0
 10
386.2683190707549
 20
21.94258051323547
 30
0.0
 10
384.5184296866718
 20
22.93284590381945
 30
0.0
 10
380.9886019824706
 20
22.93284590381945
 30
0.0
 10
380.9886019824706
 20
22.93284590381945
 30
0.0
 10
379.3807417274003
 20
22.93284590381945
 30
0.0
 10
379.3807417274003
 20
22.93284590381945
 30
0.0
  0
HATCH
  5
8F11
330
1F
100
AcDbEntity
  8
図枠
 62
     0
100
AcDbHatch
 10
0.0
 20
0.0
 30
0.0
210
0.0
220
0.0
230
1.0
  2
SOLID
 70
     1
 71
     0
 91
        1
 92
        1
 93
        1
 72
     4
 94
        3
 73
     0
 74
     1
 95
       35
 96
       31
 40
0.0
 40
0.0
 40
0.0
 40
0.0
 40
1.0
 40
1.0
 40
1.0
 40
2.0
 40
2.0
 40
2.0
 40
3.0
 40
3.0
 40
3.0
 40
4.0
 40
4.0
 40
4.0
 40
5.0
 40
5.0
 40
5.0
 40
6.0
 40
6.0
 40
6.0
 40
7.0
 40
7.0
 40
7.0
 40
8.0
 40
8.0
 40
8.0
 40
9.0
 40
9.0
 40
9.0
 40
10.0
 40
10.0
 40
10.0
 40
10.0
 10
379.3807417274003
 20
22.93284590381945
 10
379.3807417274003
 20
22.93284590381945
 10
379.2363488123447
 20
22.93284590381945
 10
379.2363488123447
 20
22.93284590381945
 10
379.2363488123447
 20
22.93284590381945
 10
379.2363488123447
 20
21.67433220529072
 10
379.2363488123447
 20
21.67433220529072
 10
379.2363488123447
 20
21.67433220529072
 10
381.2548017914929
 20
21.67433220529072
 10
381.2548017914929
 20
21.67433220529072
 10
384.1070476536643
 20
21.67433220529072
 10
385.9484906103885
 20
20.85388212302342
 10
386.147510159795
 20
20.76028147983639
 10
386.147510159795
 20
20.76028147983639
 10
386.3455317225394
 20
20.66846670750538
 10
386.3455317225394
 20
20.66846670750538
 10
386.3455317225394
 20
20.66846670750538
 10
386.3555115890986
 20
20.88439950444645
 10
386.3555115890986
 20
20.88439950444645
 10
386.3555115890986
 20
20.88439950444645
 10
386.3568262042546
 20
21.89184077063149
 10
386.3568262042546
 20
21.89184077063149
 10
386.3568262042546
 20
21.89184077063149
 10
386.2852323182896
 20
21.93338853088126
 10
386.2852323182896
 20
21.93338853088126
 10
386.2683190707549
 20
21.94258051323547
 10
384.5184296866718
 20
22.93284590381945
 10
380.9886019824706
 20
22.93284590381945
 10
380.9886019824706
 20
22.93284590381945
 10
379.3807417274003
 20
22.93284590381945
 10
379.3807417274003
 20
22.93284590381945
 97
        0
 97
        0
 75
     2
 76
     1
 98
        0
  0
SPLINE
  5
8F12
330
1F
100
AcDbEntity
  8
図枠
 62
     0
370
     0
100
AcDbSpline
210
0.0
220
0.0
230
1.0
 70
    11
 71
     3
 72
    35
 73
    31
 74
     0
 42
0.000000001
 43
0.0000000001
 40
0.0
 40
0.0
 40
0.0
 40
0.0
 40
1.0
 40
1.0
 40
1.0
 40
2.0
 40
2.0
 40
2.0
 40
3.0
 40
3.0
 40
3.0
 40
4.0
 40
4.0
 40
4.0
 40
5.0
 40
5.0
 40
5.0
 40
6.0
 40
6.0
 40
6.0
 40
7.0
 40
7.0
 40
7.0
 40
8.0
 40
8.0
 40
8.0
 40
9.0
 40
9.0
 40
9.0
 40
10.0
 40
10.0
 40
10.0
 40
10.0
 10
379.635175805434
 20
19.46352913470804
 30
0.0
 10
379.635175805434
 20
19.46352913470804
 30
0.0
 10
379.4928313893579
 20
19.46352913470804
 30
0.0
 10
379.4928313893579
 20
19.46352913470804
 30
0.0
 10
379.4928313893579
 20
19.46352913470804
 30
0.0
 10
379.4928313893579
 20
18.23962981544719
 30
0.0
 10
379.4928313893579
 20
18.23962981544719
 30
0.0
 10
379.4928313893579
 20
18.23962981544719
 30
0.0
 10
380.9537249751338
 20
18.23962981544719
 30
0.0
 10
380.9537249751338
 20
18.23962981544719
 30
0.0
 10
383.8220962006387
 20
18.23962981544719
 30
0.0
 10
385.6920080398558
 20
17.43330912320203
 30
0.0
 10
385.8951771127229
 20
17.3409690947395
 30
0.0
 10
385.8951771127229
 20
17.3409690947395
 30
0.0
 10
386.0951946487842
 20
17.25272606412375
 30
0.0
 10
386.0951946487842
 20
17.25272606412375
 30
0.0
 10
386.0951946487842
 20
17.25272606412375
 30
0.0
 10
386.0995542747019
 20
17.46818613054273
 30
0.0
 10
386.0995542747019
 20
17.46818613054273
 30
0.0
 10
386.0995542747019
 20
17.46818613054273
 30
0.0
 10
386.1016027736275
 20
18.40839461149634
 30
0.0
 10
386.1016027736275
 20
18.40839461149634
 30
0.0
 10
386.1016027736275
 20
18.40839461149634
 30
0.0
 10
386.0480266478962
 20
18.45020499981186
 30
0.0
 10
386.0480266478962
 20
18.45020499981186
 30
0.0
 10
385.9974970077491
 20
18.49227801619378
 30
0.0
 10
384.7695021253587
 20
19.46352913470804
 30
0.0
 10
380.7328547705302
 20
19.46352913470804
 30
0.0
 10
380.7328547705302
 20
19.46352913470804
 30
0.0
 10
379.635175805434
 20
19.46352913470804
 30
0.0
 10
379.635175805434
 20
19.46352913470804
 30
0.0
  0
HATCH
  5
8F13
330
1F
100
AcDbEntity
  8
図枠
 62
     0
100
AcDbHatch
 10
0.0
 20
0.0
 30
0.0
210
0.0
220
0.0
230
1.0
  2
SOLID
 70
     1
 71
     0
 91
        1
 92
        1
 93
        1
 72
     4
 94
        3
 73
     0
 74
     1
 95
       35
 96
       31
 40
0.0
 40
0.0
 40
0.0
 40
0.0
 40
1.0
 40
1.0
 40
1.0
 40
2.0
 40
2.0
 40
2.0
 40
3.0
 40
3.0
 40
3.0
 40
4.0
 40
4.0
 40
4.0
 40
5.0
 40
5.0
 40
5.0
 40
6.0
 40
6.0
 40
6.0
 40
7.0
 40
7.0
 40
7.0
 40
8.0
 40
8.0
 40
8.0
 40
9.0
 40
9.0
 40
9.0
 40
10.0
 40
10.0
 40
10.0
 40
10.0
 10
379.635175805434
 20
19.46352913470804
 10
379.635175805434
 20
19.46352913470804
 10
379.4928313893579
 20
19.46352913470804
 10
379.4928313893579
 20
19.46352913470804
 10
379.4928313893579
 20
19.46352913470804
 10
379.4928313893579
 20
18.23962981544719
 10
379.4928313893579
 20
18.23962981544719
 10
379.4928313893579
 20
18.23962981544719
 10
380.9537249751338
 20
18.23962981544719
 10
380.9537249751338
 20
18.23962981544719
 10
383.8220962006387
 20
18.23962981544719
 10
385.6920080398558
 20
17.43330912320203
 10
385.8951771127229
 20
17.3409690947395
 10
385.8951771127229
 20
17.3409690947395
 10
386.0951946487842
 20
17.25272606412375
 10
386.0951946487842
 20
17.25272606412375
 10
386.0951946487842
 20
17.25272606412375
 10
386.0995542747019
 20
17.46818613054273
 10
386.0995542747019
 20
17.46818613054273
 10
386.0995542747019
 20
17.46818613054273
 10
386.1016027736275
 20
18.40839461149634
 10
386.1016027736275
 20
18.40839461149634
 10
386.1016027736275
 20
18.40839461149634
 10
386.0480266478962
 20
18.45020499981186
 10
386.0480266478962
 20
18.45020499981186
 10
385.9974970077491
 20
18.49227801619378
 10
384.7695021253587
 20
19.46352913470804
 10
380.7328547705302
 20
19.46352913470804
 10
380.7328547705302
 20
19.46352913470804
 10
379.635175805434
 20
19.46352913470804
 10
379.635175805434
 20
19.46352913470804
 97
        0
 97
        0
 75
     2
 76
     1
 98
        0
  0
SPLINE
  5
8F14
330
1F
100
AcDbEntity
  8
図枠
 62
     0
370
     0
100
AcDbSpline
210
0.0
220
0.0
230
1.0
 70
    11
 71
     3
 72
    38
 73
    34
 74
     0
 42
0.000000001
 43
0.0000000001
 40
0.0
 40
0.0
 40
0.0
 40
0.0
 40
1.0
 40
1.0
 40
1.0
 40
2.0
 40
2.0
 40
2.0
 40
3.0
 40
3.0
 40
3.0
 40
4.0
 40
4.0
 40
4.0
 40
5.0
 40
5.0
 40
5.0
 40
6.0
 40
6.0
 40
6.0
 40
7.0
 40
7.0
 40
7.0
 40
8.0
 40
8.0
 40
8.0
 40
9.0
 40
9.0
 40
9.0
 40
10.0
 40
10.0
 40
10.0
 40
11.0
 40
11.0
 40
11.0
 40
11.0
 10
379.1099196575502
 20
15.166618799894
 30
0.0
 10
379.1099196575502
 20
15.166618799894
 30
0.0
 10
378.9655267424985
 20
15.166618799894
 30
0.0
 10
378.9655267424985
 20
15.166618799894
 30
0.0
 10
378.9655267424985
 20
15.166618799894
 30
0.0
 10
378.9655267424985
 20
13.87448870874972
 30
0.0
 10
378.9655267424985
 20
13.87448870874972
 30
0.0
 10
378.9655267424985
 20
13.87448870874972
 30
0.0
 10
381.3748228182511
 20
13.87448870874972
 30
0.0
 10
381.3748228182511
 20
13.87448870874972
 30
0.0
 10
384.2342661106647
 20
13.87448870874972
 30
0.0
 10
386.3652813532008
 20
13.06070937939533
 30
0.0
 10
386.6002284222155
 20
12.96784409479358
 30
0.0
 10
386.5968682638363
 20
12.96936733758384
 30
0.0
 10
386.6851112966806
 20
12.93375497165786
 30
0.0
 10
386.6851112966806
 20
12.93375497165786
 30
0.0
 10
386.6851112966806
 20
12.93375497165786
 30
0.0
 10
386.792839846778
 20
12.8896334563503
 30
0.0
 10
386.792839846778
 20
12.8896334563503
 30
0.0
 10
386.792839846778
 20
12.8896334563503
 30
0.0
 10
386.7971994726956
 20
13.0986328723127
 30
0.0
 10
386.7971994726956
 20
13.0986328723127
 30
0.0
 10
386.7971994726956
 20
13.0986328723127
 30
0.0
 10
386.7971994726956
 20
14.12918540842194
 30
0.0
 10
386.7971994726956
 20
14.12918540842194
 30
0.0
 10
386.7971994726956
 20
14.12918540842194
 30
0.0
 10
386.7230333064884
 20
14.1732543981175
 30
0.0
 10
386.7230333064884
 20
14.1732543981175
 30
0.0
 10
386.6463459108322
 20
14.21327891557315
 30
0.0
 10
384.8384668211115
 20
15.166618799894
 30
0.0
 10
381.2591614174099
 20
15.166618799894
 30
0.0
 10
381.2591614174099
 20
15.166618799894
 30
0.0
 10
379.1099196575502
 20
15.166618799894
 30
0.0
 10
379.1099196575502
 20
15.166618799894
 30
0.0
  0
HATCH
  5
8F15
330
1F
100
AcDbEntity
  8
図枠
 62
     0
100
AcDbHatch
 10
0.0
 20
0.0
 30
0.0
210
0.0
220
0.0
230
1.0
  2
SOLID
 70
     1
 71
     0
 91
        1
 92
        1
 93
        1
 72
     4
 94
        3
 73
     0
 74
     1
 95
       38
 96
       34
 40
0.0
 40
0.0
 40
0.0
 40
0.0
 40
1.0
 40
1.0
 40
1.0
 40
2.0
 40
2.0
 40
2.0
 40
3.0
 40
3.0
 40
3.0
 40
4.0
 40
4.0
 40
4.0
 40
5.0
 40
5.0
 40
5.0
 40
6.0
 40
6.0
 40
6.0
 40
7.0
 40
7.0
 40
7.0
 40
8.0
 40
8.0
 40
8.0
 40
9.0
 40
9.0
 40
9.0
 40
10.0
 40
10.0
 40
10.0
 40
11.0
 40
11.0
 40
11.0
 40
11.0
 10
379.1099196575502
 20
15.166618799894
 10
379.1099196575502
 20
15.166618799894
 10
378.9655267424985
 20
15.166618799894
 10
378.9655267424985
 20
15.166618799894
 10
378.9655267424985
 20
15.166618799894
 10
378.9655267424985
 20
13.87448870874972
 10
378.9655267424985
 20
13.87448870874972
 10
378.9655267424985
 20
13.87448870874972
 10
381.3748228182511
 20
13.87448870874972
 10
381.3748228182511
 20
13.87448870874972
 10
384.2342661106647
 20
13.87448870874972
 10
386.3652813532008
 20
13.06070937939533
 10
386.6002284222155
 20
12.96784409479358
 10
386.5968682638363
 20
12.96936733758384
 10
386.6851112966806
 20
12.93375497165786
 10
386.6851112966806
 20
12.93375497165786
 10
386.6851112966806
 20
12.93375497165786
 10
386.792839846778
 20
12.8896334563503
 10
386.792839846778
 20
12.8896334563503
 10
386.792839846778
 20
12.8896334563503
 10
386.7971994726956
 20
13.0986328723127
 10
386.7971994726956
 20
13.0986328723127
 10
386.7971994726956
 20
13.0986328723127
 10
386.7971994726956
 20
14.12918540842194
 10
386.7971994726956
 20
14.12918540842194
 10
386.7971994726956
 20
14.12918540842194
 10
386.7230333064884
 20
14.1732543981175
 10
386.7230333064884
 20
14.1732543981175
 10
386.6463459108322
 20
14.21327891557315
 10
384.8384668211115
 20
15.166618799894
 10
381.2591614174099
 20
15.166618799894
 10
381.2591614174099
 20
15.166618799894
 10
379.1099196575502
 20
15.166618799894
 10
379.1099196575502
 20
15.166618799894
 97
        0
 97
        0
 75
     2
 76
     1
 98
        0
  0
TEXT
  5
8F16
330
1F
100
AcDbEntity
  8
図枠
  6
Continuous
 62
     7
100
AcDbText
 10
233.3108234751427
 20
12.1907637796043
 30
0.0
 40
3.0
  1
2018/03/01
100
AcDbText
  0
LINE
  5
8F61
330
1F
100
AcDbEntity
  8
0
 62
     0
370
    13
100
AcDbLine
 10
241.5109377405371
 20
164.686932409378
 30
0.0
 11
241.5109377405371
 21
183.686932409378
 31
0.0
  0
LINE
  5
8F62
102
{ACAD_REACTORS
330
8F67
102
}
330
1F
100
AcDbEntity
  8
0
 62
     0
370
    13
100
AcDbLine
 10
241.5109377405371
 20
183.686932409378
 30
0.0
 11
341.5109377405371
 21
183.686932409378
 31
0.0
  0
LINE
  5
8F63
330
1F
100
AcDbEntity
  8
0
 62
     0
370
    13
100
AcDbLine
 10
241.5109377405371
 20
164.686932409378
 30
0.0
 11
341.5109377405371
 21
164.686932409378
 31
0.0
  0
LINE
  5
8F64
330
1F
100
AcDbEntity
  8
0
 62
     0
370
    13
100
AcDbLine
 10
341.5109377405371
 20
164.686932409378
 30
0.0
 11
341.5109377405371
 21
183.686932409378
 31
0.0
  0
DIMENSION
  5
8F65
102
{ACAD_REACTORS
330
8F67
102
}
102
{ACAD_XDICTIONARY
360
8F66
102
}
330
1F
100
AcDbEntity
  8
0
 62
     7
370
     9
100
AcDbDimension
280
     0
  2
*D484
 10
232.1050658336125
 20
164.686932409378
 30
0.0
 11
230.2238158336125
 21
174.186932409378
 31
0.0
 70
    32
 71
     5
 42
19.0
 73
     0
 74
     0
 75
     0
  3
JIS-1
100
AcDbAlignedDimension
 13
241.5109377405371
 23
183.686932409378
 33
0.0
 14
241.5109377405371
 24
164.686932409378
 34
0.0
 50
90.0
100
AcDbRotatedDimension
1001
ACAD
1000
DSTYLE
1002
{
1070
   144
1040
1.0
1002
}
  0
VIEWPORT
  5
3275
330
1B
100
AcDbEntity
 67
     1
  8
0
100
AcDbViewport
 10
0.0
 20
0.0
 30
0.0
 40
560.4066218034993
 41
249.48
 68
     1
 69
     1
 12
232.5307772543742
 22
120.4624125168237
 13
0.0
 23
0.0
 14
0.5
 24
0.5
 15
0.0
 25
0.0
 16
0.0
 26
0.0
 36
1.0
 17
0.0
 27
0.0
 37
0.0
 42
50.0
 43
0.0
 44
0.0
 45
249.48
 50
0.0
 51
0.0
 72
   100
 90
   557168
  1

281
     0
 71
     1
 74
     0
110
0.0
120
0.0
130
0.0
111
1.0
121
0.0
131
0.0
112
0.0
122
1.0
132
0.0
 79
     0
146
0.0
170
     0
 61
     5
348
8B7E
292
     1
282
     1
141
0.0
142
0.0
 63
   256
  0
VIEWPORT
  5
3276
102
{ACAD_XDICTIONARY
360
3277
102
}
330
1B
100
AcDbEntity
 67
     1
  8
0
100
AcDbViewport
 10
202.5
 20
128.5
 30
0.0
 40
324.0
 41
205.6
 68
     2
 69
     2
 12
210.0
 22
148.5
 13
0.0
 23
0.0
 14
0.5
 24
0.5
 15
0.0
 25
0.0
 16
0.0
 26
0.0
 36
1.0
 17
0.0
 27
0.0
 37
0.0
 42
50.0
 43
0.0
 44
0.0
 45
302.94
 50
0.0
 51
0.0
 72
   100
 90
   557152
  1

281
     0
 71
     1
 74
     0
110
0.0
120
0.0
130
0.0
111
1.0
121
0.0
131
0.0
112
0.0
122
1.0
132
0.0
 79
     0
146
0.0
170
     0
 61
     5
348
8B7E
292
     1
282
     1
141
0.0
142
0.0
 63
   256
  0
ENDSEC
  0
SECTION
  2
OBJECTS
  0
DICTIONARY
  5
C
330
0
100
AcDbDictionary
281
     1
  3
ACAD_DETAILVIEWSTYLE
350
3284
  3
ACAD_GROUP
350
D
  3
ACAD_IMAGE_DICT
350
97D
  3
ACAD_IMAGE_VARS
350
3AC
  3
ACAD_LAYOUT
350
8BB7
  3
ACAD_MATERIAL
350
8BBA
  3
ACAD_MLEADERSTYLE
350
8BC0
  3
ACAD_MLINESTYLE
350
17
  3
ACAD_PLOTSETTINGS
350
8B92
  3
ACAD_PLOTSTYLENAME
350
8B93
  3
ACAD_SCALELIST
350
8B95
  3
ACAD_SECTIONVIEWSTYLE
350
3285
  3
ACAD_TABLESTYLE
350
8BBE
  3
ACAD_VISUALSTYLE
350
8B79
  3
ACDB_RECOMPOSE_DATA
350
8F78
  3
ACDBVARIABLEDICTIONARY
350
327F
  3
APPDATA
350
3AA
  3
DIMOFFSETDICTIONARY
350
3784
  0
SUN
  5
8BC2
330
29
100
AcDbSun
 90
        1
290
     0
 63
     7
421
 16777215
 40
1.0
291
     1
 91
  2455826
 92
 54000000
292
     0
 70
     2
 71
   256
280
     1
  0
DICTIONARY
  5
3488
330
2
100
AcDbDictionary
280
     1
281
     1
  3
ACAD_LAYERSTATES
360
3489
  3
ACLYDICTIONARY
360
8F1A
  0
DICTIONARY
  5
8D3E
330
8D3D
100
AcDbDictionary
280
     1
281
     1
  3
ACAD_DIMASSOC
360
8D3F
  0
DICTIONARY
  5
8F66
330
8F65
100
AcDbDictionary
280
     1
281
     1
  3
ACAD_DIMASSOC
360
8F67
  0
DICTIONARY
  5
3277
330
3276
100
AcDbDictionary
280
     1
281
     1
  3
ASDK_XREC_ANNOTATION_SCALE_INFO
360
3278
  0
DICTIONARY
  5
3284
102
{ACAD_REACTORS
330
C
102
}
330
C
100
AcDbDictionary
281
     1
  0
DICTIONARY
  5
D
102
{ACAD_REACTORS
330
C
102
}
330
C
100
AcDbDictionary
281
     1
  0
DICTIONARY
  5
97D
102
{ACAD_REACTORS
330
C
102
}
330
C
100
AcDbDictionary
281
     1
  3
\\192.168.192.119\DIGITE10
350
97E
  3
\\192.168.192.119\DIGITE11
350
97F
  3
\\192.168.192.119\DIGITE12
350
980
  3
\\192.168.192.119\DIGITE13
350
981
  3
\\192.168.192.119\DIGITEC-
350
97C
  3
\\192.168.192.119\DIGITEC0
350
982
  3
\\192.168.192.119\DIGITEC1
350
983
  3
\\192.168.192.119\DIGITEC2
350
984
  3
\\192.168.192.119\DIGITEC3
350
985
  3
\\192.168.192.119\DIGITEC4
350
986
  3
\\192.168.192.119\DIGITEC5
350
987
  3
\\192.168.192.119\DIGITEC6
350
988
  3
\\192.168.192.119\DIGITEC7
350
989
  3
\\192.168.192.119\DIGITEC8
350
98A
  3
\\192.168.192.119\DIGITEC9
350
98B
  0
RASTERVARIABLES
  5
3AC
102
{ACAD_REACTORS
330
C
102
}
330
C
100
AcDbRasterVariables
 90
        0
 70
     1
 71
     1
 72
     1
  0
DICTIONARY
  5
8BB7
102
{ACAD_REACTORS
330
C
102
}
330
C
100
AcDbDictionary
281
     1
  3
Model
350
8BB8
  3
シート 1
350
8BB9
  0
DICTIONARY
  5
8BBA
102
{ACAD_REACTORS
330
C
102
}
330
C
100
AcDbDictionary
281
     1
  3
ByBlock
350
8BBC
  3
ByLayer
350
8BBB
  3
Global
350
8BBD
  0
DICTIONARY
  5
8BC0
102
{ACAD_REACTORS
330
C
102
}
330
C
100
AcDbDictionary
281
     1
  3
Standard
350
8BC1
  0
DICTIONARY
  5
17
102
{ACAD_REACTORS
330
C
102
}
330
C
100
AcDbDictionary
281
     1
  3
STANDARD
350
18
  0
DICTIONARY
  5
8B92
102
{ACAD_REACTORS
330
C
102
}
330
C
100
AcDbDictionary
281
     1
  0
ACDBDICTIONARYWDFLT
  5
8B93
102
{ACAD_REACTORS
330
C
102
}
330
C
100
AcDbDictionary
281
     1
  3
Normal
350
8B94
100
AcDbDictionaryWithDefault
340
8B94
  0
DICTIONARY
  5
8B95
102
{ACAD_REACTORS
330
C
102
}
330
C
100
AcDbDictionary
281
     1
  3
A0
350
8B96
  3
A1
350
8B97
  3
A2
350
8B98
  3
A3
350
8B99
  3
A4
350
8B9A
  3
A5
350
8B9B
  3
A6
350
8B9C
  3
A7
350
8B9D
  3
A8
350
8B9E
  3
A9
350
8B9F
  3
B0
350
8BA0
  3
B1
350
8BA1
  3
B2
350
8BA2
  3
B3
350
8BA3
  3
B4
350
8BA4
  3
B5
350
8BA5
  3
B6
350
8BA6
  3
B7
350
8BA7
  3
B8
350
8BA8
  3
B9
350
8BA9
  3
C0
350
8BAA
  3
C1
350
8BAB
  3
C2
350
8BAC
  3
C3
350
8BAD
  3
C4
350
8BAE
  3
C5
350
8BAF
  3
C6
350
8BB0
  3
C7
350
8BB1
  3
C8
350
8BB2
  3
C9
350
8BB3
  3
D0
350
8BB4
  3
D1
350
8BB5
  3
D2
350
8BB6
  0
DICTIONARY
  5
3285
102
{ACAD_REACTORS
330
C
102
}
330
C
100
AcDbDictionary
281
     1
  0
DICTIONARY
  5
8BBE
102
{ACAD_REACTORS
330
C
102
}
330
C
100
AcDbDictionary
281
     1
  3
Standard
350
8BBF
  0
DICTIONARY
  5
8B79
102
{ACAD_REACTORS
330
C
102
}
330
C
100
AcDbDictionary
281
     1
  3
2dWireframe
350
8B7E
  3
Basic
350
8B81
  3
Brighten
350
8B85
  3
ColorChange
350
8B89
  3
Conceptual
350
8B83
  3
Dim
350
8B84
  3
EdgeColorOff
350
8B8C
  3
Facepattern
350
8B88
  3
Flat
350
8B7A
  3
FlatWithEdges
350
8B7B
  3
Gouraud
350
8B7C
  3
GouraudWithEdges
350
8B7D
  3
Hidden
350
8B80
  3
JitterOff
350
8B8A
  3
Linepattern
350
8B87
  3
OverhangOff
350
8B8B
  3
Realistic
350
8B82
  3
Shaded
350
8B91
  3
Shaded with edges
350
8B90
  3
Shades of Gray
350
8B8D
  3
Sketchy
350
8B8E
  3
Thicken
350
8B86
  3
Wireframe
350
8B7F
  3
X-Ray
350
8B8F
  0
XRECORD
  5
8F78
102
{ACAD_REACTORS
330
C
102
}
330
C
100
AcDbXrecord
280
     1
 90
        1
330
8BBF
  0
DICTIONARY
  5
327F
102
{ACAD_REACTORS
330
C
102
}
330
C
100
AcDbDictionary
281
     1
  3
CANNOSCALE
350
8BC3
  3
CMLEADERSTYLE
350
8BC5
  3
CTABLESTYLE
350
8BC4
  3
MSLTSCALE
350
8BC6
  0
DICTIONARY
  5
3AA
102
{ACAD_REACTORS
330
C
102
}
330
C
100
AcDbDictionary
281
     1
  0
DICTIONARY
  5
3784
102
{ACAD_REACTORS
330
C
102
}
330
C
100
AcDbDictionary
281
     1
  3
DIMRAILANGLE
350
3787
  3
DIMRAILFIRSTOFFSET
350
3785
  3
DIMRAILOFFSET
350
3786
  3
DIMRAILSENABLED
350
3788
  0
DICTIONARY
  5
3489
102
{ACAD_REACTORS
330
3488
102
}
330
3488
100
AcDbDictionary
281
     1
  0
DICTIONARY
  5
8F1A
102
{ACAD_REACTORS
330
3488
102
}
330
3488
100
AcDbDictionary
281
     1
1001
ACAD
1000
<All
  0
DIMASSOC
  5
8D3F
102
{ACAD_REACTORS
330
8D3E
102
}
330
8D3E
100
AcDbDimAssoc
330
8D3D
 90
        2
 70
     0
 71
     1
  1
AcDbOsnapPointRef
 72
     3
331
8D37
 73
     0
 91
        0
 40
0.0
 10
0.0
 20
0.0
 30
0.0
 75
     0
  0
DIMASSOC
  5
8F67
102
{ACAD_REACTORS
330
8F66
102
}
330
8F66
100
AcDbDimAssoc
330
8F65
 90
        1
 70
     0
 71
     1
  1
AcDbOsnapPointRef
 72
    13
331
8F62
 73
     0
 91
        0
 40
0.0
 10
0.0
 20
0.0
 30
0.0
 75
     0
  0
XRECORD
  5
3278
102
{ACAD_REACTORS
330
3277
102
}
330
3277
100
AcDbXrecord
280
     1
 90
        1
340
0
  0
IMAGEDEF
  5
97E
102
{ACAD_REACTORS
330
97D
102
}
330
97D
100
AcDbRasterImageDef
 90
        0
  1
\\192.168.192.119\digitec-common\デザイン制作部（仮）\★2017新商品\銘版シール\【2017銘版シール】outline_6.png
 10
220.0
 20
182.0
 11
0.3527777777777777
 21
0.3527777777777777
280
     1
281
     5
  0
IMAGEDEF
  5
97F
102
{ACAD_REACTORS
330
97D
102
}
330
97D
100
AcDbRasterImageDef
 90
        0
  1
\\192.168.192.119\digitec-common\デザイン制作部（仮）\★2017新商品\銘版シール\【2017銘版シール】outline_7.png
 10
220.0
 20
182.0
 11
0.3527777777777777
 21
0.3527777777777777
280
     1
281
     5
  0
IMAGEDEF
  5
980
102
{ACAD_REACTORS
330
97D
102
}
330
97D
100
AcDbRasterImageDef
 90
        0
  1
\\192.168.192.119\digitec-common\デザイン制作部（仮）\★2017新商品\銘版シール\【2017銘版シール】outline_8.png
 10
220.0
 20
182.0
 11
0.3527777777777777
 21
0.3527777777777777
280
     1
281
     5
  0
IMAGEDEF
  5
981
102
{ACAD_REACTORS
330
97D
102
}
330
97D
100
AcDbRasterImageDef
 90
        0
  1
\\192.168.192.119\digitec-common\デザイン制作部（仮）\★2017新商品\銘版シール\【2017銘版シール】outline_9.png
 10
220.0
 20
182.0
 11
0.3527777777777777
 21
0.3527777777777777
280
     1
281
     5
  0
IMAGEDEF
  5
97C
102
{ACAD_REACTORS
330
97D
102
}
330
97D
100
AcDbRasterImageDef
 90
        0
  1
\\192.168.192.119\digitec-common\デザイン制作部（仮）\★2017新商品\銘版シール\【2017銘版シール】outline_1.png
 10
220.0
 20
182.0
 11
0.3527777777777777
 21
0.3527777777777777
280
     1
281
     5
  0
IMAGEDEF
  5
982
102
{ACAD_REACTORS
330
97D
102
}
330
97D
100
AcDbRasterImageDef
 90
        0
  1
\\192.168.192.119\digitec-common\デザイン制作部（仮）\★2017新商品\銘版シール\【2017銘版シール】outline_10.png
 10
220.0
 20
182.0
 11
0.3527777777777777
 21
0.3527777777777777
280
     1
281
     5
  0
IMAGEDEF
  5
983
102
{ACAD_REACTORS
330
97D
102
}
330
97D
100
AcDbRasterImageDef
 90
        0
  1
\\192.168.192.119\digitec-common\デザイン制作部（仮）\★2017新商品\銘版シール\【2017銘版シール】outline_11.png
 10
220.0
 20
182.0
 11
0.3527777777777777
 21
0.3527777777777777
280
     1
281
     5
  0
IMAGEDEF
  5
984
102
{ACAD_REACTORS
330
97D
102
}
330
97D
100
AcDbRasterImageDef
 90
        0
  1
\\192.168.192.119\digitec-common\デザイン制作部（仮）\★2017新商品\銘版シール\【2017銘版シール】outline_12.png
 10
220.0
 20
182.0
 11
0.3527777777777777
 21
0.3527777777777777
280
     1
281
     5
  0
IMAGEDEF
  5
985
102
{ACAD_REACTORS
330
97D
102
}
330
97D
100
AcDbRasterImageDef
 90
        0
  1
\\192.168.192.119\digitec-common\デザイン制作部（仮）\★2017新商品\銘版シール\【2017銘版シール】outline_13.png
 10
220.0
 20
182.0
 11
0.3527777777777777
 21
0.3527777777777777
280
     1
281
     5
  0
IMAGEDEF
  5
986
102
{ACAD_REACTORS
330
97D
102
}
330
97D
100
AcDbRasterImageDef
 90
        0
  1
\\192.168.192.119\digitec-common\デザイン制作部（仮）\★2017新商品\銘版シール\【2017銘版シール】outline_14.png
 10
220.0
 20
182.0
 11
0.3527777777777777
 21
0.3527777777777777
280
     1
281
     5
  0
IMAGEDEF
  5
987
102
{ACAD_REACTORS
330
97D
102
}
330
97D
100
AcDbRasterImageDef
 90
        0
  1
\\192.168.192.119\digitec-common\デザイン制作部（仮）\★2017新商品\銘版シール\【2017銘版シール】outline_15.png
 10
220.0
 20
182.0
 11
0.3527777777777777
 21
0.3527777777777777
280
     1
281
     5
  0
IMAGEDEF
  5
988
102
{ACAD_REACTORS
330
97D
102
}
330
97D
100
AcDbRasterImageDef
 90
        0
  1
\\192.168.192.119\digitec-common\デザイン制作部（仮）\★2017新商品\銘版シール\【2017銘版シール】outline_2.png
 10
220.0
 20
182.0
 11
0.3527777777777777
 21
0.3527777777777777
280
     1
281
     5
  0
IMAGEDEF
  5
989
102
{ACAD_REACTORS
330
97D
102
}
330
97D
100
AcDbRasterImageDef
 90
        0
  1
\\192.168.192.119\digitec-common\デザイン制作部（仮）\★2017新商品\銘版シール\【2017銘版シール】outline_3.png
 10
220.0
 20
182.0
 11
0.3527777777777777
 21
0.3527777777777777
280
     1
281
     5
  0
IMAGEDEF
  5
98A
102
{ACAD_REACTORS
330
97D
102
}
330
97D
100
AcDbRasterImageDef
 90
        0
  1
\\192.168.192.119\digitec-common\デザイン制作部（仮）\★2017新商品\銘版シール\【2017銘版シール】outline_4.png
 10
220.0
 20
182.0
 11
0.3527777777777777
 21
0.3527777777777777
280
     1
281
     5
  0
IMAGEDEF
  5
98B
102
{ACAD_REACTORS
330
97D
102
}
330
97D
100
AcDbRasterImageDef
 90
        0
  1
\\192.168.192.119\digitec-common\デザイン制作部（仮）\★2017新商品\銘版シール\【2017銘版シール】outline_5.png
 10
220.0
 20
182.0
 11
0.3527777777777777
 21
0.3527777777777777
280
     1
281
     5
  0
LAYOUT
  5
8BB8
102
{ACAD_REACTORS
330
8BB7
102
}
330
8BB7
100
AcDbPlotSettings
  1

  2
none_device
  4
Letter_(8.50_x_11.00_Inches)
  6

 40
6.35
 41
6.35
 42
6.35
 43
6.35
 44
215.9
 45
279.4
 46
0.0
 47
0.0
 48
0.0
 49
0.0
140
0.0
141
0.0
142
1.0
143
23.17024794299421
 70
  1712
 72
     0
 73
     0
 74
     0
  7

 75
     0
 76
     0
 77
     2
 78
   300
147
0.0431587958169589
148
-5667.760672176699
149
-652.6138005445681
100
AcDbLayout
  1
Model
 70
     1
 71
     0
 10
0.0
 20
0.0
 11
420.0
 21
297.0
 12
0.0
 22
0.0
 32
0.0
 14
0.0
 24
0.0
 34
0.0
 15
420.0
 25
297.0
 35
0.0
146
0.0
 13
0.0
 23
0.0
 33
0.0
 16
1.0
 26
0.0
 36
0.0
 17
0.0
 27
1.0
 37
0.0
 76
     0
330
1F
331
29
  0
LAYOUT
  5
8BB9
102
{ACAD_REACTORS
330
8BB7
102
}
330
8BB7
100
AcDbPlotSettings
  1

  2
none_device
  4

  6

 40
0.0
 41
0.0
 42
0.0
 43
0.0
 44
0.0
 45
0.0
 46
0.0
 47
0.0
 48
0.0
 49
0.0
140
0.0
141
0.0
142
1.0
143
1.0
 70
   688
 72
     1
 73
     0
 74
     5
  7

 75
    16
 76
     0
 77
     2
 78
   300
147
1.0
148
0.0
149
0.0
100
AcDbLayout
  1
シート 1
 70
     1
 71
     1
 10
0.0
 20
0.0
 11
0.0
 21
0.0
 12
0.0
 22
0.0
 32
0.0
 14
40.5
 24
25.69999999999999
 34
0.0
 15
364.5
 25
231.3
 35
0.0
146
0.0
 13
0.0
 23
0.0
 33
0.0
 16
1.0
 26
0.0
 36
0.0
 17
0.0
 27
1.0
 37
0.0
 76
     0
330
1B
331
3275
  0
MATERIAL
  5
8BBC
102
{ACAD_REACTORS
330
8BBA
102
}
330
8BBA
100
AcDbMaterial
  1
ByBlock
 72
     1
 94
      127
  0
MATERIAL
  5
8BBB
102
{ACAD_REACTORS
330
8BBA
102
}
330
8BBA
100
AcDbMaterial
  1
ByLayer
 72
     1
 94
      127
  0
MATERIAL
  5
8BBD
102
{ACAD_REACTORS
330
8BBA
102
}
330
8BBA
100
AcDbMaterial
  1
Global
 72
     1
 94
      127
  0
MLEADERSTYLE
  5
8BC1
102
{ACAD_REACTORS
330
8BC0
102
}
330
8BC0
100
AcDbMLeaderStyle
179
     2
170
     2
171
     1
172
     0
 90
        2
 40
0.0
 41
0.0
173
     1
 91
-1056964608
340
14
 92
       -2
290
     1
 42
2.0
291
     1
 43
8.0
  3
Standard
341
0
 44
4.0
300

342
11
174
     1
178
     1
175
     1
176
     0
 93
-1056964608
 45
4.0
292
     0
297
     0
 46
4.0
343
0
 94
-1056964608
 47
1.0
 49
1.0
140
1.0
293
     1
141
0.0
294
     1
177
     0
142
1.0
295
     0
296
     0
143
3.75
271
     0
272
     9
273
     9
298
     0
  0
MLINESTYLE
  5
18
102
{ACAD_REACTORS
330
17
102
}
330
17
100
AcDbMlineStyle
  2
Standard
 70
     0
  3

 62
   256
 51
90.0
 52
90.0
 71
     2
 49
0.5
 62
   256
  6
BYLAYER
 49
-0.5
 62
   256
  6
BYLAYER
  0
ACDBPLACEHOLDER
  5
8B94
102
{ACAD_REACTORS
330
8B93
102
}
330
8B93
  0
SCALE
  5
8B96
102
{ACAD_REACTORS
330
8B95
102
}
330
8B95
100
AcDbScale
 70
     0
300
1:1
140
1.0
141
1.0
290
     1
  0
SCALE
  5
8B97
102
{ACAD_REACTORS
330
8B95
102
}
330
8B95
100
AcDbScale
 70
     0
300
1:2
140
1.0
141
2.0
290
     0
  0
SCALE
  5
8B98
102
{ACAD_REACTORS
330
8B95
102
}
330
8B95
100
AcDbScale
 70
     0
300
1:4
140
1.0
141
4.0
290
     0
  0
SCALE
  5
8B99
102
{ACAD_REACTORS
330
8B95
102
}
330
8B95
100
AcDbScale
 70
     0
300
1:5
140
1.0
141
5.0
290
     0
  0
SCALE
  5
8B9A
102
{ACAD_REACTORS
330
8B95
102
}
330
8B95
100
AcDbScale
 70
     0
300
1:8
140
1.0
141
8.0
290
     0
  0
SCALE
  5
8B9B
102
{ACAD_REACTORS
330
8B95
102
}
330
8B95
100
AcDbScale
 70
     0
300
1:10
140
1.0
141
10.0
290
     0
  0
SCALE
  5
8B9C
102
{ACAD_REACTORS
330
8B95
102
}
330
8B95
100
AcDbScale
 70
     0
300
1:16
140
1.0
141
16.0
290
     0
  0
SCALE
  5
8B9D
102
{ACAD_REACTORS
330
8B95
102
}
330
8B95
100
AcDbScale
 70
     0
300
1:20
140
1.0
141
20.0
290
     0
  0
SCALE
  5
8B9E
102
{ACAD_REACTORS
330
8B95
102
}
330
8B95
100
AcDbScale
 70
     0
300
1:30
140
1.0
141
30.0
290
     0
  0
SCALE
  5
8B9F
102
{ACAD_REACTORS
330
8B95
102
}
330
8B95
100
AcDbScale
 70
     0
300
1:40
140
1.0
141
40.0
290
     0
  0
SCALE
  5
8BA0
102
{ACAD_REACTORS
330
8B95
102
}
330
8B95
100
AcDbScale
 70
     0
300
1:50
140
1.0
141
50.0
290
     0
  0
SCALE
  5
8BA1
102
{ACAD_REACTORS
330
8B95
102
}
330
8B95
100
AcDbScale
 70
     0
300
1:100
140
1.0
141
100.0
290
     0
  0
SCALE
  5
8BA2
102
{ACAD_REACTORS
330
8B95
102
}
330
8B95
100
AcDbScale
 70
     0
300
2:1
140
2.0
141
1.0
290
     0
  0
SCALE
  5
8BA3
102
{ACAD_REACTORS
330
8B95
102
}
330
8B95
100
AcDbScale
 70
     0
300
4:1
140
4.0
141
1.0
290
     0
  0
SCALE
  5
8BA4
102
{ACAD_REACTORS
330
8B95
102
}
330
8B95
100
AcDbScale
 70
     0
300
8:1
140
8.0
141
1.0
290
     0
  0
SCALE
  5
8BA5
102
{ACAD_REACTORS
330
8B95
102
}
330
8B95
100
AcDbScale
 70
     0
300
10:1
140
10.0
141
1.0
290
     0
  0
SCALE
  5
8BA6
102
{ACAD_REACTORS
330
8B95
102
}
330
8B95
100
AcDbScale
 70
     0
300
100:1
140
100.0
141
1.0
290
     0
  0
SCALE
  5
8BA7
102
{ACAD_REACTORS
330
8B95
102
}
330
8B95
100
AcDbScale
 70
     0
300
1/128" = 1'-0"
140
0.0078125
141
12.0
290
     0
  0
SCALE
  5
8BA8
102
{ACAD_REACTORS
330
8B95
102
}
330
8B95
100
AcDbScale
 70
     0
300
1/64" = 1'-0"
140
0.015625
141
12.0
290
     0
  0
SCALE
  5
8BA9
102
{ACAD_REACTORS
330
8B95
102
}
330
8B95
100
AcDbScale
 70
     0
300
1/32" = 1'-0"
140
0.03125
141
12.0
290
     0
  0
SCALE
  5
8BAA
102
{ACAD_REACTORS
330
8B95
102
}
330
8B95
100
AcDbScale
 70
     0
300
1/16" = 1'-0"
140
0.0625
141
12.0
290
     0
  0
SCALE
  5
8BAB
102
{ACAD_REACTORS
330
8B95
102
}
330
8B95
100
AcDbScale
 70
     0
300
3/32" = 1'-0"
140
0.09375
141
12.0
290
     0
  0
SCALE
  5
8BAC
102
{ACAD_REACTORS
330
8B95
102
}
330
8B95
100
AcDbScale
 70
     0
300
1/8" = 1'-0"
140
0.125
141
12.0
290
     0
  0
SCALE
  5
8BAD
102
{ACAD_REACTORS
330
8B95
102
}
330
8B95
100
AcDbScale
 70
     0
300
3/16" = 1'-0"
140
0.1875
141
12.0
290
     0
  0
SCALE
  5
8BAE
102
{ACAD_REACTORS
330
8B95
102
}
330
8B95
100
AcDbScale
 70
     0
300
1/4" = 1'-0"
140
0.25
141
12.0
290
     0
  0
SCALE
  5
8BAF
102
{ACAD_REACTORS
330
8B95
102
}
330
8B95
100
AcDbScale
 70
     0
300
3/8" = 1'-0"
140
0.375
141
12.0
290
     0
  0
SCALE
  5
8BB0
102
{ACAD_REACTORS
330
8B95
102
}
330
8B95
100
AcDbScale
 70
     0
300
1/2" = 1'-0"
140
0.5
141
12.0
290
     0
  0
SCALE
  5
8BB1
102
{ACAD_REACTORS
330
8B95
102
}
330
8B95
100
AcDbScale
 70
     0
300
3/4" = 1'-0"
140
0.75
141
12.0
290
     0
  0
SCALE
  5
8BB2
102
{ACAD_REACTORS
330
8B95
102
}
330
8B95
100
AcDbScale
 70
     0
300
1" = 1'-0"
140
1.0
141
12.0
290
     0
  0
SCALE
  5
8BB3
102
{ACAD_REACTORS
330
8B95
102
}
330
8B95
100
AcDbScale
 70
     0
300
1-1/2" = 1'-0"
140
1.5
141
12.0
290
     0
  0
SCALE
  5
8BB4
102
{ACAD_REACTORS
330
8B95
102
}
330
8B95
100
AcDbScale
 70
     0
300
3" = 1'-0"
140
3.0
141
12.0
290
     0
  0
SCALE
  5
8BB5
102
{ACAD_REACTORS
330
8B95
102
}
330
8B95
100
AcDbScale
 70
     0
300
6" = 1'-0"
140
6.0
141
12.0
290
     0
  0
SCALE
  5
8BB6
102
{ACAD_REACTORS
330
8B95
102
}
330
8B95
100
AcDbScale
 70
     0
300
1'-0" = 1'-0"
140
12.0
141
12.0
290
     0
  0
TABLESTYLE
  5
8BBF
102
{ACAD_REACTORS
330
8BBE
102
}
102
{ACAD_XDICTIONARY
360
8F76
102
}
330
8BBE
100
AcDbTableStyle
  3
Standard
 70
     0
 71
     0
 40
1.5
 41
1.5
280
     0
281
     0
  7
STANDARD
140
4.5
170
     2
 62
     0
 63
   257
283
     0
 90
        4
 91
        0
  1

274
    -2
284
     1
 64
     0
275
    -2
285
     1
 65
     0
276
    -2
286
     1
 66
     0
277
    -2
287
     1
 67
     0
278
    -2
288
     1
 68
     0
279
    -2
289
     1
 69
     0
  7
STANDARD
140
6.0
170
     5
 62
     0
 63
   257
283
     0
 90
        4
 91
        0
  1

274
    -2
284
     1
 64
     0
275
    -2
285
     1
 65
     0
276
    -2
286
     1
 66
     0
277
    -2
287
     1
 67
     0
278
    -2
288
     1
 68
     0
279
    -2
289
     1
 69
     0
  7
STANDARD
140
4.5
170
     5
 62
     0
 63
   257
283
     0
 90
        4
 91
        0
  1

274
    -2
284
     1
 64
     0
275
    -2
285
     1
 65
     0
276
    -2
286
     1
 66
     0
277
    -2
287
     1
 67
     0
278
    -2
288
     1
 68
     0
279
    -2
289
     1
 69
     0
  0
VISUALSTYLE
  5
8B7E
102
{ACAD_REACTORS
330
8B79
102
}
330
8B79
100
AcDbVisualStyle
  2
2dWireframe
 70
     4
177
     3
291
     0
 70
    58
 90
        0
176
     1
 90
        2
176
     1
 90
        0
176
     1
 90
        0
176
     1
 40
0.6
176
     1
 40
30.0
176
     1
 62
     7
420
 16777215
176
     1
 90
        1
176
     1
 90
        4
176
     1
 62
     7
176
     1
 62
   257
176
     1
 90
        1
176
     1
 90
        1
176
     1
 40
1.0
176
     1
 90
        0
176
     1
 62
   257
176
     1
 40
1.0
176
     1
 90
        1
176
     1
 90
        6
176
     1
 90
        2
176
     1
 62
     7
176
     1
 90
        5
176
     1
 90
        0
176
     1
 90
        0
176
     1
290
     0
176
     1
 90
        1
176
     1
 40
0.0
176
     1
 90
        0
176
     1
290
     1
176
     1
290
     1
176
     1
290
     0
176
     1
290
     0
176
     1
290
     0
176
     1
290
     0
176
     1
290
     0
176
     1
290
     0
176
     1
290
     0
176
     1
 90
       50
176
     1
 40
0.0
176
     1
 40
1.0
176
     1
 90
        0
176
     1
 62
    18
420
        0
176
     1
 90
       50
176
     1
 90
        3
176
     1
 62
     5
420
      255
176
     1
290
     0
176
     1
 90
       50
176
     1
 90
       50
176
     1
 90
       50
176
     1
290
     0
176
     1
 90
       50
176
     1
 62
   256
176
     0
 40
1.0
176
     0
 90
        2
176
     1
  1
strokes_ogs.tif
176
     1
290
     0
176
     1
 40
1.0
176
     1
 40
1.0
176
     1
  0
VISUALSTYLE
  5
8B81
102
{ACAD_REACTORS
330
8B79
102
}
330
8B79
100
AcDbVisualStyle
  2
Basic
 70
     7
177
     3
291
     1
 70
    58
 90
        1
176
     1
 90
        0
176
     1
 90
        1
176
     1
 90
        0
176
     1
 40
0.6
176
     1
 40
30.0
176
     1
 62
     7
420
 16777215
176
     1
 90
        0
176
     1
 90
        4
176
     1
 62
     7
176
     1
 62
   257
176
     1
 90
        1
176
     1
 90
        1
176
     1
 40
1.0
176
     1
 90
        8
176
     1
 62
     7
176
     1
 40
1.0
176
     1
 90
        1
176
     1
 90
        6
176
     1
 90
        2
176
     1
 62
     7
176
     1
 90
        5
176
     1
 90
        0
176
     1
 90
        0
176
     1
290
     0
176
     1
 90
        1
176
     1
 40
0.0
176
     1
 90
        0
176
     1
290
     0
176
     1
290
     1
176
     1
290
     1
176
     1
290
     0
176
     1
290
     0
176
     1
290
     0
176
     1
290
     0
176
     1
290
     0
176
     1
290
     0
176
     1
 90
       50
176
     1
 40
0.0
176
     1
 40
1.0
176
     1
 90
        0
176
     1
 62
    18
420
        0
176
     1
 90
       50
176
     1
 90
        3
176
     1
 62
     5
420
      255
176
     1
290
     0
176
     1
 90
       50
176
     1
 90
       50
176
     1
 90
       50
176
     1
290
     0
176
     1
 90
       50
176
     1
 62
   256
176
     0
 40
1.0
176
     0
 90
        2
176
     1
  1
strokes_ogs.tif
176
     1
290
     0
176
     1
 40
1.0
176
     1
 40
1.0
176
     1
  0
VISUALSTYLE
  5
8B85
102
{ACAD_REACTORS
330
8B79
102
}
330
8B79
100
AcDbVisualStyle
  2
Brighten
 70
    12
177
     3
291
     1
 70
    58
 90
        2
176
     1
 90
        2
176
     1
 90
        0
176
     1
 90
        0
176
     1
 40
0.6
176
     1
 40
30.0
176
     1
 62
     7
420
 16777215
176
     1
 90
        1
176
     1
 90
        4
176
     1
 62
     7
176
     1
 62
   257
176
     1
 90
        1
176
     1
 90
        1
176
     1
 40
1.0
176
     1
 90
        8
176
     1
 62
     7
176
     1
 40
1.0
176
     1
 90
        1
176
     1
 90
        6
176
     1
 90
        2
176
     1
 62
     7
176
     1
 90
        5
176
     1
 90
        0
176
     1
 90
        0
176
     1
290
     0
176
     1
 90
        1
176
     1
 40
50.0
176
     1
 90
        0
176
     1
290
     0
176
     1
290
     1
176
     1
290
     1
176
     1
290
     0
176
     1
290
     0
176
     1
290
     0
176
     1
290
     0
176
     1
290
     0
176
     1
290
     0
176
     1
 90
       50
176
     1
 40
0.0
176
     1
 40
1.0
176
     1
 90
        0
176
     1
 62
    18
420
        0
176
     1
 90
       50
176
     1
 90
        3
176
     1
 62
     5
420
      255
176
     1
290
     0
176
     1
 90
       50
176
     1
 90
       50
176
     1
 90
       50
176
     1
290
     0
176
     1
 90
       50
176
     1
 62
   256
176
     0
 40
1.0
176
     0
 90
        2
176
     1
  1
strokes_ogs.tif
176
     1
290
     0
176
     1
 40
1.0
176
     1
 40
1.0
176
     1
  0
VISUALSTYLE
  5
8B89
102
{ACAD_REACTORS
330
8B79
102
}
330
8B79
100
AcDbVisualStyle
  2
ColorChange
 70
    16
177
     3
291
     1
 70
    58
 90
        2
176
     1
 90
        2
176
     1
 90
        3
176
     1
 90
        0
176
     1
 40
0.6
176
     1
 40
30.0
176
     1
 62
     8
420
  8421504
176
     1
 90
        1
176
     1
 90
        4
176
     1
 62
     7
176
     1
 62
   257
176
     1
 90
        1
176
     1
 90
        1
176
     1
 40
1.0
176
     1
 90
        8
176
     1
 62
     8
420
  8421504
176
     1
 40
1.0
176
     1
 90
        1
176
     1
 90
        6
176
     1
 90
        2
176
     1
 62
     7
176
     1
 90
        5
176
     1
 90
        0
176
     1
 90
        0
176
     1
290
     0
176
     1
 90
        1
176
     1
 40
0.0
176
     1
 90
        0
176
     1
290
     0
176
     1
290
     1
176
     1
290
     1
176
     1
290
     0
176
     1
290
     0
176
     1
290
     0
176
     1
290
     0
176
     1
290
     0
176
     1
290
     0
176
     1
 90
       50
176
     1
 40
0.0
176
     1
 40
1.0
176
     1
 90
        0
176
     1
 62
    18
420
        0
176
     1
 90
       50
176
     1
 90
        3
176
     1
 62
     5
420
      255
176
     1
290
     0
176
     1
 90
       50
176
     1
 90
       50
176
     1
 90
       50
176
     1
290
     0
176
     1
 90
       50
176
     1
 62
   256
176
     0
 40
1.0
176
     0
 90
        2
176
     1
  1
strokes_ogs.tif
176
     1
290
     0
176
     1
 40
1.0
176
     1
 40
1.0
176
     1
  0
VISUALSTYLE
  5
8B83
102
{ACAD_REACTORS
330
8B79
102
}
330
8B79
100
AcDbVisualStyle
  2
Conceptual
 70
     9
177
     3
291
     0
 70
    58
 90
        3
176
     1
 90
        2
176
     1
 90
        0
176
     1
 90
        0
176
     1
 40
0.6
176
     1
 40
30.0
176
     1
 62
     7
420
 16777215
176
     1
 90
        2
176
     1
 90
        2
176
     1
 62
     7
176
     1
 62
   257
176
     1
 90
        1
176
     1
 90
        1
176
     1
 40
179.0
176
     1
 90
        8
176
     1
 62
     7
176
     1
 40
1.0
176
     1
 90
        1
176
     1
 90
        6
176
     1
 90
        2
176
     1
 62
     7
176
     1
 90
        3
176
     1
 90
        0
176
     1
 90
        0
176
     1
290
     0
176
     1
 90
        1
176
     1
 40
0.0
176
     1
 90
        0
176
     1
290
     0
176
     1
290
     1
176
     1
290
     1
176
     1
290
     0
176
     1
290
     0
176
     1
290
     0
176
     1
290
     0
176
     1
290
     0
176
     1
290
     0
176
     1
 90
       50
176
     1
 40
0.0
176
     1
 40
1.0
176
     1
 90
        0
176
     1
 62
    18
420
        0
176
     1
 90
       50
176
     1
 90
        3
176
     1
 62
     5
420
      255
176
     1
290
     0
176
     1
 90
       50
176
     1
 90
       50
176
     1
 90
       50
176
     1
290
     0
176
     1
 90
       50
176
     1
 62
   256
176
     0
 40
1.0
176
     0
 90
        2
176
     1
  1
strokes_ogs.tif
176
     1
290
     0
176
     1
 40
1.0
176
     1
 40
1.0
176
     1
  0
VISUALSTYLE
  5
8B84
102
{ACAD_REACTORS
330
8B79
102
}
330
8B79
100
AcDbVisualStyle
  2
Dim
 70
    11
177
     3
291
     1
 70
    58
 90
        2
176
     1
 90
        2
176
     1
 90
        0
176
     1
 90
        0
176
     1
 40
0.6
176
     1
 40
30.0
176
     1
 62
     7
420
 16777215
176
     1
 90
        1
176
     1
 90
        4
176
     1
 62
     7
176
     1
 62
   257
176
     1
 90
        1
176
     1
 90
        1
176
     1
 40
1.0
176
     1
 90
        8
176
     1
 62
     7
176
     1
 40
1.0
176
     1
 90
        1
176
     1
 90
        6
176
     1
 90
        2
176
     1
 62
     7
176
     1
 90
        5
176
     1
 90
        0
176
     1
 90
        0
176
     1
290
     0
176
     1
 90
        1
176
     1
 40
-50.0
176
     1
 90
        0
176
     1
290
     0
176
     1
290
     1
176
     1
290
     1
176
     1
290
     0
176
     1
290
     0
176
     1
290
     0
176
     1
290
     0
176
     1
290
     0
176
     1
290
     0
176
     1
 90
       50
176
     1
 40
0.0
176
     1
 40
1.0
176
     1
 90
        0
176
     1
 62
    18
420
        0
176
     1
 90
       50
176
     1
 90
        3
176
     1
 62
     5
420
      255
176
     1
290
     0
176
     1
 90
       50
176
     1
 90
       50
176
     1
 90
       50
176
     1
290
     0
176
     1
 90
       50
176
     1
 62
   256
176
     0
 40
1.0
176
     0
 90
        2
176
     1
  1
strokes_ogs.tif
176
     1
290
     0
176
     1
 40
1.0
176
     1
 40
1.0
176
     1
  0
VISUALSTYLE
  5
8B8C
102
{ACAD_REACTORS
330
8B79
102
}
330
8B79
100
AcDbVisualStyle
  2
EdgeColorOff
 70
    22
177
     3
291
     1
 70
    58
 90
        2
176
     0
 90
        2
176
     0
 90
        0
176
     0
 90
        0
176
     0
 40
0.6
176
     0
 40
30.0
176
     0
 62
     7
420
 16777215
176
     0
 90
        1
176
     0
 90
        4
176
     0
 62
     7
176
     0
 62
   257
176
     0
 90
        1
176
     0
 90
        1
176
     0
 40
1.0
176
     0
 90
        8
176
     2
 62
     7
176
     0
 40
1.0
176
     0
 90
        1
176
     0
 90
        6
176
     0
 90
        2
176
     0
 62
     7
176
     0
 90
        5
176
     0
 90
        0
176
     0
 90
        0
176
     0
290
     0
176
     0
 90
        1
176
     0
 40
0.0
176
     0
 90
        0
176
     0
290
     0
176
     0
290
     1
176
     0
290
     1
176
     0
290
     0
176
     0
290
     0
176
     0
290
     0
176
     0
290
     0
176
     0
290
     0
176
     0
290
     0
176
     0
 90
       50
176
     0
 40
0.0
176
     0
 40
1.0
176
     0
 90
        0
176
     0
 62
    18
420
        0
176
     0
 90
       50
176
     0
 90
        3
176
     0
 62
     5
420
      255
176
     0
290
     0
176
     0
 90
       50
176
     0
 90
       50
176
     0
 90
       50
176
     0
290
     0
176
     0
 90
       50
176
     0
 62
   256
176
     0
 40
1.0
176
     0
 90
        2
176
     0
  1
strokes_ogs.tif
176
     0
290
     0
176
     0
 40
1.0
176
     0
 40
1.0
176
     0
  0
VISUALSTYLE
  5
8B88
102
{ACAD_REACTORS
330
8B79
102
}
330
8B79
100
AcDbVisualStyle
  2
Facepattern
 70
    15
177
     3
291
     1
 70
    58
 90
        2
176
     1
 90
        2
176
     1
 90
        0
176
     1
 90
        0
176
     1
 40
0.6
176
     1
 40
30.0
176
     1
 62
     7
420
 16777215
176
     1
 90
        1
176
     1
 90
        4
176
     1
 62
     7
176
     1
 62
   257
176
     1
 90
        1
176
     1
 90
        1
176
     1
 40
1.0
176
     1
 90
        8
176
     1
 62
     7
176
     1
 40
1.0
176
     1
 90
        1
176
     1
 90
        6
176
     1
 90
        2
176
     1
 62
     7
176
     1
 90
        5
176
     1
 90
        0
176
     1
 90
        0
176
     1
290
     0
176
     1
 90
        1
176
     1
 40
0.0
176
     1
 90
        0
176
     1
290
     0
176
     1
290
     1
176
     1
290
     1
176
     1
290
     0
176
     1
290
     0
176
     1
290
     0
176
     1
290
     0
176
     1
290
     0
176
     1
290
     0
176
     1
 90
       50
176
     1
 40
0.0
176
     1
 40
1.0
176
     1
 90
        0
176
     1
 62
    18
420
        0
176
     1
 90
       50
176
     1
 90
        3
176
     1
 62
     5
420
      255
176
     1
290
     0
176
     1
 90
       50
176
     1
 90
       50
176
     1
 90
       50
176
     1
290
     0
176
     1
 90
       50
176
     1
 62
   256
176
     0
 40
1.0
176
     0
 90
        2
176
     1
  1
strokes_ogs.tif
176
     1
290
     0
176
     1
 40
1.0
176
     1
 40
1.0
176
     1
  0
VISUALSTYLE
  5
8B7A
102
{ACAD_REACTORS
330
8B79
102
}
330
8B79
100
AcDbVisualStyle
  2
Flat
 70
     0
177
     3
291
     1
 70
    58
 90
        2
176
     1
 90
        1
176
     1
 90
        1
176
     1
 90
        2
176
     1
 40
0.6
176
     1
 40
30.0
176
     1
 62
     7
420
 16777215
176
     1
 90
        0
176
     1
 90
        0
176
     1
 62
     7
176
     1
 62
   257
176
     1
 90
        1
176
     1
 90
        1
176
     1
 40
1.0
176
     1
 90
        8
176
     1
 62
     7
176
     1
 40
1.0
176
     1
 90
        1
176
     1
 90
        6
176
     1
 90
        2
176
     1
 62
     7
176
     1
 90
        5
176
     1
 90
        0
176
     1
 90
        0
176
     1
290
     0
176
     1
 90
       13
176
     1
 40
0.0
176
     1
 90
        0
176
     1
290
     0
176
     1
290
     1
176
     1
290
     1
176
     1
290
     0
176
     1
290
     0
176
     1
290
     0
176
     1
290
     0
176
     1
290
     0
176
     1
290
     0
176
     1
 90
       50
176
     1
 40
0.0
176
     1
 40
1.0
176
     1
 90
        0
176
     1
 62
    18
420
        0
176
     1
 90
       50
176
     1
 90
        3
176
     1
 62
     5
420
      255
176
     1
290
     0
176
     1
 90
       50
176
     1
 90
       50
176
     1
 90
       50
176
     1
290
     0
176
     1
 90
       50
176
     1
 62
   256
176
     0
 40
1.0
176
     0
 90
        2
176
     1
  1
strokes_ogs.tif
176
     1
290
     0
176
     1
 40
1.0
176
     1
 40
1.0
176
     1
  0
VISUALSTYLE
  5
8B7B
102
{ACAD_REACTORS
330
8B79
102
}
330
8B79
100
AcDbVisualStyle
  2
FlatWithEdges
 70
     1
177
     3
291
     1
 70
    58
 90
        2
176
     1
 90
        1
176
     1
 90
        1
176
     1
 90
        2
176
     1
 40
0.6
176
     1
 40
30.0
176
     1
 62
     7
420
 16777215
176
     1
 90
        1
176
     1
 90
        0
176
     1
 62
     7
176
     1
 62
   257
176
     1
 90
        1
176
     1
 90
        1
176
     1
 40
1.0
176
     1
 90
        0
176
     1
 62
   257
176
     1
 40
1.0
176
     1
 90
        1
176
     1
 90
        6
176
     1
 90
        2
176
     1
 62
     7
176
     1
 90
        5
176
     1
 90
        0
176
     1
 90
        0
176
     1
290
     0
176
     1
 90
       13
176
     1
 40
0.0
176
     1
 90
        0
176
     1
290
     0
176
     1
290
     1
176
     1
290
     1
176
     1
290
     0
176
     1
290
     0
176
     1
290
     0
176
     1
290
     0
176
     1
290
     0
176
     1
290
     0
176
     1
 90
       50
176
     1
 40
0.0
176
     1
 40
1.0
176
     1
 90
        0
176
     1
 62
    18
420
        0
176
     1
 90
       50
176
     1
 90
        3
176
     1
 62
     5
420
      255
176
     1
290
     0
176
     1
 90
       50
176
     1
 90
       50
176
     1
 90
       50
176
     1
290
     0
176
     1
 90
       50
176
     1
 62
   256
176
     0
 40
1.0
176
     0
 90
        2
176
     1
  1
strokes_ogs.tif
176
     1
290
     0
176
     1
 40
1.0
176
     1
 40
1.0
176
     1
  0
VISUALSTYLE
  5
8B7C
102
{ACAD_REACTORS
330
8B79
102
}
330
8B79
100
AcDbVisualStyle
  2
Gouraud
 70
     2
177
     3
291
     1
 70
    58
 90
        2
176
     1
 90
        2
176
     1
 90
        1
176
     1
 90
        2
176
     1
 40
0.6
176
     1
 40
30.0
176
     1
 62
     7
420
 16777215
176
     1
 90
        0
176
     1
 90
        0
176
     1
 62
     7
176
     1
 62
   257
176
     1
 90
        1
176
     1
 90
        1
176
     1
 40
1.0
176
     1
 90
        0
176
     1
 62
     7
176
     1
 40
1.0
176
     1
 90
        1
176
     1
 90
        6
176
     1
 90
        2
176
     1
 62
     7
176
     1
 90
        5
176
     1
 90
        0
176
     1
 90
        0
176
     1
290
     0
176
     1
 90
       13
176
     1
 40
0.0
176
     1
 90
        0
176
     1
290
     0
176
     1
290
     1
176
     1
290
     1
176
     1
290
     0
176
     1
290
     0
176
     1
290
     0
176
     1
290
     0
176
     1
290
     0
176
     1
290
     0
176
     1
 90
       50
176
     1
 40
0.0
176
     1
 40
1.0
176
     1
 90
        0
176
     1
 62
    18
420
        0
176
     1
 90
       50
176
     1
 90
        3
176
     1
 62
     5
420
      255
176
     1
290
     0
176
     1
 90
       50
176
     1
 90
       50
176
     1
 90
       50
176
     1
290
     0
176
     1
 90
       50
176
     1
 62
   256
176
     0
 40
1.0
176
     0
 90
        2
176
     1
  1
strokes_ogs.tif
176
     1
290
     0
176
     1
 40
1.0
176
     1
 40
1.0
176
     1
  0
VISUALSTYLE
  5
8B7D
102
{ACAD_REACTORS
330
8B79
102
}
330
8B79
100
AcDbVisualStyle
  2
GouraudWithEdges
 70
     3
177
     3
291
     1
 70
    58
 90
        2
176
     1
 90
        2
176
     1
 90
        1
176
     1
 90
        2
176
     1
 40
0.6
176
     1
 40
30.0
176
     1
 62
     7
420
 16777215
176
     1
 90
        1
176
     1
 90
        0
176
     1
 62
     7
176
     1
 62
   257
176
     1
 90
        1
176
     1
 90
        1
176
     1
 40
1.0
176
     1
 90
        0
176
     1
 62
   257
176
     1
 40
1.0
176
     1
 90
        1
176
     1
 90
        6
176
     1
 90
        2
176
     1
 62
     7
176
     1
 90
        5
176
     1
 90
        0
176
     1
 90
        0
176
     1
290
     0
176
     1
 90
       13
176
     1
 40
0.0
176
     1
 90
        0
176
     1
290
     0
176
     1
290
     1
176
     1
290
     1
176
     1
290
     0
176
     1
290
     0
176
     1
290
     0
176
     1
290
     0
176
     1
290
     0
176
     1
290
     0
176
     1
 90
       50
176
     1
 40
0.0
176
     1
 40
1.0
176
     1
 90
        0
176
     1
 62
    18
420
        0
176
     1
 90
       50
176
     1
 90
        3
176
     1
 62
     5
420
      255
176
     1
290
     0
176
     1
 90
       50
176
     1
 90
       50
176
     1
 90
       50
176
     1
290
     0
176
     1
 90
       50
176
     1
 62
   256
176
     0
 40
1.0
176
     0
 90
        2
176
     1
  1
strokes_ogs.tif
176
     1
290
     0
176
     1
 40
1.0
176
     1
 40
1.0
176
     1
  0
VISUALSTYLE
  5
8B80
102
{ACAD_REACTORS
330
8B79
102
}
330
8B79
100
AcDbVisualStyle
  2
Hidden
 70
     6
177
     3
291
     0
 70
    58
 90
        1
176
     1
 90
        2
176
     1
 90
        2
176
     1
 90
        0
176
     1
 40
0.6
176
     1
 40
30.0
176
     1
 62
     7
420
 16777215
176
     1
 90
        2
176
     1
 90
        2
176
     1
 62
     7
176
     1
 62
   257
176
     1
 90
        2
176
     1
 90
        1
176
     1
 40
40.0
176
     1
 90
        0
176
     1
 62
   257
176
     1
 40
1.0
176
     1
 90
        1
176
     1
 90
        6
176
     1
 90
        2
176
     1
 62
     7
176
     1
 90
        3
176
     1
 90
        0
176
     1
 90
        0
176
     1
290
     0
176
     1
 90
        1
176
     1
 40
0.0
176
     1
 90
        0
176
     1
290
     0
176
     1
290
     1
176
     1
290
     1
176
     1
290
     0
176
     1
290
     0
176
     1
290
     0
176
     1
290
     0
176
     1
290
     0
176
     1
290
     0
176
     1
 90
       50
176
     1
 40
0.0
176
     1
 40
1.0
176
     1
 90
        0
176
     1
 62
    18
420
        0
176
     1
 90
       50
176
     1
 90
        3
176
     1
 62
     5
420
      255
176
     1
290
     0
176
     1
 90
       50
176
     1
 90
       50
176
     1
 90
       50
176
     1
290
     0
176
     1
 90
       50
176
     1
 62
   256
176
     0
 40
1.0
176
     0
 90
        2
176
     1
  1
strokes_ogs.tif
176
     1
290
     0
176
     1
 40
1.0
176
     1
 40
1.0
176
     1
  0
VISUALSTYLE
  5
8B8A
102
{ACAD_REACTORS
330
8B79
102
}
330
8B79
100
AcDbVisualStyle
  2
JitterOff
 70
    20
177
     3
291
     1
 70
    58
 90
        2
176
     0
 90
        2
176
     0
 90
        0
176
     0
 90
        0
176
     0
 40
0.6
176
     0
 40
30.0
176
     0
 62
     7
420
 16777215
176
     0
 90
        1
176
     0
 90
        4
176
     0
 62
     7
176
     0
 62
   257
176
     0
 90
        1
176
     0
 90
        1
176
     0
 40
1.0
176
     0
 90
       10
176
     2
 62
     7
176
     0
 40
1.0
176
     0
 90
        1
176
     0
 90
        6
176
     0
 90
        2
176
     0
 62
     7
176
     0
 90
        5
176
     0
 90
        0
176
     0
 90
        0
176
     0
290
     0
176
     0
 90
        1
176
     0
 40
0.0
176
     0
 90
        0
176
     0
290
     0
176
     0
290
     1
176
     0
290
     1
176
     0
290
     0
176
     0
290
     0
176
     0
290
     0
176
     0
290
     0
176
     0
290
     0
176
     0
290
     0
176
     0
 90
       50
176
     0
 40
0.0
176
     0
 40
1.0
176
     0
 90
        0
176
     0
 62
    18
420
        0
176
     0
 90
       50
176
     0
 90
        3
176
     0
 62
     5
420
      255
176
     0
290
     0
176
     0
 90
       50
176
     0
 90
       50
176
     0
 90
       50
176
     0
290
     0
176
     0
 90
       50
176
     0
 62
   256
176
     0
 40
1.0
176
     0
 90
        2
176
     0
  1
strokes_ogs.tif
176
     0
290
     0
176
     0
 40
1.0
176
     0
 40
1.0
176
     0
  0
VISUALSTYLE
  5
8B87
102
{ACAD_REACTORS
330
8B79
102
}
330
8B79
100
AcDbVisualStyle
  2
Linepattern
 70
    14
177
     3
291
     1
 70
    58
 90
        2
176
     1
 90
        2
176
     1
 90
        0
176
     1
 90
        0
176
     1
 40
0.6
176
     1
 40
30.0
176
     1
 62
     7
420
 16777215
176
     1
 90
        1
176
     1
 90
        4
176
     1
 62
     7
176
     1
 62
   257
176
     1
 90
        7
176
     1
 90
        7
176
     1
 40
1.0
176
     1
 90
        8
176
     1
 62
     7
176
     1
 40
1.0
176
     1
 90
        1
176
     1
 90
        6
176
     1
 90
        2
176
     1
 62
     7
176
     1
 90
        5
176
     1
 90
        0
176
     1
 90
        0
176
     1
290
     0
176
     1
 90
        1
176
     1
 40
0.0
176
     1
 90
        0
176
     1
290
     0
176
     1
290
     1
176
     1
290
     1
176
     1
290
     0
176
     1
290
     0
176
     1
290
     0
176
     1
290
     0
176
     1
290
     0
176
     1
290
     0
176
     1
 90
       50
176
     1
 40
0.0
176
     1
 40
1.0
176
     1
 90
        0
176
     1
 62
    18
420
        0
176
     1
 90
       50
176
     1
 90
        3
176
     1
 62
     5
420
      255
176
     1
290
     0
176
     1
 90
       50
176
     1
 90
       50
176
     1
 90
       50
176
     1
290
     0
176
     1
 90
       50
176
     1
 62
   256
176
     0
 40
1.0
176
     0
 90
        2
176
     1
  1
strokes_ogs.tif
176
     1
290
     0
176
     1
 40
1.0
176
     1
 40
1.0
176
     1
  0
VISUALSTYLE
  5
8B8B
102
{ACAD_REACTORS
330
8B79
102
}
330
8B79
100
AcDbVisualStyle
  2
OverhangOff
 70
    21
177
     3
291
     1
 70
    58
 90
        2
176
     0
 90
        2
176
     0
 90
        0
176
     0
 90
        0
176
     0
 40
0.6
176
     0
 40
30.0
176
     0
 62
     7
420
 16777215
176
     0
 90
        1
176
     0
 90
        4
176
     0
 62
     7
176
     0
 62
   257
176
     0
 90
        1
176
     0
 90
        1
176
     0
 40
1.0
176
     0
 90
        9
176
     2
 62
     7
176
     0
 40
1.0
176
     0
 90
        1
176
     0
 90
        6
176
     0
 90
        2
176
     0
 62
     7
176
     0
 90
        5
176
     0
 90
        0
176
     0
 90
        0
176
     0
290
     0
176
     0
 90
        1
176
     0
 40
0.0
176
     0
 90
        0
176
     0
290
     0
176
     0
290
     1
176
     0
290
     1
176
     0
290
     0
176
     0
290
     0
176
     0
290
     0
176
     0
290
     0
176
     0
290
     0
176
     0
290
     0
176
     0
 90
       50
176
     0
 40
0.0
176
     0
 40
1.0
176
     0
 90
        0
176
     0
 62
    18
420
        0
176
     0
 90
       50
176
     0
 90
        3
176
     0
 62
     5
420
      255
176
     0
290
     0
176
     0
 90
       50
176
     0
 90
       50
176
     0
 90
       50
176
     0
290
     0
176
     0
 90
       50
176
     0
 62
   256
176
     0
 40
1.0
176
     0
 90
        2
176
     0
  1
strokes_ogs.tif
176
     0
290
     0
176
     0
 40
1.0
176
     0
 40
1.0
176
     0
  0
VISUALSTYLE
  5
8B82
102
{ACAD_REACTORS
330
8B79
102
}
330
8B79
100
AcDbVisualStyle
  2
Realistic
 70
     8
177
     3
291
     0
 70
    58
 90
        2
176
     1
 90
        3
176
     1
 90
        0
176
     1
 90
        2
176
     1
 40
0.6
176
     1
 40
30.0
176
     1
 62
     7
420
 16777215
176
     1
 90
        0
176
     1
 90
        0
176
     1
 62
     7
176
     1
 62
   257
176
     1
 90
        1
176
     1
 90
        1
176
     1
 40
1.0
176
     1
 90
        8
176
     1
 62
   257
176
     1
 40
1.0
176
     1
 90
        1
176
     1
 90
        6
176
     1
 90
        2
176
     1
 62
     7
176
     1
 90
        3
176
     1
 90
        0
176
     1
 90
        0
176
     1
290
     0
176
     1
 90
       13
176
     1
 40
0.0
176
     1
 90
        0
176
     1
290
     0
176
     1
290
     1
176
     1
290
     1
176
     1
290
     0
176
     1
290
     0
176
     1
290
     0
176
     1
290
     0
176
     1
290
     0
176
     1
290
     0
176
     1
 90
       50
176
     1
 40
0.0
176
     1
 40
1.0
176
     1
 90
        0
176
     1
 62
    18
420
        0
176
     1
 90
       50
176
     1
 90
        3
176
     1
 62
     5
420
      255
176
     1
290
     0
176
     1
 90
       50
176
     1
 90
       50
176
     1
 90
       50
176
     1
290
     0
176
     1
 90
       50
176
     1
 62
   256
176
     0
 40
1.0
176
     0
 90
        2
176
     1
  1
strokes_ogs.tif
176
     1
290
     0
176
     1
 40
1.0
176
     1
 40
1.0
176
     1
  0
VISUALSTYLE
  5
8B91
102
{ACAD_REACTORS
330
8B79
102
}
330
8B79
100
AcDbVisualStyle
  2
Shaded
 70
    27
177
     3
291
     0
 70
    58
 90
        2
176
     1
 90
        2
176
     1
 90
        1
176
     1
 90
        2
176
     1
 40
0.6
176
     1
 40
30.0
176
     1
 62
     7
420
 16777215
176
     1
 90
        0
176
     1
 90
        4
176
     1
 62
     7
176
     1
 62
   257
176
     1
 90
        1
176
     1
 90
        1
176
     1
 40
1.0
176
     1
 90
        8
176
     1
 62
   257
176
     1
 40
1.0
176
     1
 90
        1
176
     1
 90
        6
176
     1
 90
        2
176
     1
 62
     8
420
  7895160
176
     1
 90
        3
176
     1
 90
        0
176
     1
 90
        0
176
     1
290
     0
176
     1
 90
        5
176
     1
 40
0.0
176
     1
 90
        0
176
     1
290
     0
176
     1
290
     1
176
     1
290
     1
176
     1
290
     0
176
     1
290
     0
176
     1
290
     0
176
     1
290
     0
176
     1
290
     0
176
     1
290
     0
176
     1
 90
       50
176
     1
 40
0.0
176
     1
 40
1.0
176
     1
 90
        0
176
     1
 62
    18
420
        0
176
     1
 90
       50
176
     1
 90
        3
176
     1
 62
     5
420
      255
176
     1
290
     0
176
     1
 90
       50
176
     1
 90
       50
176
     1
 90
       50
176
     1
290
     0
176
     1
 90
       50
176
     1
 62
   256
176
     0
 40
1.0
176
     0
 90
        2
176
     1
  1
strokes_ogs.tif
176
     1
290
     0
176
     1
 40
1.0
176
     1
 40
1.0
176
     1
  0
VISUALSTYLE
  5
8B90
102
{ACAD_REACTORS
330
8B79
102
}
330
8B79
100
AcDbVisualStyle
  2
Shaded with edges
 70
    26
177
     3
291
     0
 70
    58
 90
        2
176
     1
 90
        2
176
     1
 90
        1
176
     1
 90
        2
176
     1
 40
0.6
176
     1
 40
30.0
176
     1
 62
     7
420
 16777215
176
     1
 90
        1
176
     1
 90
       10
176
     1
 62
     7
176
     1
 62
   257
176
     1
 90
        2
176
     1
 90
        1
176
     1
 40
1.0
176
     1
 90
        8
176
     1
 62
   257
176
     1
 40
1.0
176
     1
 90
        1
176
     1
 90
        6
176
     1
 90
        2
176
     1
 62
     7
176
     1
 90
        3
176
     1
 90
        0
176
     1
 90
        0
176
     1
290
     0
176
     1
 90
        5
176
     1
 40
0.0
176
     1
 90
        0
176
     1
290
     0
176
     1
290
     1
176
     1
290
     1
176
     1
290
     0
176
     1
290
     0
176
     1
290
     0
176
     1
290
     0
176
     1
290
     0
176
     1
290
     0
176
     1
 90
       50
176
     1
 40
0.0
176
     1
 40
1.0
176
     1
 90
        0
176
     1
 62
    18
420
        0
176
     1
 90
       50
176
     1
 90
        3
176
     1
 62
     5
420
      255
176
     1
290
     0
176
     1
 90
       50
176
     1
 90
       50
176
     1
 90
       50
176
     1
290
     0
176
     1
 90
       50
176
     1
 62
   256
176
     0
 40
1.0
176
     0
 90
        2
176
     1
  1
strokes_ogs.tif
176
     1
290
     0
176
     1
 40
1.0
176
     1
 40
1.0
176
     1
  0
VISUALSTYLE
  5
8B8D
102
{ACAD_REACTORS
330
8B79
102
}
330
8B79
100
AcDbVisualStyle
  2
Shades of Gray
 70
    23
177
     3
291
     0
 70
    58
 90
        2
176
     1
 90
        2
176
     1
 90
        3
176
     1
 90
        0
176
     1
 40
0.6
176
     1
 40
30.0
176
     1
 62
     7
420
 16777215
176
     1
 90
        2
176
     1
 90
        2
176
     1
 62
     7
176
     1
 62
     7
176
     1
 90
        1
176
     1
 90
        1
176
     1
 40
40.0
176
     1
 90
        8
176
     1
 62
     7
176
     1
 40
1.0
176
     1
 90
        1
176
     1
 90
        6
176
     1
 90
        2
176
     1
 62
     7
176
     1
 90
        3
176
     1
 90
        0
176
     1
 90
        0
176
     1
290
     0
176
     1
 90
        1
176
     1
 40
0.0
176
     1
 90
        0
176
     1
290
     0
176
     1
290
     1
176
     1
290
     1
176
     1
290
     0
176
     1
290
     0
176
     1
290
     0
176
     1
290
     0
176
     1
290
     0
176
     1
290
     0
176
     1
 90
       50
176
     1
 40
0.0
176
     1
 40
1.0
176
     1
 90
        0
176
     1
 62
    18
420
        0
176
     1
 90
       50
176
     1
 90
        3
176
     1
 62
     5
420
      255
176
     1
290
     0
176
     1
 90
       50
176
     1
 90
       50
176
     1
 90
       50
176
     1
290
     0
176
     1
 90
       50
176
     1
 62
   256
176
     0
 40
1.0
176
     0
 90
        2
176
     1
  1
strokes_ogs.tif
176
     1
290
     0
176
     1
 40
1.0
176
     1
 40
1.0
176
     1
  0
VISUALSTYLE
  5
8B8E
102
{ACAD_REACTORS
330
8B79
102
}
330
8B79
100
AcDbVisualStyle
  2
Sketchy
 70
    24
177
     3
291
     0
 70
    58
 90
        1
176
     1
 90
        2
176
     1
 90
        2
176
     1
 90
        0
176
     1
 40
0.6
176
     1
 40
30.0
176
     1
 62
     7
420
 16777215
176
     1
 90
        2
176
     1
 90
        2
176
     1
 62
     7
176
     1
 62
     7
176
     1
 90
        1
176
     1
 90
        1
176
     1
 40
40.0
176
     1
 90
       11
176
     1
 62
     7
176
     1
 40
1.0
176
     1
 90
        1
176
     1
 90
        6
176
     1
 90
        2
176
     1
 62
     7
176
     1
 90
        6
176
     1
 90
        0
176
     1
 90
        0
176
     1
290
     0
176
     1
 90
        1
176
     1
 40
0.0
176
     1
 90
        0
176
     1
290
     0
176
     1
290
     1
176
     1
290
     1
176
     1
290
     0
176
     1
290
     0
176
     1
290
     0
176
     1
290
     0
176
     1
290
     0
176
     1
290
     0
176
     1
 90
       50
176
     1
 40
0.0
176
     1
 40
1.0
176
     1
 90
        0
176
     1
 62
    18
420
        0
176
     1
 90
       50
176
     1
 90
        3
176
     1
 62
     5
420
      255
176
     1
290
     0
176
     1
 90
       50
176
     1
 90
       50
176
     1
 90
       50
176
     1
290
     0
176
     1
 90
       50
176
     1
 62
   256
176
     0
 40
1.0
176
     0
 90
        2
176
     1
  1
strokes_ogs.tif
176
     1
290
     0
176
     1
 40
1.0
176
     1
 40
1.0
176
     1
  0
VISUALSTYLE
  5
8B86
102
{ACAD_REACTORS
330
8B79
102
}
330
8B79
100
AcDbVisualStyle
  2
Thicken
 70
    13
177
     3
291
     1
 70
    58
 90
        2
176
     1
 90
        2
176
     1
 90
        0
176
     1
 90
        0
176
     1
 40
0.6
176
     1
 40
30.0
176
     1
 62
     7
420
 16777215
176
     1
 90
        1
176
     1
 90
        4
176
     1
 62
     7
176
     1
 62
   257
176
     1
 90
        1
176
     1
 90
        1
176
     1
 40
1.0
176
     1
 90
       12
176
     1
 62
     7
176
     1
 40
1.0
176
     1
 90
        1
176
     1
 90
        6
176
     1
 90
        2
176
     1
 62
     7
176
     1
 90
        5
176
     1
 90
        0
176
     1
 90
        0
176
     1
290
     0
176
     1
 90
        1
176
     1
 40
0.0
176
     1
 90
        0
176
     1
290
     0
176
     1
290
     1
176
     1
290
     1
176
     1
290
     0
176
     1
290
     0
176
     1
290
     0
176
     1
290
     0
176
     1
290
     0
176
     1
290
     0
176
     1
 90
       50
176
     1
 40
0.0
176
     1
 40
1.0
176
     1
 90
        0
176
     1
 62
    18
420
        0
176
     1
 90
       50
176
     1
 90
        3
176
     1
 62
     5
420
      255
176
     1
290
     0
176
     1
 90
       50
176
     1
 90
       50
176
     1
 90
       50
176
     1
290
     0
176
     1
 90
       50
176
     1
 62
   256
176
     0
 40
1.0
176
     0
 90
        2
176
     1
  1
strokes_ogs.tif
176
     1
290
     0
176
     1
 40
1.0
176
     1
 40
1.0
176
     1
  0
VISUALSTYLE
  5
8B7F
102
{ACAD_REACTORS
330
8B79
102
}
330
8B79
100
AcDbVisualStyle
  2
Wireframe
 70
     5
177
     3
291
     0
 70
    58
 90
        0
176
     1
 90
        2
176
     1
 90
        0
176
     1
 90
        0
176
     1
 40
0.6
176
     1
 40
30.0
176
     1
 62
     7
420
 16777215
176
     1
 90
        1
176
     1
 90
        4
176
     1
 62
     7
176
     1
 62
   257
176
     1
 90
        1
176
     1
 90
        1
176
     1
 40
1.0
176
     1
 90
        0
176
     1
 62
   257
176
     1
 40
1.0
176
     1
 90
        1
176
     1
 90
        6
176
     1
 90
        2
176
     1
 62
     7
176
     1
 90
        3
176
     1
 90
        0
176
     1
 90
        0
176
     1
290
     0
176
     1
 90
        1
176
     1
 40
0.0
176
     1
 90
        0
176
     1
290
     0
176
     1
290
     1
176
     1
290
     1
176
     1
290
     0
176
     1
290
     0
176
     1
290
     0
176
     1
290
     0
176
     1
290
     0
176
     1
290
     0
176
     1
 90
       50
176
     1
 40
0.0
176
     1
 40
1.0
176
     1
 90
        0
176
     1
 62
    18
420
        0
176
     1
 90
       50
176
     1
 90
        3
176
     1
 62
     5
420
      255
176
     1
290
     0
176
     1
 90
       50
176
     1
 90
       50
176
     1
 90
       50
176
     1
290
     0
176
     1
 90
       50
176
     1
 62
   256
176
     0
 40
1.0
176
     0
 90
        2
176
     1
  1
strokes_ogs.tif
176
     1
290
     0
176
     1
 40
1.0
176
     1
 40
1.0
176
     1
  0
VISUALSTYLE
  5
8B8F
102
{ACAD_REACTORS
330
8B79
102
}
330
8B79
100
AcDbVisualStyle
  2
X-Ray
 70
    25
177
     3
291
     0
 70
    58
 90
        2
176
     1
 90
        2
176
     1
 90
        1
176
     1
 90
        1
176
     1
 40
0.5
176
     1
 40
30.0
176
     1
 62
     7
420
 16777215
176
     1
 90
        1
176
     1
 90
        0
176
     1
 62
     7
176
     1
 62
   257
176
     1
 90
        1
176
     1
 90
        1
176
     1
 40
1.0
176
     1
 90
        8
176
     1
 62
     7
176
     1
 40
1.0
176
     1
 90
        1
176
     1
 90
        6
176
     1
 90
        2
176
     1
 62
     7
176
     1
 90
        3
176
     1
 90
        0
176
     1
 90
        0
176
     1
290
     0
176
     1
 90
       13
176
     1
 40
0.0
176
     1
 90
        0
176
     1
290
     0
176
     1
290
     1
176
     1
290
     1
176
     1
290
     0
176
     1
290
     0
176
     1
290
     0
176
     1
290
     0
176
     1
290
     0
176
     1
290
     0
176
     1
 90
       50
176
     1
 40
0.0
176
     1
 40
1.0
176
     1
 90
        0
176
     1
 62
    18
420
        0
176
     1
 90
       50
176
     1
 90
        3
176
     1
 62
     5
420
      255
176
     1
290
     0
176
     1
 90
       50
176
     1
 90
       50
176
     1
 90
       50
176
     1
290
     0
176
     1
 90
       50
176
     1
 62
   256
176
     0
 40
1.0
176
     0
 90
        2
176
     1
  1
strokes_ogs.tif
176
     1
290
     0
176
     1
 40
1.0
176
     1
 40
1.0
176
     1
  0
DICTIONARYVAR
  5
8BC3
102
{ACAD_REACTORS
330
327F
102
}
330
327F
100
DictionaryVariables
280
     0
  1
1:1
  0
DICTIONARYVAR
  5
8BC5
102
{ACAD_REACTORS
330
327F
102
}
330
327F
100
DictionaryVariables
280
     0
  1
Standard
  0
DICTIONARYVAR
  5
8BC4
102
{ACAD_REACTORS
330
327F
102
}
330
327F
100
DictionaryVariables
280
     0
  1
Standard
  0
DICTIONARYVAR
  5
8BC6
102
{ACAD_REACTORS
330
327F
102
}
330
327F
100
DictionaryVariables
280
     0
  1
0
  0
DICTIONARYVAR
  5
3787
102
{ACAD_REACTORS
330
3784
102
}
330
3784
100
DictionaryVariables
280
     0
  1
0.261799
  0
DICTIONARYVAR
  5
3785
102
{ACAD_REACTORS
330
3784
102
}
330
3784
100
DictionaryVariables
280
     0
  1
10.000000
  0
DICTIONARYVAR
  5
3786
102
{ACAD_REACTORS
330
3784
102
}
330
3784
100
DictionaryVariables
280
     0
  1
6.000000
  0
DICTIONARYVAR
  5
3788
102
{ACAD_REACTORS
330
3784
102
}
330
3784
100
DictionaryVariables
280
     0
  1
0
  0
DICTIONARY
  5
8F76
330
8BBF
100
AcDbDictionary
280
     1
281
     1
  3
ACAD_ROUNDTRIP_2008_TABLESTYLE_CELLSTYLEMAP
360
8F77
  0
CELLSTYLEMAP
  5
8F77
102
{ACAD_REACTORS
330
8F76
102
}
330
8F76
100
AcDbCellStyleMap
 90
        3
300
CELLSTYLE
  1
TABLEFORMAT_BEGIN
 90
        5
170
     1
 91
        0
 92
    32768
 62
   257
 93
        1
300
CONTENTFORMAT
  1
CONTENTFORMAT_BEGIN
 90
        0
 91
        0
 92
        4
 93
        0
300

 40
0.0
140
1.0
 94
        5
 62
     0
340
11
144
6.0
309
CONTENTFORMAT_END
171
     1
301
MARGIN
  1
CELLMARGIN_BEGIN
 40
1.5
 40
1.5
 40
1.5
 40
1.5
 40
1.5
 40
1.5
309
CELLMARGIN_END
 94
        6
 95
        1
302
GRIDFORMAT
  1
GRIDFORMAT_BEGIN
 90
        0
 91
        1
 62
     0
 92
       -2
340
14
 93
        0
 40
0.045
309
GRIDFORMAT_END
 95
        2
302
GRIDFORMAT
  1
GRIDFORMAT_BEGIN
 90
        0
 91
        1
 62
     0
 92
       -2
340
14
 93
        0
 40
0.045
309
GRIDFORMAT_END
 95
        4
302
GRIDFORMAT
  1
GRIDFORMAT_BEGIN
 90
        0
 91
        1
 62
     0
 92
       -2
340
14
 93
        0
 40
0.045
309
GRIDFORMAT_END
 95
        8
302
GRIDFORMAT
  1
GRIDFORMAT_BEGIN
 90
        0
 91
        1
 62
     0
 92
       -2
340
14
 93
        0
 40
0.045
309
GRIDFORMAT_END
 95
       16
302
GRIDFORMAT
  1
GRIDFORMAT_BEGIN
 90
        0
 91
        1
 62
     0
 92
       -2
340
14
 93
        0
 40
0.045
309
GRIDFORMAT_END
 95
       32
302
GRIDFORMAT
  1
GRIDFORMAT_BEGIN
 90
        0
 91
        1
 62
     0
 92
       -2
340
14
 93
        0
 40
0.045
309
GRIDFORMAT_END
309
TABLEFORMAT_END
  1
CELLSTYLE_BEGIN
 90
        1
 91
        1
300
_TITLE
309
CELLSTYLE_END
300
CELLSTYLE
  1
TABLEFORMAT_BEGIN
 90
        5
170
     1
 91
        0
 92
        0
 62
   257
 93
        1
300
CONTENTFORMAT
  1
CONTENTFORMAT_BEGIN
 90
        0
 91
        0
 92
        4
 93
        0
300

 40
0.0
140
1.0
 94
        5
 62
     0
340
11
144
4.5
309
CONTENTFORMAT_END
171
     1
301
MARGIN
  1
CELLMARGIN_BEGIN
 40
1.5
 40
1.5
 40
1.5
 40
1.5
 40
1.5
 40
1.5
309
CELLMARGIN_END
 94
        6
 95
        1
302
GRIDFORMAT
  1
GRIDFORMAT_BEGIN
 90
        0
 91
        1
 62
     0
 92
       -2
340
14
 93
        0
 40
0.045
309
GRIDFORMAT_END
 95
        2
302
GRIDFORMAT
  1
GRIDFORMAT_BEGIN
 90
        0
 91
        1
 62
     0
 92
       -2
340
14
 93
        0
 40
0.045
309
GRIDFORMAT_END
 95
        4
302
GRIDFORMAT
  1
GRIDFORMAT_BEGIN
 90
        0
 91
        1
 62
     0
 92
       -2
340
14
 93
        0
 40
0.045
309
GRIDFORMAT_END
 95
        8
302
GRIDFORMAT
  1
GRIDFORMAT_BEGIN
 90
        0
 91
        1
 62
     0
 92
       -2
340
14
 93
        0
 40
0.045
309
GRIDFORMAT_END
 95
       16
302
GRIDFORMAT
  1
GRIDFORMAT_BEGIN
 90
        0
 91
        1
 62
     0
 92
       -2
340
14
 93
        0
 40
0.045
309
GRIDFORMAT_END
 95
       32
302
GRIDFORMAT
  1
GRIDFORMAT_BEGIN
 90
        0
 91
        1
 62
     0
 92
       -2
340
14
 93
        0
 40
0.045
309
GRIDFORMAT_END
309
TABLEFORMAT_END
  1
CELLSTYLE_BEGIN
 90
        2
 91
        1
300
_HEADER
309
CELLSTYLE_END
300
CELLSTYLE
  1
TABLEFORMAT_BEGIN
 90
        5
170
     1
 91
        0
 92
        0
 62
   257
 93
        1
300
CONTENTFORMAT
  1
CONTENTFORMAT_BEGIN
 90
        0
 91
        0
 92
        4
 93
        0
300

 40
0.0
140
1.0
 94
        2
 62
     0
340
11
144
4.5
309
CONTENTFORMAT_END
171
     1
301
MARGIN
  1
CELLMARGIN_BEGIN
 40
1.5
 40
1.5
 40
1.5
 40
1.5
 40
1.5
 40
1.5
309
CELLMARGIN_END
 94
        6
 95
        1
302
GRIDFORMAT
  1
GRIDFORMAT_BEGIN
 90
        0
 91
        1
 62
     0
 92
       -2
340
14
 93
        0
 40
0.045
309
GRIDFORMAT_END
 95
        2
302
GRIDFORMAT
  1
GRIDFORMAT_BEGIN
 90
        0
 91
        1
 62
     0
 92
       -2
340
14
 93
        0
 40
0.045
309
GRIDFORMAT_END
 95
        4
302
GRIDFORMAT
  1
GRIDFORMAT_BEGIN
 90
        0
 91
        1
 62
     0
 92
       -2
340
14
 93
        0
 40
0.045
309
GRIDFORMAT_END
 95
        8
302
GRIDFORMAT
  1
GRIDFORMAT_BEGIN
 90
        0
 91
        1
 62
     0
 92
       -2
340
14
 93
        0
 40
0.045
309
GRIDFORMAT_END
 95
       16
302
GRIDFORMAT
  1
GRIDFORMAT_BEGIN
 90
        0
 91
        1
 62
     0
 92
       -2
340
14
 93
        0
 40
0.045
309
GRIDFORMAT_END
 95
       32
302
GRIDFORMAT
  1
GRIDFORMAT_BEGIN
 90
        0
 91
        1
 62
     0
 92
       -2
340
14
 93
        0
 40
0.045
309
GRIDFORMAT_END
309
TABLEFORMAT_END
  1
CELLSTYLE_BEGIN
 90
        3
 91
        2
300
_DATA
309
CELLSTYLE_END
  0
ENDSEC
  0
EOF
