  0
SECTION
  2
HEADER
  9
$ACADVER
  1
AC1032
  9
$ACADMAINTVER
 90
        4
  9
$DWGCODEPAGE
  3
ANSI_932
  9
$LASTSAVEDBY
  1
9128
  9
$REQUIREDVERSIONS
160
                 0
  9
$INSBASE
 10
0.0
 20
0.0
 30
0.0
  9
$EXTMIN
 10
356.488146
 20
-336.143454320877
 30
0.0
  9
$EXTMAX
 10
810.0380576611608
 20
304.0872072606362
 30
0.0
  9
$LIMMIN
 10
14.684375
 20
10.715625
  9
$LIMMAX
 10
404.680208
 20
287.734375
  9
$ORTHOMODE
 70
     0
  9
$REGENMODE
 70
     1
  9
$FILLMODE
 70
     1
  9
$QTEXTMODE
 70
     0
  9
$MIRRTEXT
 70
     1
  9
$LTSCALE
 40
1.0
  9
$ATTMODE
 70
     1
  9
$TEXTSIZE
 40
2.5
  9
$TRACEWID
 40
0.05
  9
$TEXTSTYLE
  7
STANDARD
  9
$CLAYER
  8
0
  9
$CELTYPE
  6
CONTINUOUS
  9
$CECOLOR
 62
     4
  9
$CELTSCALE
 40
1.0
  9
$DISPSILH
 70
     0
  9
$DIMSCALE
 40
1.0
  9
$DIMASZ
 40
2.5
  9
$DIMEXO
 40
0.625
  9
$DIMDLI
 40
3.75
  9
$DIMRND
 40
0.0
  9
$DIMDLE
 40
0.0
  9
$DIMEXE
 40
1.25
  9
$DIMTP
 40
0.0
  9
$DIMTM
 40
0.0
  9
$DIMTXT
 40
2.5
  9
$DIMCEN
 40
2.5
  9
$DIMTSZ
 40
0.0
  9
$DIMTOL
 70
     0
  9
$DIMLIM
 70
     0
  9
$DIMTIH
 70
     0
  9
$DIMTOH
 70
     0
  9
$DIMSE1
 70
     0
  9
$DIMSE2
 70
     0
  9
$DIMTAD
 70
     1
  9
$DIMZIN
 70
     8
  9
$DIMBLK
  1
OPEN
  9
$DIMASO
 70
     1
  9
$DIMSHO
 70
     1
  9
$DIMPOST
  1

  9
$DIMAPOST
  1

  9
$DIMALT
 70
     0
  9
$DIMALTD
 70
     3
  9
$DIMALTF
 40
0.0393700787
  9
$DIMLFAC
 40
1.0
  9
$DIMTOFL
 70
     1
  9
$DIMTVP
 40
0.0
  9
$DIMTIX
 70
     0
  9
$DIMSOXD
 70
     0
  9
$DIMSAH
 70
     0
  9
$DIMBLK1
  1

  9
$DIMBLK2
  1

  9
$DIMSTYLE
  2
ISO-2
  9
$DIMCLRD
 70
     0
  9
$DIMCLRE
 70
     0
  9
$DIMCLRT
 70
     0
  9
$DIMTFAC
 40
1.0
  9
$DIMGAP
 40
0.625
  9
$DIMJUST
 70
     0
  9
$DIMSD1
 70
     0
  9
$DIMSD2
 70
     0
  9
$DIMTOLJ
 70
     0
  9
$DIMTZIN
 70
     8
  9
$DIMALTZ
 70
     0
  9
$DIMALTTZ
 70
     0
  9
$DIMUPT
 70
     0
  9
$DIMDEC
 70
     1
  9
$DIMTDEC
 70
     2
  9
$DIMALTU
 70
     2
  9
$DIMALTTD
 70
     3
  9
$DIMTXSTY
  7
STANDARD
  9
$DIMAUNIT
 70
     0
  9
$DIMADEC
 70
     0
  9
$DIMALTRND
 40
0.0
  9
$DIMAZIN
 70
     0
  9
$DIMDSEP
 70
    46
  9
$DIMATFIT
 70
     3
  9
$DIMFRAC
 70
     0
  9
$DIMLDRBLK
  1
OPEN
  9
$DIMLUNIT
 70
     2
  9
$DIMLWD
 70
     9
  9
$DIMLWE
 70
    -2
  9
$DIMTMOVE
 70
     2
  9
$DIMFXL
 40
1.0
  9
$DIMFXLON
 70
     0
  9
$DIMJOGANG
 40
0.7853981633974483
  9
$DIMTFILL
 70
     0
  9
$DIMTFILLCLR
 70
     0
  9
$DIMARCSYM
 70
     0
  9
$DIMLTYPE
  6

  9
$DIMLTEX1
  6

  9
$DIMLTEX2
  6

  9
$DIMTXTDIRECTION
 70
     0
  9
$LUNITS
 70
     2
  9
$LUPREC
 70
     4
  9
$SKETCHINC
 40
0.1
  9
$FILLETRAD
 40
0.0
  9
$AUNITS
 70
     0
  9
$AUPREC
 70
     0
  9
$MENU
  1
acad
  9
$ELEVATION
 40
0.0
  9
$PELEVATION
 40
0.0
  9
$THICKNESS
 40
0.0
  9
$LIMCHECK
 70
     0
  9
$CHAMFERA
 40
0.0
  9
$CHAMFERB
 40
0.0
  9
$CHAMFERC
 40
0.0
  9
$CHAMFERD
 40
0.0
  9
$SKPOLY
 70
     0
  9
$TDCREATE
 40
2447893.375
  9
$TDUCREATE
 40
0.0
  9
$TDUPDATE
 40
2458914.567104225
  9
$TDUUPDATE
 40
2458914.192104225
  9
$TDINDWG
 40
0.2176303125
  9
$TDUSRTIMER
 40
0.0001199306
  9
$USRTIMER
 70
     1
  9
$ANGBASE
 50
0.0
  9
$ANGDIR
 70
     0
  9
$PDMODE
 70
     0
  9
$PDSIZE
 40
0.0
  9
$PLINEWID
 40
0.0
  9
$SPLFRAME
 70
     0
  9
$SPLINETYPE
 70
     6
  9
$SPLINESEGS
 70
     8
  9
$HANDSEED
  5
4945
  9
$SURFTAB1
 70
     6
  9
$SURFTAB2
 70
     6
  9
$SURFTYPE
 70
     6
  9
$SURFU
 70
     6
  9
$SURFV
 70
     6
  9
$UCSBASE
  2

  9
$UCSNAME
  2

  9
$UCSORG
 10
0.0
 20
0.0
 30
0.0
  9
$UCSXDIR
 10
1.0
 20
0.0
 30
0.0
  9
$UCSYDIR
 10
0.0
 20
1.0
 30
0.0
  9
$UCSORTHOREF
  2

  9
$UCSORTHOVIEW
 70
     0
  9
$UCSORGTOP
 10
0.0
 20
0.0
 30
0.0
  9
$UCSORGBOTTOM
 10
0.0
 20
0.0
 30
0.0
  9
$UCSORGLEFT
 10
0.0
 20
0.0
 30
0.0
  9
$UCSORGRIGHT
 10
0.0
 20
0.0
 30
0.0
  9
$UCSORGFRONT
 10
0.0
 20
0.0
 30
0.0
  9
$UCSORGBACK
 10
0.0
 20
0.0
 30
0.0
  9
$PUCSBASE
  2

  9
$PUCSNAME
  2

  9
$PUCSORG
 10
0.0
 20
0.0
 30
0.0
  9
$PUCSXDIR
 10
1.0
 20
0.0
 30
0.0
  9
$PUCSYDIR
 10
0.0
 20
1.0
 30
0.0
  9
$PUCSORTHOREF
  2

  9
$PUCSORTHOVIEW
 70
     0
  9
$PUCSORGTOP
 10
0.0
 20
0.0
 30
0.0
  9
$PUCSORGBOTTOM
 10
0.0
 20
0.0
 30
0.0
  9
$PUCSORGLEFT
 10
0.0
 20
0.0
 30
0.0
  9
$PUCSORGRIGHT
 10
0.0
 20
0.0
 30
0.0
  9
$PUCSORGFRONT
 10
0.0
 20
0.0
 30
0.0
  9
$PUCSORGBACK
 10
0.0
 20
0.0
 30
0.0
  9
$USERI1
 70
     0
  9
$USERI2
 70
     0
  9
$USERI3
 70
     0
  9
$USERI4
 70
     0
  9
$USERI5
 70
     0
  9
$USERR1
 40
0.0
  9
$USERR2
 40
0.0
  9
$USERR3
 40
0.0
  9
$USERR4
 40
0.0
  9
$USERR5
 40
0.0
  9
$WORLDVIEW
 70
     1
  9
$SHADEDGE
 70
     3
  9
$SHADEDIF
 70
    70
  9
$TILEMODE
 70
     1
  9
$MAXACTVP
 70
    16
  9
$PINSBASE
 10
0.0
 20
0.0
 30
0.0
  9
$PLIMCHECK
 70
     0
  9
$PEXTMIN
 10
40.5
 20
25.69999999999999
 30
0.0
  9
$PEXTMAX
 10
364.5
 20
231.3
 30
0.0
  9
$PLIMMIN
 10
34.5
 20
9.699999999999989
  9
$PLIMMAX
 10
370.5
 20
247.3
  9
$UNITMODE
 70
     0
  9
$VISRETAIN
 70
     0
  9
$PLINEGEN
 70
     1
  9
$PSLTSCALE
 70
     0
  9
$TREEDEPTH
 70
  3020
  9
$CMLSTYLE
  2
STANDARD
  9
$CMLJUST
 70
     0
  9
$CMLSCALE
 40
1.0
  9
$PROXYGRAPHICS
 70
     0
  9
$MEASUREMENT
 70
     1
  9
$CELWEIGHT
370
    -1
  9
$ENDCAPS
280
     0
  9
$JOINSTYLE
280
     0
  9
$LWDISPLAY
290
     0
  9
$INSUNITS
 70
     0
  9
$HYPERLINKBASE
  1

  9
$STYLESHEET
  1

  9
$XEDIT
290
     1
  9
$CEPSNTYPE
380
     0
  9
$PSTYLEMODE
290
     1
  9
$FINGERPRINTGUID
  2
{4F654013-6306-466B-A47A-ED658B346563}
  9
$VERSIONGUID
  2
{FAEB1C32-E019-11D5-929B-00C0DF256EC4}
  9
$EXTNAMES
290
     1
  9
$PSVPSCALE
 40
0.0
  9
$OLESTARTUP
290
     0
  9
$SORTENTS
280
   127
  9
$INDEXCTL
280
     0
  9
$HIDETEXT
280
     1
  9
$XCLIPFRAME
280
     2
  9
$HALOGAP
280
     0
  9
$OBSCOLOR
 70
   257
  9
$OBSLTYPE
280
     0
  9
$INTERSECTIONDISPLAY
280
     0
  9
$INTERSECTIONCOLOR
 70
   257
  9
$DIMASSOC
280
     2
  9
$PROJECTNAME
  1

  9
$CAMERADISPLAY
290
     0
  9
$LENSLENGTH
 40
50.0
  9
$CAMERAHEIGHT
 40
0.0
  9
$STEPSPERSEC
 40
2.0
  9
$STEPSIZE
 40
6.0
  9
$3DDWFPREC
 40
2.0
  9
$PSOLWIDTH
 40
0.25
  9
$PSOLHEIGHT
 40
4.0
  9
$LOFTANG1
 40
1.570796326794897
  9
$LOFTANG2
 40
1.570796326794897
  9
$LOFTMAG1
 40
0.0
  9
$LOFTMAG2
 40
0.0
  9
$LOFTPARAM
 70
     7
  9
$LOFTNORMALS
280
     1
  9
$LATITUDE
 40
37.795
  9
$LONGITUDE
 40
-122.394
  9
$NORTHDIRECTION
 40
0.0
  9
$TIMEZONE
 70
 -8000
  9
$LIGHTGLYPHDISPLAY
280
     1
  9
$TILEMODELIGHTSYNCH
280
     1
  9
$SOLIDHIST
280
     0
  9
$SHOWHIST
280
     1
  9
$DWFFRAME
280
     2
  9
$DGNFRAME
280
     2
  9
$REALWORLDSCALE
290
     1
  9
$INTERFERECOLOR
 62
   256
  9
$CSHADOW
280
     0
  9
$SHADOWPLANELOCATION
 40
0.0
  0
ENDSEC
  0
SECTION
  2
CLASSES
  0
CLASS
  1
LWPOLYLINE
  2
AcDbPolyline
  3
ObjectDBX Classes
 90
        0
 91
        1
280
     0
281
     1
  0
CLASS
  1
IMAGE
  2
AcDbRasterImage
  3
ISM
 90
      127
 91
        4
280
     0
281
     1
  0
CLASS
  1
OLE2FRAME
  2
AcDbOle2Frame
  3
ObjectDBX Classes
 90
        0
 91
        1
280
     0
281
     1
  0
CLASS
  1
HATCH
  2
AcDbHatch
  3
ObjectDBX Classes
 90
        0
 91
        1
280
     0
281
     1
  0
CLASS
  1
DICTIONARYVAR
  2
AcDbDictionaryVar
  3
ObjectDBX Classes
 90
        0
 91
        3
280
     0
281
     0
  0
CLASS
  1
RASTERVARIABLES
  2
AcDbRasterVariables
  3
ISM
 90
        0
 91
        3
280
     0
281
     0
  0
CLASS
  1
IMAGEDEF
  2
AcDbRasterImageDef
  3
ISM
 90
        0
 91
        3
280
     0
281
     0
  0
CLASS
  1
IMAGEDEF_REACTOR
  2
AcDbRasterImageDefReactor
  3
ISM
 90
        1
 91
        3
280
     0
281
     0
  0
CLASS
  1
IDBUFFER
  2
AcDbIdBuffer
  3
ObjectDBX Classes
 90
        0
 91
        3
280
     0
281
     0
  0
CLASS
  1
SPATIAL_FILTER
  2
AcDbSpatialFilter
  3
ObjectDBX Classes
 90
        0
 91
        3
280
     0
281
     0
  0
CLASS
  1
XRECORD
  2
AcDbXrecord
  3
ObjectDBX Classes
 90
        0
 91
        1
280
     0
281
     0
  0
CLASS
  1
SORTENTSTABLE
  2
AcDbSortentsTable
  3
ObjectDBX Classes
 90
        0
 91
        3
280
     0
281
     0
  0
CLASS
  1
LAYER_INDEX
  2
AcDbLayerIndex
  3
ObjectDBX Classes
 90
        0
 91
        3
280
     0
281
     0
  0
CLASS
  1
SPATIAL_INDEX
  2
AcDbSpatialIndex
  3
AutoCAD 2000
 90
        0
 91
        3
280
     0
281
     0
  0
CLASS
  1
OBJECT_PTR
  2
CAseDLPNTableRecord
  3
ASE-LPNTableRecord
 90
        1
 91
        3
280
     0
281
     0
  0
CLASS
  1
LAYOUT
  2
AcDbLayout
  3
ObjectDBX Classes
 90
        0
 91
        1
280
     0
281
     0
  0
CLASS
  1
PLOTSETTINGS
  2
AcDbPlotSettings
  3
ObjectDBX Classes
 90
        0
 91
        3
280
     0
281
     0
  0
CLASS
  1
ACDBDICTIONARYWDFLT
  2
AcDbDictionaryWithDefault
  3
ObjectDBX Classes
 90
        0
 91
        3
280
     0
281
     0
  0
CLASS
  1
ACDBPLACEHOLDER
  2
AcDbPlaceHolder
  3
ObjectDBX Classes
 90
        0
 91
        1
280
     0
281
     0
  0
CLASS
  1
VBA_PROJECT
  2
AcDbVbaProject
  3
ObjectDBX Classes
 90
        0
 91
        1
280
     0
281
     0
  0
CLASS
  1
WIPEOUT
  2
AcDbWipeout
  3
WipeOut|AutoCAD Express Tool|expresstools@autodesk.com
 90
      127
 91
        3
280
     0
281
     1
  0
CLASS
  1
WIPEOUTVARIABLES
  2
AcDbWipeoutVariables
  3
WipeOut|AutoCAD Express Tool|expresstools@autodesk.com
 90
        0
 91
        3
280
     0
281
     0
  0
CLASS
  1
RTEXT
  2
RText
  3
RText|AutoCAD Express Tool|expresstools@autodesk.com
 90
        0
 91
        3
280
     0
281
     1
  0
CLASS
  1
ARCALIGNEDTEXT
  2
AcDbArcAlignedText
  3
ATEXT|AutoCAD Express Tool|expresstools@autodesk.com
 90
        0
 91
        3
280
     0
281
     1
  0
CLASS
  1
SCALE
  2
AcDbScale
  3
ObjectDBX Classes
 90
     1153
 91
        3
280
     0
281
     0
  0
CLASS
  1
VISUALSTYLE
  2
AcDbVisualStyle
  3
ObjectDBX Classes
 90
     4095
 91
        3
280
     0
281
     0
  0
CLASS
  1
MATERIAL
  2
AcDbMaterial
  3
ObjectDBX Classes
 90
     1153
 91
        3
280
     0
281
     0
  0
CLASS
  1
TABLESTYLE
  2
AcDbTableStyle
  3
ObjectDBX Classes
 90
     4095
 91
        3
280
     0
281
     0
  0
CLASS
  1
MLEADERSTYLE
  2
AcDbMLeaderStyle
  3
ACDB_MLEADERSTYLE_CLASS
 90
     4095
 91
        3
280
     0
281
     0
  0
CLASS
  1
SUN
  2
AcDbSun
  3
SCENEOE
 90
     1153
 91
        3
280
     0
281
     0
  0
CLASS
  1
CELLSTYLEMAP
  2
AcDbCellStyleMap
  3
ObjectDBX Classes
 90
     1152
 91
        3
280
     0
281
     0
  0
CLASS
  1
DIMASSOC
  2
AcDbDimAssoc
  3
"AcDbDimAssoc|Product Desc:     AcDim ARX App For Dimension|Company:          Autodesk, Inc.|WEB Address:      www.autodesk.com"
 90
        0
 91
        3
280
     0
281
     0
  0
ENDSEC
  0
SECTION
  2
TABLES
  0
TABLE
  2
VPORT
  5
7
330
0
100
AcDbSymbolTable
 70
     1
  0
VPORT
  5
15
330
7
100
AcDbSymbolTableRecord
100
AcDbViewportTableRecord
  2
*ACTIVE
 70
     0
 10
0.0
 20
0.0
 11
1.0
 21
1.0
 12
573.9390077476675
 22
170.2989630518129
 13
0.0
 23
0.0
 14
1.0
 24
1.0
 15
0.0
 25
0.0
 16
0.0
 26
0.0
 36
1.0
 17
0.0
 27
0.0
 37
0.0
 40
302.9399999999996
 41
2.410876132930514
 42
50.0
 43
0.0
 44
0.0
 50
0.0
 51
0.0
 71
    16
 72
   100
 73
     1
 74
     1
 75
     0
 76
     0
 77
     0
 78
     0
281
     0
 65
     1
110
0.0
120
0.0
130
0.0
111
1.0
121
0.0
131
0.0
112
0.0
122
1.0
132
0.0
 79
     0
146
0.0
348
D27
 60
     3
 61
     5
292
     1
282
     1
141
0.0
142
0.0
 63
   256
361
D6B
  0
ENDTAB
  0
TABLE
  2
LTYPE
  5
4
330
0
100
AcDbSymbolTable
 70
     5
  0
LTYPE
  5
11
330
4
100
AcDbSymbolTableRecord
100
AcDbLinetypeTableRecord
  2
BYBLOCK
 70
     0
  3

 72
    65
 73
     0
 40
0.0
  0
LTYPE
  5
12
330
4
100
AcDbSymbolTableRecord
100
AcDbLinetypeTableRecord
  2
BYLAYER
 70
     0
  3

 72
    65
 73
     0
 40
0.0
  0
LTYPE
  5
13
330
4
100
AcDbSymbolTableRecord
100
AcDbLinetypeTableRecord
  2
CONTINUOUS
 70
     0
  3
Solid line
 72
    65
 73
     0
 40
0.0
  0
LTYPE
  5
624
330
4
100
AcDbSymbolTableRecord
100
AcDbLinetypeTableRecord
  2
CENTER
 70
     0
  3
 Center _____  _  _____  _  _____  _  _____  _ 
 72
    65
 73
     4
 40
50.8
 49
31.75
 74
     0
 49
-6.35
 74
     0
 49
6.35
 74
     0
 49
-6.35
 74
     0
  0
LTYPE
  5
1568
330
4
100
AcDbSymbolTableRecord
100
AcDbLinetypeTableRecord
  2
SLD-実線
 70
     0
  3
SolidWorks Line Style
 72
    65
 73
     0
 40
0.0
  0
LTYPE
  5
156A
330
4
100
AcDbSymbolTableRecord
100
AcDbLinetypeTableRecord
  2
SLD-破線
 70
     0
  3
SolidWorks Line Style
 72
    65
 73
     2
 40
1.905
 49
1.27
 74
     0
 49
-0.635
 74
     0
  0
LTYPE
  5
156B
330
4
100
AcDbSymbolTableRecord
100
AcDbLinetypeTableRecord
  2
SLD-1点鎖線(中心線)
 70
     0
  3
SolidWorks Line Style
 72
    65
 73
     4
 40
34.29
 49
30.48
 74
     0
 49
-1.27
 74
     0
 49
1.27
 74
     0
 49
-1.27
 74
     0
  0
ENDTAB
  0
TABLE
  2
LAYER
  5
2
102
{ACAD_XDICTIONARY
360
29A
102
}
330
0
100
AcDbSymbolTable
 70
    10
  0
LAYER
  5
14
330
2
100
AcDbSymbolTableRecord
100
AcDbLayerTableRecord
  2
0
 70
     0
 62
     7
  6
CONTINUOUS
370
    -3
390
D3D
347
D66
348
0
  0
LAYER
  5
28
330
2
100
AcDbSymbolTableRecord
100
AcDbLayerTableRecord
  2
レイヤー_1
 70
     0
 62
   160
  6
CONTINUOUS
370
    -3
390
D3D
347
D66
348
0
  0
LAYER
  5
1D5
330
2
100
AcDbSymbolTableRecord
100
AcDbLayerTableRecord
  2
999-OFF
 70
     0
 62
     7
  6
CONTINUOUS
370
    -3
390
D3D
347
D66
348
0
1001
ACAECLAYERSTANDARD
1000

1000

  0
LAYER
  5
1D8
330
2
100
AcDbSymbolTableRecord
100
AcDbLayerTableRecord
  2
998-図枠
 70
     0
 62
     7
  6
CONTINUOUS
370
    -3
390
D3D
347
D66
348
0
1001
ACAECLAYERSTANDARD
1000

1000

  0
LAYER
  5
1D9
330
2
100
AcDbSymbolTableRecord
100
AcDbLayerTableRecord
  2
997-図枠_文字
 70
     0
 62
     7
  6
CONTINUOUS
370
    -3
390
D3D
347
D66
348
0
1001
ACAECLAYERSTANDARD
1000

1000

  0
LAYER
  5
464
330
2
100
AcDbSymbolTableRecord
100
AcDbLayerTableRecord
  2
DEFPOINTS
 70
     0
 62
     7
  6
CONTINUOUS
290
     0
370
    -3
390
D3D
347
D66
348
0
  0
LAYER
  5
C7D
330
2
100
AcDbSymbolTableRecord
100
AcDbLayerTableRecord
  2
1
 70
     0
 62
     7
  6
CONTINUOUS
370
    -3
390
D3D
347
D66
348
0
  0
LAYER
  5
C7F
330
2
100
AcDbSymbolTableRecord
100
AcDbLayerTableRecord
  2
THO-49_AD本体_150806
 70
     0
 62
     7
  6
CONTINUOUS
370
    -3
390
D3D
347
D66
348
0
  0
LAYER
  5
11B6
330
2
100
AcDbSymbolTableRecord
100
AcDbLayerTableRecord
  2
図枠
 70
     0
 62
     7
  6
CONTINUOUS
370
    -3
390
D3D
347
D66
348
0
1001
ACAECLAYERSTANDARD
1000

1000

  0
LAYER
  5
1569
330
2
100
AcDbSymbolTableRecord
100
AcDbLayerTableRecord
  2
FORMAT
 70
     0
 62
     7
  6
SLD-実線
370
    -3
390
D3D
347
D66
348
0
  0
ENDTAB
  0
TABLE
  2
STYLE
  5
3
330
0
100
AcDbSymbolTable
 70
    10
  0
STYLE
  5
17
330
3
100
AcDbSymbolTableRecord
100
AcDbTextStyleTableRecord
  2
STANDARD
 70
     0
 40
0.0
 41
1.0
 50
0.0
 71
     0
 42
2.5
  3
msgothic.ttc
  4

1001
ACAD
1000
MS PGothic
1071
        0
  0
STYLE
  5
24
330
3
100
AcDbSymbolTableRecord
100
AcDbTextStyleTableRecord
  2
STD
 70
     0
 40
0.0
 41
1.0
 50
0.0
 71
     0
 42
0.0
  3
txt
  4

  0
STYLE
  5
25
330
3
100
AcDbSymbolTableRecord
100
AcDbTextStyleTableRecord
  2
TATESTD
 70
     4
 40
0.0
 41
1.0
 50
0.0
 71
     0
 42
0.0
  3
txt
  4

  0
STYLE
  5
26
330
3
100
AcDbSymbolTableRecord
100
AcDbTextStyleTableRecord
  2
KANJISTD
 70
     0
 40
0.0
 41
1.0
 50
0.0
 71
     0
 42
0.0
  3
txt
  4
extfont
  0
STYLE
  5
27
330
3
100
AcDbSymbolTableRecord
100
AcDbTextStyleTableRecord
  2
KANJITATE
 70
     4
 40
0.0
 41
1.0
 50
0.0
 71
     0
 42
0.0
  3
txt
  4
extfont
  0
STYLE
  5
1DC
330
3
100
AcDbSymbolTableRecord
100
AcDbTextStyleTableRecord
  2
SLDTEXTSTYLE0
 70
     0
 40
0.0
 41
0.75
 50
0.0
 71
     0
 42
0.0
  3
TXT
  4
bigfont
  0
STYLE
  5
C82
330
3
100
AcDbSymbolTableRecord
100
AcDbTextStyleTableRecord
  2
ＭＳ_Ｐゴシック
 70
     0
 40
0.0
 41
1.0
 50
0.0
 71
     0
 42
2.5
  3
msgothic.ttc
  4
ＭＳ Ｐゴシック
1001
ACAD
1000
ＭＳ Ｐゴシック
1071
        0
  0
STYLE
  5
1580
330
3
100
AcDbSymbolTableRecord
100
AcDbTextStyleTableRecord
  2
SLDTEXTSTYLE1
 70
     0
 40
0.0
 41
1.0
 50
0.0
 71
     0
 42
2.5
  3
MSGOTHIC.TTC
  4
bigfont
1001
ACAD
1000
ＭＳ Ｐゴシック
1071
      306
  0
STYLE
  5
1581
330
3
100
AcDbSymbolTableRecord
100
AcDbTextStyleTableRecord
  2
SLDTEXTSTYLE2
 70
     0
 40
0.0
 41
0.913
 50
0.0
 71
     0
 42
2.5
  3
GOTHIC.TTF
  4

1001
ACAD
1000
Century Gothic
1071
      290
  0
STYLE
  5
1582
330
3
100
AcDbSymbolTableRecord
100
AcDbTextStyleTableRecord
  2
SLDTEXTSTYLE3
 70
     0
 40
0.0
 41
0.948
 50
0.0
 71
     0
 42
2.5
  3
ARIAL.TTF
  4

1001
ACAD
1000
Arial
1071
      290
  0
ENDTAB
  0
TABLE
  2
VIEW
  5
5
330
0
100
AcDbSymbolTable
 70
     0
  0
ENDTAB
  0
TABLE
  2
UCS
  5
6
330
0
100
AcDbSymbolTable
 70
     0
  0
ENDTAB
  0
TABLE
  2
APPID
  5
8
330
0
100
AcDbSymbolTable
 70
     4
  0
APPID
  5
16
330
8
100
AcDbSymbolTableRecord
100
AcDbRegAppTableRecord
  2
ACAD
 70
     0
  0
APPID
  5
1D7
330
8
100
AcDbSymbolTableRecord
100
AcDbRegAppTableRecord
  2
ACAECLAYERSTANDARD
 70
     0
  0
APPID
  5
485
330
8
100
AcDbSymbolTableRecord
100
AcDbRegAppTableRecord
  2
ACAD_DSTYLE_DIMRADIAL_EXTE
 70
     0
  0
APPID
  5
DD3
330
8
100
AcDbSymbolTableRecord
100
AcDbRegAppTableRecord
  2
ACAD_DSTYLE_DIMRADIAL_EXTENSION
 70
     0
  0
ENDTAB
  0
TABLE
  2
DIMSTYLE
  5
9
330
0
100
AcDbSymbolTable
 70
    12
100
AcDbDimStyleTable
  0
DIMSTYLE
105
18
330
9
100
AcDbSymbolTableRecord
100
AcDbDimStyleTableRecord
  2
STANDARD
 70
     0
178
     0
340
17
  0
DIMSTYLE
105
1DA
330
9
100
AcDbSymbolTableRecord
100
AcDbDimStyleTableRecord
  2
ISO-25
 70
     0
 41
2.5
 42
0.625
 43
3.75
 44
1.25
 73
     0
 74
     0
 77
     1
 78
     8
140
2.5
141
2.5
143
0.0393700787
147
0.625
171
     3
172
     1
178
     0
271
     2
272
     2
274
     3
283
     0
284
     8
340
17
  0
DIMSTYLE
105
457
330
9
100
AcDbSymbolTableRecord
100
AcDbDimStyleTableRecord
  2
ISO-2
 70
     0
 41
2.5
 42
0.625
 43
3.75
 44
1.25
 73
     0
 74
     0
 77
     1
 78
     8
140
2.5
141
2.5
143
0.0393700787
147
0.625
171
     3
172
     1
178
     0
271
     1
272
     2
274
     3
283
     0
284
     8
340
17
341
459
342
459
  0
DIMSTYLE
105
11E8
330
9
100
AcDbSymbolTableRecord
100
AcDbDimStyleTableRecord
  2
JIS-1
 70
     0
 41
2.5
 42
0.625
 43
3.75
 44
1.25
 73
     0
 74
     0
 77
     1
 78
     8
140
2.5
141
2.5
143
0.03937007874016
147
0.625
171
     3
172
     1
178
     0
271
     2
272
     2
274
     3
283
     0
284
     8
340
17
341
459
342
459
  0
DIMSTYLE
105
156E
102
{ACAD_REACTORS
330
4629
330
463D
102
}
330
9
100
AcDbSymbolTableRecord
100
AcDbDimStyleTableRecord
  2
SLDDIMSTYLE0
 70
     0
 41
3.302
 44
0.0
 73
     0
 74
     0
 77
     3
 78
    12
 79
     3
140
3.5
147
0.875
173
     1
178
     0
179
     2
272
     2
276
     2
284
    12
340
1DC
341
1570
343
1570
344
1570
  0
DIMSTYLE
105
1576
330
9
100
AcDbSymbolTableRecord
100
AcDbDimStyleTableRecord
  2
SLDDIMSTYLE1
 70
     0
 41
3.302
 44
0.0
 45
0.000000001
 73
     0
 74
     0
 77
     3
 78
    12
 79
     3
140
3.5
147
0.875
172
     1
173
     1
178
     0
271
     2
272
     2
276
     2
284
    12
289
     0
340
1DC
341
1577
343
1577
344
1577
  0
DIMSTYLE
105
157A
330
9
100
AcDbSymbolTableRecord
100
AcDbDimStyleTableRecord
  2
SLDDIMSTYLE2
 70
     0
 41
3.302
 44
0.0
 45
0.000000001
 73
     0
 74
     0
 77
     3
 78
    12
 79
     3
140
3.5
144
2.0
147
0.875
173
     1
178
     0
271
     0
272
     0
276
     2
284
    12
340
1DC
341
1570
343
1570
344
1570
  0
DIMSTYLE
105
157B
102
{ACAD_REACTORS
330
463C
102
}
330
9
100
AcDbSymbolTableRecord
100
AcDbDimStyleTableRecord
  2
SLDDIMSTYLE3
 70
     0
 41
3.302
 44
0.0
 45
0.000000001
 73
     0
 74
     0
 77
     3
 78
    12
 79
     3
140
3.5
144
2.0
147
0.875
173
     1
178
     0
271
     2
272
     2
276
     2
284
    12
340
1DC
341
1570
343
1570
344
1570
  0
DIMSTYLE
105
157C
330
9
100
AcDbSymbolTableRecord
100
AcDbDimStyleTableRecord
  2
SLDDIMSTYLE4
 70
     0
 41
3.302
 44
0.0
 45
0.000000001
 73
     0
 74
     0
 77
     3
 78
    12
 79
     3
140
3.5
144
2.0
147
0.875
172
     1
173
     1
178
     0
271
     2
272
     2
276
     2
284
    12
289
     0
340
1DC
341
1570
343
1570
344
1570
  0
DIMSTYLE
105
157D
330
9
100
AcDbSymbolTableRecord
100
AcDbDimStyleTableRecord
  2
SLDDIMSTYLE5
 70
     0
 41
3.302
 44
0.0
 73
     0
 74
     0
 77
     3
 78
    12
 79
     3
140
3.5
144
2.0
147
0.875
173
     1
178
     0
179
     2
272
     2
276
     2
284
    12
340
1DC
341
1570
343
1570
344
1570
  0
DIMSTYLE
105
157E
330
9
100
AcDbSymbolTableRecord
100
AcDbDimStyleTableRecord
  2
SLDDIMSTYLE6
 70
     0
 41
3.302
 44
0.0
 45
0.000000001
 73
     0
 74
     0
 77
     3
 78
    12
 79
     3
140
3.5
141
0.0
144
2.0
147
0.875
172
     1
173
     1
178
     0
271
     0
272
     0
276
     2
284
    12
340
1DC
341
1570
343
1570
344
1570
  0
DIMSTYLE
105
157F
330
9
100
AcDbSymbolTableRecord
100
AcDbDimStyleTableRecord
  2
SLDDIMSTYLE7
 70
     0
 41
3.302
 44
0.0
 45
0.000000001
146
3.302
147
0.0
173
     1
178
     0
271
     0
272
     0
276
     2
340
17
341
1570
343
1570
344
1570
  0
ENDTAB
  0
TABLE
  2
BLOCK_RECORD
  5
1
330
0
100
AcDbSymbolTable
 70
    25
  0
BLOCK_RECORD
  5
A
330
1
100
AcDbSymbolTableRecord
100
AcDbBlockTableRecord
  2
*MODEL_SPACE
340
D61
 70
     0
280
     1
281
     0
  0
BLOCK_RECORD
  5
B
330
1
100
AcDbSymbolTableRecord
100
AcDbBlockTableRecord
  2
*PAPER_SPACE
340
D62
 70
     0
280
     1
281
     0
  0
BLOCK_RECORD
  5
11D
330
1
100
AcDbSymbolTableRecord
100
AcDbBlockTableRecord
  2
AI9-BLK1
340
0
 70
     0
280
     1
281
     0
  0
BLOCK_RECORD
  5
459
330
1
100
AcDbSymbolTableRecord
100
AcDbBlockTableRecord
  2
_OPEN
340
0
 70
     0
280
     1
281
     0
  0
BLOCK_RECORD
  5
E9B
330
1
100
AcDbSymbolTableRecord
100
AcDbBlockTableRecord
  2
_DOT
340
0
 70
     0
280
     1
281
     0
  0
BLOCK_RECORD
  5
1570
330
1
100
AcDbSymbolTableRecord
100
AcDbBlockTableRecord
  2
_OPEN30
340
0
102
{BLKREFS
331
175B
331
175C
331
1845
331
1846
331
1851
331
1852
331
185B
331
185C
331
1868
331
1869
331
1871
331
1872
331
1879
331
187A
331
18CC
331
4647
331
4648
331
464F
331
4650
331
465D
331
465E
102
}
 70
     0
280
     1
281
     0
  0
BLOCK_RECORD
  5
1577
330
1
100
AcDbSymbolTableRecord
100
AcDbBlockTableRecord
  2
_NONE
340
0
 70
     0
280
     1
281
     0
  0
BLOCK_RECORD
  5
1758
330
1
100
AcDbSymbolTableRecord
100
AcDbBlockTableRecord
  2
_D
340
0
 70
     0
280
     1
281
     0
  0
BLOCK_RECORD
  5
1760
330
1
100
AcDbSymbolTableRecord
100
AcDbBlockTableRecord
  2
_D_1
340
0
 70
     0
280
     1
281
     0
  0
BLOCK_RECORD
  5
1840
330
1
100
AcDbSymbolTableRecord
100
AcDbBlockTableRecord
  2
_D_2
340
0
 70
     0
280
     1
281
     0
  0
BLOCK_RECORD
  5
184C
330
1
100
AcDbSymbolTableRecord
100
AcDbBlockTableRecord
  2
_D_3
340
0
 70
     0
280
     1
281
     0
  0
BLOCK_RECORD
  5
1856
330
1
100
AcDbSymbolTableRecord
100
AcDbBlockTableRecord
  2
_D_4
340
0
 70
     0
280
     1
281
     0
  0
BLOCK_RECORD
  5
1860
330
1
100
AcDbSymbolTableRecord
100
AcDbBlockTableRecord
  2
_D_5
340
0
 70
     0
280
     1
281
     0
  0
BLOCK_RECORD
  5
186C
330
1
100
AcDbSymbolTableRecord
100
AcDbBlockTableRecord
  2
_D_6
340
0
 70
     0
280
     1
281
     0
  0
BLOCK_RECORD
  5
1876
330
1
100
AcDbSymbolTableRecord
100
AcDbBlockTableRecord
  2
_D_7
340
0
 70
     0
280
     1
281
     0
  0
BLOCK_RECORD
  5
187E
330
1
100
AcDbSymbolTableRecord
100
AcDbBlockTableRecord
  2
SW_NOTE_0
340
0
 70
     0
280
     1
281
     0
  0
BLOCK_RECORD
  5
1884
330
1
100
AcDbSymbolTableRecord
100
AcDbBlockTableRecord
  2
SW_CENTERMARKSYMBOL_0
340
0
102
{BLKREFS
331
462C
102
}
 70
     0
280
     1
281
     0
  0
BLOCK_RECORD
  5
1890
330
1
100
AcDbSymbolTableRecord
100
AcDbBlockTableRecord
  2
SW_CENTERMARKSYMBOL_1
340
0
 70
     0
280
     1
281
     0
  0
BLOCK_RECORD
  5
18C8
330
1
100
AcDbSymbolTableRecord
100
AcDbBlockTableRecord
  2
_D_8
340
0
 70
     0
280
     1
281
     0
  0
BLOCK_RECORD
  5
18D1
330
1
100
AcDbSymbolTableRecord
100
AcDbBlockTableRecord
  2
SW_NOTE_1
340
0
 70
     0
280
     1
281
     0
  0
BLOCK_RECORD
  5
18D7
330
1
100
AcDbSymbolTableRecord
100
AcDbBlockTableRecord
  2
SW_NOTE_2
340
0
 70
     0
280
     1
281
     0
  0
BLOCK_RECORD
  5
18DE
330
1
100
AcDbSymbolTableRecord
100
AcDbBlockTableRecord
  2
SW_CENTERMARKSYMBOL_2
340
0
 70
     0
280
     1
281
     0
  0
BLOCK_RECORD
  5
193D
330
1
100
AcDbSymbolTableRecord
100
AcDbBlockTableRecord
  2
SW_CENTERMARKSYMBOL_3
340
0
 70
     0
280
     1
281
     0
  0
BLOCK_RECORD
  5
252F
330
1
100
AcDbSymbolTableRecord
100
AcDbBlockTableRecord
  2
SW_NOTE_3
340
0
 70
     0
280
     1
281
     0
  0
BLOCK_RECORD
  5
463E
330
1
100
AcDbSymbolTableRecord
100
AcDbBlockTableRecord
  2
*D157
340
0
 70
     0
280
     1
281
     0
  0
BLOCK_RECORD
  5
4649
330
1
100
AcDbSymbolTableRecord
100
AcDbBlockTableRecord
  2
*D158
340
0
 70
     0
280
     1
281
     0
  0
BLOCK_RECORD
  5
4655
330
1
100
AcDbSymbolTableRecord
100
AcDbBlockTableRecord
  2
*D159
340
0
 70
     0
280
     1
281
     0
  0
ENDTAB
  0
ENDSEC
  0
SECTION
  2
BLOCKS
  0
BLOCK
  5
D
330
A
100
AcDbEntity
  8
0
100
AcDbBlockBegin
  2
*MODEL_SPACE
 70
     0
 10
0.0
 20
0.0
 30
0.0
  3
*MODEL_SPACE
  1

  0
ENDBLK
  5
E
330
A
100
AcDbEntity
  8
0
100
AcDbBlockEnd
  0
BLOCK
  5
F
330
B
100
AcDbEntity
 67
     1
  8
0
100
AcDbBlockBegin
  2
*PAPER_SPACE
 70
     0
 10
0.0
 20
0.0
 30
0.0
  3
*PAPER_SPACE
  1

  0
ENDBLK
  5
10
330
B
100
AcDbEntity
 67
     1
  8
0
100
AcDbBlockEnd
  0
BLOCK
  5
11F
330
11D
100
AcDbEntity
  8
レイヤー_1
 62
     7
100
AcDbBlockBegin
  2
AI9-BLK1
 70
     0
 10
0.0
 20
0.0
 30
0.0
  3
AI9-BLK1
  1

  0
MTEXT
  5
122
330
11D
100
AcDbEntity
  8
レイヤー_1
 62
     7
100
AcDbMText
 10
-4.7625
 20
1.215134
 30
0.0
 40
2.362351
 41
0.0
 46
0.0
 71
     1
 72
     2
  1
\fMSGothic|b0|i0|c128;\H2.3624;\C7;記
  7
STD
 73
     1
 44
1.0
  0
MTEXT
  5
121
330
11D
100
AcDbEntity
  8
レイヤー_1
 62
     7
100
AcDbMText
 10
-1.5875
 20
1.215134
 30
0.0
 40
2.362351
 41
0.0
 46
0.0
 71
     1
 72
     2
  1
\fMSGothic|b0|i0|c128;\H2.3624;\C7;
  7
STD
 73
     1
 44
1.0
  0
MTEXT
  5
120
330
11D
100
AcDbEntity
  8
レイヤー_1
 62
     7
100
AcDbMText
 10
1.5875
 20
1.215134
 30
0.0
 40
2.362351
 41
0.0
 46
0.0
 71
     1
 72
     2
  1
\fMSGothic|b0|i0|c128;\H2.3624;\C7;事
  7
STD
 73
     1
 44
1.0
  0
ENDBLK
  5
123
330
11D
100
AcDbEntity
  8
レイヤー_1
100
AcDbBlockEnd
  0
BLOCK
  5
45A
330
459
100
AcDbEntity
  8
0
100
AcDbBlockBegin
  2
_OPEN
 70
     0
 10
0.0
 20
0.0
 30
0.0
  3
_OPEN
  1

  0
LINE
  5
45B
330
459
100
AcDbEntity
  8
0
  6
ByBlock
 62
     0
100
AcDbLine
 10
-1.0
 20
0.166667
 30
0.0
 11
0.0
 21
0.0
 31
0.0
  0
LINE
  5
45C
330
459
100
AcDbEntity
  8
0
  6
ByBlock
 62
     0
100
AcDbLine
 10
-1.0
 20
-0.166667
 30
0.0
 11
0.0
 21
0.0
 31
0.0
  0
LINE
  5
45D
330
459
100
AcDbEntity
  8
0
  6
ByBlock
 62
     0
100
AcDbLine
 10
0.0
 20
0.0
 30
0.0
 11
-1.0
 21
0.0
 31
0.0
  0
ENDBLK
  5
45E
330
459
100
AcDbEntity
  8
0
100
AcDbBlockEnd
  0
BLOCK
  5
E9C
330
E9B
100
AcDbEntity
  8
0
100
AcDbBlockBegin
  2
_DOT
 70
     0
 10
0.0
 20
0.0
 30
0.0
  3
_DOT
  1

  0
LWPOLYLINE
  5
E9D
330
E9B
100
AcDbEntity
  8
0
  6
ByBlock
 62
     0
100
AcDbPolyline
 90
        2
 70
     1
 43
0.5
 10
-0.25
 20
0.0
 42
1.0
 10
0.25
 20
0.0
 42
1.0
  0
LINE
  5
E9E
330
E9B
100
AcDbEntity
  8
0
  6
ByBlock
 62
     0
100
AcDbLine
 10
-0.5
 20
0.0
 30
0.0
 11
-1.0
 21
0.0
 31
0.0
  0
ENDBLK
  5
E9F
330
E9B
100
AcDbEntity
  8
0
100
AcDbBlockEnd
  0
BLOCK
  5
1571
330
1570
100
AcDbEntity
  8
0
100
AcDbBlockBegin
  2
_OPEN30
 70
     0
 10
0.0
 20
0.0
 30
0.0
  3
_OPEN30
  1

  0
LINE
  5
1572
330
1570
100
AcDbEntity
  8
0
  6
ByBlock
 62
     0
370
    -2
100
AcDbLine
 10
-1.0
 20
0.267949
 30
0.0
 11
0.0
 21
0.0
 31
0.0
  0
LINE
  5
1573
330
1570
100
AcDbEntity
  8
0
  6
ByBlock
 62
     0
370
    -2
100
AcDbLine
 10
0.0
 20
0.0
 30
0.0
 11
-1.0
 21
-0.267949
 31
0.0
  0
LINE
  5
1574
330
1570
100
AcDbEntity
  8
0
  6
ByBlock
 62
     0
370
    -2
100
AcDbLine
 10
0.0
 20
0.0
 30
0.0
 11
-1.0
 21
0.0
 31
0.0
  0
ENDBLK
  5
1575
330
1570
100
AcDbEntity
  8
0
100
AcDbBlockEnd
  0
BLOCK
  5
1578
330
1577
100
AcDbEntity
  8
0
100
AcDbBlockBegin
  2
_NONE
 70
     0
 10
0.0
 20
0.0
 30
0.0
  3
_NONE
  1

  0
ENDBLK
  5
1579
330
1577
100
AcDbEntity
  8
0
100
AcDbBlockEnd
  0
BLOCK
  5
1759
330
1758
100
AcDbEntity
  8
0
100
AcDbBlockBegin
  2
_D
 70
     0
 10
0.0
 20
0.0
 30
0.0
  3
_D
  1

  0
ARC
  5
175A
330
1758
100
AcDbEntity
  8
レイヤー_1
 62
     0
370
    -2
100
AcDbCircle
 10
189.337683623054
 20
228.9076349227842
 30
0.0
 40
44.44239420418958
100
AcDbArc
 50
54.25796607634287
 51
75.7420339236523
  0
INSERT
  5
175B
330
1758
100
AcDbEntity
  8
レイヤー_1
 62
     0
370
    -2
100
AcDbBlockReference
  2
_OPEN30
 10
217.9047039623036
 20
262.9524840418138
 30
0.0
 41
3.302
 42
3.302
 43
3.302
 50
322.1289830381785
  0
INSERT
  5
175C
330
1758
100
AcDbEntity
  8
レイヤー_1
 62
     0
370
    -2
100
AcDbBlockReference
  2
_OPEN30
 10
197.0550243877814
 20
272.6748492974924
 30
0.0
 41
3.302
 42
3.302
 43
3.302
 50
167.8710169618167
  0
MTEXT
  5
175D
330
1758
100
AcDbEntity
  8
レイヤー_1
  6
Continuous
 62
     0
100
AcDbMText
 10
175.5011885077275
 20
191.1977635984218
 30
0.0
 40
3.5
 41
0.0
 46
0.0
 71
     1
 72
     1
  1
\A1;30%%d
  7
SLDTEXTSTYLE0
 11
0.9608305882687745
 21
-0.2771363935809956
 31
0.0
 73
     1
 44
1.0
  0
POINT
  5
194A
330
1758
100
AcDbEntity
  8
DEFPOINTS
 62
     0
100
AcDbPoint
 10
204.5378776585126
 20
270.6698248065175
 30
0.0
  0
POINT
  5
194B
330
1758
100
AcDbEntity
  8
DEFPOINTS
 62
     0
100
AcDbPoint
 10
188.1812127656
 20
222.348962774
 30
0.0
  0
POINT
  5
194C
330
1758
100
AcDbEntity
  8
DEFPOINTS
 62
     0
100
AcDbPoint
 10
185.0568144074
 20
223.8058936556
 30
0.0
  0
POINT
  5
194D
330
1758
100
AcDbEntity
  8
DEFPOINTS
 62
     0
100
AcDbPoint
 10
222.3384957692
 20
268.2364713565
 30
0.0
  0
POINT
  5
194E
330
1758
100
AcDbEntity
  8
DEFPOINTS
 62
     0
100
AcDbPoint
 10
198.2528070703
 20
279.4678124487
 30
0.0
  0
ENDBLK
  5
175E
330
1758
100
AcDbEntity
  8
0
100
AcDbBlockEnd
  0
BLOCK
  5
1761
330
1760
100
AcDbEntity
  8
0
100
AcDbBlockBegin
  2
_D_1
 70
     0
 10
0.0
 20
0.0
 30
0.0
  3
_D_1
  1

  0
LINE
  5
1762
330
1760
100
AcDbEntity
  8
0
  6
SLD-実線
 62
     0
370
    -2
100
AcDbLine
 10
7.835210237699982
 20
0.0
 30
0.0
 11
1.018402748699965
 21
0.0
 31
0.0
  0
LINE
  5
194F
330
1760
100
AcDbEntity
  8
0
  6
SLD-実線
 62
     0
370
    -2
100
AcDbLine
 10
7.835210237699982
 20
0.0
 30
0.0
 11
1.018402748699965
 21
0.0
 31
0.0
  0
LINE
  5
1950
330
1760
100
AcDbEntity
  8
0
  6
SLD-実線
 62
     0
370
    -2
100
AcDbLine
 10
1.018402748699965
 20
0.0
 30
0.0
 11
1.018402748699982
 21
273.003472168
 31
0.0
  0
LINE
  5
1951
330
1760
100
AcDbEntity
  8
0
  6
SLD-実線
 62
     0
370
    -2
100
AcDbLine
 10
1.018402748699965
 20
0.0
 30
0.0
 11
1.018402748699965
 21
0.0
 31
0.0
  0
MTEXT
  5
1952
330
1760
100
AcDbEntity
  8
0
  6
Continuous
 62
     0
370
    18
100
AcDbMText
 10
-3.356597251300018
 20
270.815972168
 30
0.0
 40
3.5
 41
0.0
 46
0.0
 71
     1
 72
     1
  1
\A1;0
  7
SLDTEXTSTYLE0
 11
6.123233995736766E-17
 21
1.0
 31
0.0
 73
     1
 44
1.0
  0
POINT
  5
1953
330
1760
100
AcDbEntity
  8
DEFPOINTS
 62
     0
100
AcDbPoint
 10
7.897710237699982
 20
0.0
 30
0.0
  0
POINT
  5
1954
330
1760
100
AcDbEntity
  8
DEFPOINTS
 62
     0
100
AcDbPoint
 10
7.897710237699982
 20
0.0
 30
0.0
  0
POINT
  5
1955
330
1760
100
AcDbEntity
  8
DEFPOINTS
 62
     0
100
AcDbPoint
 10
1.018402748699982
 20
0.0000000000000004
 30
0.0
  0
ENDBLK
  5
1763
330
1760
100
AcDbEntity
  8
0
100
AcDbBlockEnd
  0
BLOCK
  5
1841
330
1840
100
AcDbEntity
  8
0
100
AcDbBlockBegin
  2
_D_2
 70
     0
 10
0.0
 20
0.0
 30
0.0
  3
_D_2
  1

  0
LINE
  5
1842
330
1840
100
AcDbEntity
  8
レイヤー_1
 62
     0
370
    -2
100
AcDbLine
 10
170.525183623
 20
102.0374693959
 30
0.0
 11
135.9275552266
 21
102.0374693959
 31
0.0
  0
LINE
  5
1843
330
1840
100
AcDbEntity
  8
レイヤー_1
 62
     0
370
    -2
100
AcDbLine
 10
165.223918623
 20
154.5374693959
 30
0.0
 11
135.9275552266
 21
154.5374693959
 31
0.0
  0
LINE
  5
1844
330
1840
100
AcDbEntity
  8
レイヤー_1
 62
     0
370
    -2
100
AcDbLine
 10
135.9275552266
 20
105.3394693959
 30
0.0
 11
135.9275552266
 21
151.2354693959
 31
0.0
  0
INSERT
  5
1845
330
1840
100
AcDbEntity
  8
レイヤー_1
 62
     0
370
    -2
100
AcDbBlockReference
  2
_OPEN30
 10
135.9275552266
 20
102.0374693959
 30
0.0
 41
3.302
 42
3.302
 43
3.302
 50
270.0
  0
INSERT
  5
1846
330
1840
100
AcDbEntity
  8
レイヤー_1
 62
     0
370
    -2
100
AcDbBlockReference
  2
_OPEN30
 10
135.9275552266
 20
154.5374693959
 30
0.0
 41
3.302
 42
3.302
 43
3.302
 50
90.0
  0
MTEXT
  5
1847
330
1840
100
AcDbEntity
  8
レイヤー_1
  6
Continuous
 62
     0
100
AcDbMText
 10
131.5525552266
 20
128.2874693959
 30
0.0
 40
3.5
 41
0.0
 46
0.0
 71
     2
 72
     1
  1
\A1;(105)
  7
SLDTEXTSTYLE0
 11
0.0
 21
1.0
 31
0.0
 73
     1
 44
1.0
  0
POINT
  5
1848
330
1840
100
AcDbEntity
  8
DEFPOINTS
 62
     0
100
AcDbPoint
 10
170.587683623
 20
102.0374693959
 30
0.0
  0
POINT
  5
1849
330
1840
100
AcDbEntity
  8
DEFPOINTS
 62
     0
100
AcDbPoint
 10
165.286418623
 20
154.5374693959
 30
0.0
  0
POINT
  5
1956
330
1840
100
AcDbEntity
  8
DEFPOINTS
 62
     0
100
AcDbPoint
 10
135.9275552266
 20
154.5374693959
 30
0.0
  0
ENDBLK
  5
184A
330
1840
100
AcDbEntity
  8
0
100
AcDbBlockEnd
  0
BLOCK
  5
184D
330
184C
100
AcDbEntity
  8
0
100
AcDbBlockBegin
  2
_D_3
 70
     0
 10
0.0
 20
0.0
 30
0.0
  3
_D_3
  1

  0
LINE
  5
184E
330
184C
100
AcDbEntity
  8
レイヤー_1
 62
     0
370
    -2
100
AcDbLine
 10
165.223918623
 20
154.5374693959
 30
0.0
 11
124.5858004409
 21
154.5374693959
 31
0.0
  0
LINE
  5
184F
330
184C
100
AcDbEntity
  8
レイヤー_1
 62
     0
370
    -2
100
AcDbLine
 10
170.525183623
 20
92.7874693959
 30
0.0
 11
124.5858004409
 21
92.7874693959
 31
0.0
  0
LINE
  5
1850
330
184C
100
AcDbEntity
  8
レイヤー_1
 62
     0
370
    -2
100
AcDbLine
 10
124.5858004409
 20
151.2354693959
 30
0.0
 11
124.5858004409
 21
96.08946939590001
 31
0.0
  0
INSERT
  5
1851
330
184C
100
AcDbEntity
  8
レイヤー_1
 62
     0
370
    -2
100
AcDbBlockReference
  2
_OPEN30
 10
124.5858004409
 20
154.5374693959
 30
0.0
 41
3.302
 42
3.302
 43
3.302
 50
90.0
  0
INSERT
  5
1852
330
184C
100
AcDbEntity
  8
レイヤー_1
 62
     0
370
    -2
100
AcDbBlockReference
  2
_OPEN30
 10
124.5858004409
 20
92.7874693959
 30
0.0
 41
3.302
 42
3.302
 43
3.302
 50
270.0
  0
MTEXT
  5
1853
330
184C
100
AcDbEntity
  8
レイヤー_1
  6
Continuous
 62
     0
100
AcDbMText
 10
120.2108004409
 20
123.6624693959
 30
0.0
 40
3.5
 41
0.0
 46
0.0
 71
     2
 72
     1
  1
\A1;123
  7
SLDTEXTSTYLE0
 11
0.0
 21
1.0
 31
0.0
 73
     1
 44
1.0
  0
POINT
  5
1957
330
184C
100
AcDbEntity
  8
DEFPOINTS
 62
     0
100
AcDbPoint
 10
165.286418623
 20
154.5374693959
 30
0.0
  0
POINT
  5
1958
330
184C
100
AcDbEntity
  8
DEFPOINTS
 62
     0
100
AcDbPoint
 10
170.587683623
 20
92.7874693959
 30
0.0
  0
POINT
  5
1959
330
184C
100
AcDbEntity
  8
DEFPOINTS
 62
     0
100
AcDbPoint
 10
124.5858004409
 20
92.7874693959
 30
0.0
  0
ENDBLK
  5
1854
330
184C
100
AcDbEntity
  8
0
100
AcDbBlockEnd
  0
BLOCK
  5
1857
330
1856
100
AcDbEntity
  8
0
100
AcDbBlockBegin
  2
_D_4
 70
     0
 10
0.0
 20
0.0
 30
0.0
  3
_D_4
  1

  0
LINE
  5
1858
330
1856
100
AcDbEntity
  8
レイヤー_1
 62
     0
370
    -2
100
AcDbLine
 10
189.337683623
 20
91.1204595285
 30
0.0
 11
189.337683623
 21
74.1042284959
 31
0.0
  0
LINE
  5
1859
330
1856
100
AcDbEntity
  8
レイヤー_1
 62
     0
370
    -2
100
AcDbLine
 10
224.4065012936
 20
109.4237043959
 30
0.0
 11
224.4065012936
 21
74.1042284959
 31
0.0
  0
LINE
  5
185A
330
1856
100
AcDbEntity
  8
レイヤー_1
 62
     0
370
    -2
100
AcDbLine
 10
192.639683623
 20
74.1042284959
 30
0.0
 11
221.1045012936
 21
74.1042284959
 31
0.0
  0
INSERT
  5
185B
330
1856
100
AcDbEntity
  8
レイヤー_1
 62
     0
370
    -2
100
AcDbBlockReference
  2
_OPEN30
 10
189.337683623
 20
74.1042284959
 30
0.0
 41
3.302
 42
3.302
 43
3.302
 50
180.0
  0
INSERT
  5
185C
330
1856
100
AcDbEntity
  8
レイヤー_1
 62
     0
370
    -2
100
AcDbBlockReference
  2
_OPEN30
 10
224.4065012936
 20
74.1042284959
 30
0.0
 41
3.302
 42
3.302
 43
3.302
  0
MTEXT
  5
185D
330
1856
100
AcDbEntity
  8
レイヤー_1
  6
Continuous
 62
     0
100
AcDbMText
 10
206.8720924583
 20
78.4792284959
 30
0.0
 40
3.5
 41
0.0
 46
0.0
 71
     2
 72
     1
  1
\A1;70
  7
SLDTEXTSTYLE0
 73
     1
 44
1.0
  0
POINT
  5
195A
330
1856
100
AcDbEntity
  8
DEFPOINTS
 62
     0
100
AcDbPoint
 10
189.337683623
 20
91.1829595285
 30
0.0
  0
POINT
  5
195B
330
1856
100
AcDbEntity
  8
DEFPOINTS
 62
     0
100
AcDbPoint
 10
224.4065012936
 20
109.4862043959
 30
0.0
  0
POINT
  5
195C
330
1856
100
AcDbEntity
  8
DEFPOINTS
 62
     0
100
AcDbPoint
 10
224.4065012936
 20
74.1042284959
 30
0.0
  0
ENDBLK
  5
185E
330
1856
100
AcDbEntity
  8
0
100
AcDbBlockEnd
  0
BLOCK
  5
1861
330
1860
100
AcDbEntity
  8
0
100
AcDbBlockBegin
  2
_D_5
 70
     0
 10
0.0
 20
0.0
 30
0.0
  3
_D_5
  1

  0
LINE
  5
1862
330
1860
100
AcDbEntity
  8
レイヤー_1
 62
     0
370
    -2
100
AcDbLine
 10
170.525183623
 20
92.7874693959
 30
0.0
 11
135.9275552266
 21
92.7874693959
 31
0.0
  0
LINE
  5
1863
330
1860
100
AcDbEntity
  8
レイヤー_1
 62
     0
370
    -2
100
AcDbLine
 10
170.525183623
 20
102.0374693959
 30
0.0
 11
135.9275552266
 21
102.0374693959
 31
0.0
  0
LINE
  5
1864
330
1860
100
AcDbEntity
  8
レイヤー_1
 62
     0
370
    -2
100
AcDbLine
 10
135.9275552266
 20
92.7874693959
 30
0.0
 11
135.9275552266
 21
80.9334693959
 31
0.0
  0
LINE
  5
1865
330
1860
100
AcDbEntity
  8
レイヤー_1
 62
     0
370
    -2
100
AcDbLine
 10
135.9275552266
 20
92.7874693959
 30
0.0
 11
135.9275552266
 21
102.0374693959
 31
0.0
  0
LINE
  5
1866
330
1860
100
AcDbEntity
  8
レイヤー_1
 62
     0
370
    -2
100
AcDbLine
 10
135.9275552266
 20
89.4854693959
 30
0.0
 11
135.9275552266
 21
86.18346939589999
 31
0.0
  0
LINE
  5
1867
330
1860
100
AcDbEntity
  8
レイヤー_1
 62
     0
370
    -2
100
AcDbLine
 10
135.9275552266
 20
105.3394693959
 30
0.0
 11
135.9275552266
 21
108.6414693959
 31
0.0
  0
INSERT
  5
1868
330
1860
100
AcDbEntity
  8
レイヤー_1
 62
     0
370
    -2
100
AcDbBlockReference
  2
_OPEN30
 10
135.9275552266
 20
92.7874693959
 30
0.0
 41
3.302
 42
3.302
 43
3.302
 50
90.0
  0
INSERT
  5
1869
330
1860
100
AcDbEntity
  8
レイヤー_1
 62
     0
370
    -2
100
AcDbBlockReference
  2
_OPEN30
 10
135.9275552266
 20
102.0374693959
 30
0.0
 41
3.302
 42
3.302
 43
3.302
 50
270.0
  0
MTEXT
  5
195D
330
1860
100
AcDbEntity
  8
レイヤー_1
  6
Continuous
 62
     0
100
AcDbMText
 10
131.5525552266
 20
83.5584693959
 30
0.0
 40
3.5
 41
0.0
 46
0.0
 71
     2
 72
     1
  1
\A1;18
  7
SLDTEXTSTYLE0
 11
0.0
 21
1.0
 31
0.0
 73
     1
 44
1.0
  0
POINT
  5
195E
330
1860
100
AcDbEntity
  8
DEFPOINTS
 62
     0
100
AcDbPoint
 10
170.587683623
 20
92.7874693959
 30
0.0
  0
POINT
  5
195F
330
1860
100
AcDbEntity
  8
DEFPOINTS
 62
     0
100
AcDbPoint
 10
170.587683623
 20
102.0374693959
 30
0.0
  0
POINT
  5
1960
330
1860
100
AcDbEntity
  8
DEFPOINTS
 62
     0
100
AcDbPoint
 10
135.9275552266
 20
102.0374693959
 30
0.0
  0
ENDBLK
  5
186A
330
1860
100
AcDbEntity
  8
0
100
AcDbBlockEnd
  0
BLOCK
  5
186D
330
186C
100
AcDbEntity
  8
0
100
AcDbBlockBegin
  2
_D_6
 70
     0
 10
0.0
 20
0.0
 30
0.0
  3
_D_6
  1

  0
LINE
  5
186E
330
186C
100
AcDbEntity
  8
レイヤー_1
 62
     0
370
    -2
100
AcDbLine
 10
208.087683623
 20
92.7249693959
 30
0.0
 11
208.087683623
 21
82.7874568959
 31
0.0
  0
LINE
  5
186F
330
186C
100
AcDbEntity
  8
レイヤー_1
 62
     0
370
    -2
100
AcDbLine
 10
170.587683623
 20
92.7249693959
 30
0.0
 11
170.587683623
 21
82.7874568959
 31
0.0
  0
LINE
  5
1870
330
186C
100
AcDbEntity
  8
レイヤー_1
 62
     0
370
    -2
100
AcDbLine
 10
204.785683623
 20
82.7874568959
 30
0.0
 11
173.889683623
 21
82.7874568959
 31
0.0
  0
INSERT
  5
1871
330
186C
100
AcDbEntity
  8
レイヤー_1
 62
     0
370
    -2
100
AcDbBlockReference
  2
_OPEN30
 10
208.087683623
 20
82.7874568959
 30
0.0
 41
3.302
 42
3.302
 43
3.302
  0
INSERT
  5
1872
330
186C
100
AcDbEntity
  8
レイヤー_1
 62
     0
370
    -2
100
AcDbBlockReference
  2
_OPEN30
 10
170.587683623
 20
82.7874568959
 30
0.0
 41
3.302
 42
3.302
 43
3.302
 50
180.0
  0
MTEXT
  5
1873
330
186C
100
AcDbEntity
  8
レイヤー_1
  6
Continuous
 62
     0
100
AcDbMText
 10
183.7565722308
 20
87.1624568959
 30
0.0
 40
3.5
 41
0.0
 46
0.0
 71
     2
 72
     1
  1
\A1;75
  7
SLDTEXTSTYLE0
 73
     1
 44
1.0
  0
POINT
  5
1961
330
186C
100
AcDbEntity
  8
DEFPOINTS
 62
     0
100
AcDbPoint
 10
208.087683623
 20
92.7874693959
 30
0.0
  0
POINT
  5
1962
330
186C
100
AcDbEntity
  8
DEFPOINTS
 62
     0
100
AcDbPoint
 10
170.587683623
 20
92.7874693959
 30
0.0
  0
POINT
  5
1963
330
186C
100
AcDbEntity
  8
DEFPOINTS
 62
     0
100
AcDbPoint
 10
170.587683623
 20
82.7874568959
 30
0.0
  0
ENDBLK
  5
1874
330
186C
100
AcDbEntity
  8
0
100
AcDbBlockEnd
  0
BLOCK
  5
1877
330
1876
100
AcDbEntity
  8
0
100
AcDbBlockBegin
  2
_D_7
 70
     0
 10
0.0
 20
0.0
 30
0.0
  3
_D_7
  1

  0
ARC
  5
1878
330
1876
100
AcDbEntity
  8
レイヤー_1
 62
     0
370
    -2
100
AcDbCircle
 10
182.337683623
 20
126.5374693959
 30
0.0
 40
51.72781535141338
100
AcDbArc
 50
3.658047392685113
 51
86.3419526073149
  0
INSERT
  5
1879
330
1876
100
AcDbEntity
  8
レイヤー_1
 62
     0
370
    -2
100
AcDbBlockReference
  2
_OPEN30
 10
234.0654989744133
 20
126.5374693959
 30
0.0
 41
3.302
 42
3.302
 43
3.302
 50
271.8290236963426
  0
INSERT
  5
187A
330
1876
100
AcDbEntity
  8
レイヤー_1
 62
     0
370
    -2
100
AcDbBlockReference
  2
_OPEN30
 10
182.337683623
 20
178.2652847473134
 30
0.0
 41
3.302
 42
3.302
 43
3.302
 50
178.1709763036575
  0
MTEXT
  5
187B
330
1876
100
AcDbEntity
  8
レイヤー_1
  6
Continuous
 62
     0
100
AcDbMText
 10
219.9975298926989
 20
168.2189854834889
 30
0.0
 40
3.5
 41
0.0
 46
0.0
 71
     1
 72
     1
  1
\A1;90%%d
  7
SLDTEXTSTYLE0
 11
0.7071067811855809
 21
-0.7071067811875141
 31
0.0
 73
     1
 44
1.0
  0
POINT
  5
1964
330
1876
100
AcDbEntity
  8
DEFPOINTS
 62
     0
100
AcDbPoint
 10
208.2015912987067
 20
171.3350715724947
 30
0.0
  0
POINT
  5
1965
330
1876
100
AcDbEntity
  8
DEFPOINTS
 62
     0
100
AcDbPoint
 10
240.2912416604
 20
126.5374693959
 30
0.0
  0
POINT
  5
1966
330
1876
100
AcDbEntity
  8
DEFPOINTS
 62
     0
100
AcDbPoint
 10
182.337683623
 20
180.7317118902
 30
0.0
  0
POINT
  5
1967
330
1876
100
AcDbEntity
  8
DEFPOINTS
 62
     0
100
AcDbPoint
 10
182.337683623
 20
120.9587025702
 30
0.0
  0
POINT
  5
1968
330
1876
100
AcDbEntity
  8
DEFPOINTS
 62
     0
100
AcDbPoint
 10
189.6281150543
 20
126.5374693959
 30
0.0
  0
ENDBLK
  5
187C
330
1876
100
AcDbEntity
  8
0
100
AcDbBlockEnd
  0
BLOCK
  5
187F
330
187E
100
AcDbEntity
  8
0
100
AcDbBlockBegin
  2
SW_NOTE_0
 70
     0
 10
0.0
 20
0.0
 30
0.0
  3
SW_NOTE_0
  1

  0
CIRCLE
  5
1880
330
187E
100
AcDbEntity
  8
レイヤー_1
 62
     0
100
AcDbCircle
 10
1.0184027487
 20
2.2864583724
 30
0.0
 40
5.014954307874547
  0
MTEXT
  5
1881
330
187E
100
AcDbEntity
  8
レイヤー_1
 62
     0
100
AcDbMText
 10
0.984375
 20
4.0727272727
 30
0.0
 40
3.5
 41
0.0
 46
0.0
 71
     2
 72
     1
  1
1
  7
SLDTEXTSTYLE0
 73
     1
 44
1.0
  0
ENDBLK
  5
1882
330
187E
100
AcDbEntity
  8
0
100
AcDbBlockEnd
  0
BLOCK
  5
1885
330
1884
100
AcDbEntity
  8
0
100
AcDbBlockBegin
  2
SW_CENTERMARKSYMBOL_0
 70
     0
 10
0.0
 20
0.0
 30
0.0
  3
SW_CENTERMARKSYMBOL_0
  1

  0
LINE
  5
1886
330
1884
100
AcDbEntity
  8
レイヤー_1
 62
     0
100
AcDbLine
 10
0.0
 20
0.0
 30
0.0
 11
0.0
 21
1.25
 31
0.0
  0
LINE
  5
1887
330
1884
100
AcDbEntity
  8
レイヤー_1
 62
     0
100
AcDbLine
 10
0.0
 20
0.0
 30
0.0
 11
-1.25
 21
0.0
 31
0.0
  0
LINE
  5
1888
330
1884
100
AcDbEntity
  8
レイヤー_1
 62
     0
100
AcDbLine
 10
0.0
 20
0.0
 30
0.0
 11
0.0
 21
-1.25
 31
0.0
  0
LINE
  5
1889
330
1884
100
AcDbEntity
  8
レイヤー_1
 62
     0
100
AcDbLine
 10
0.0
 20
0.0
 30
0.0
 11
1.25
 21
0.0
 31
0.0
  0
LINE
  5
188A
330
1884
100
AcDbEntity
  8
レイヤー_1
 62
     0
100
AcDbLine
 10
0.0
 20
2.5
 30
0.0
 11
0.0
 21
3.5
 31
0.0
  0
LINE
  5
188B
330
1884
100
AcDbEntity
  8
レイヤー_1
 62
     0
100
AcDbLine
 10
-2.5
 20
0.0
 30
0.0
 11
-3.5
 21
0.0
 31
0.0
  0
LINE
  5
188C
330
1884
100
AcDbEntity
  8
レイヤー_1
 62
     0
100
AcDbLine
 10
0.0
 20
-2.5
 30
0.0
 11
0.0
 21
-3.5
 31
0.0
  0
LINE
  5
188D
330
1884
100
AcDbEntity
  8
レイヤー_1
 62
     0
100
AcDbLine
 10
2.5
 20
0.0
 30
0.0
 11
3.5
 21
0.0
 31
0.0
  0
ENDBLK
  5
188E
330
1884
100
AcDbEntity
  8
0
100
AcDbBlockEnd
  0
BLOCK
  5
1891
330
1890
100
AcDbEntity
  8
0
100
AcDbBlockBegin
  2
SW_CENTERMARKSYMBOL_1
 70
     0
 10
0.0
 20
0.0
 30
0.0
  3
SW_CENTERMARKSYMBOL_1
  1

  0
LINE
  5
1892
330
1890
100
AcDbEntity
  8
レイヤー_1
 62
     0
100
AcDbLine
 10
0.0
 20
0.0
 30
0.0
 11
0.0
 21
1.25
 31
0.0
  0
LINE
  5
1893
330
1890
100
AcDbEntity
  8
レイヤー_1
 62
     0
100
AcDbLine
 10
0.0
 20
0.0
 30
0.0
 11
-1.25
 21
0.0
 31
0.0
  0
LINE
  5
1894
330
1890
100
AcDbEntity
  8
レイヤー_1
 62
     0
100
AcDbLine
 10
0.0
 20
0.0
 30
0.0
 11
0.0
 21
-1.25
 31
0.0
  0
LINE
  5
1895
330
1890
100
AcDbEntity
  8
レイヤー_1
 62
     0
100
AcDbLine
 10
0.0
 20
0.0
 30
0.0
 11
1.25
 21
0.0
 31
0.0
  0
LINE
  5
1896
330
1890
100
AcDbEntity
  8
レイヤー_1
 62
     0
100
AcDbLine
 10
0.0
 20
2.5
 30
0.0
 11
0.0
 21
3.5
 31
0.0
  0
LINE
  5
1897
330
1890
100
AcDbEntity
  8
レイヤー_1
 62
     0
100
AcDbLine
 10
-2.5
 20
0.0
 30
0.0
 11
-3.5
 21
0.0
 31
0.0
  0
LINE
  5
1898
330
1890
100
AcDbEntity
  8
レイヤー_1
 62
     0
100
AcDbLine
 10
0.0
 20
-2.5
 30
0.0
 11
0.0
 21
-3.5
 31
0.0
  0
LINE
  5
1899
330
1890
100
AcDbEntity
  8
レイヤー_1
 62
     0
100
AcDbLine
 10
2.5
 20
0.0
 30
0.0
 11
3.5
 21
0.0
 31
0.0
  0
ENDBLK
  5
189A
330
1890
100
AcDbEntity
  8
0
100
AcDbBlockEnd
  0
BLOCK
  5
18C9
330
18C8
100
AcDbEntity
  8
0
100
AcDbBlockBegin
  2
_D_8
 70
     0
 10
0.0
 20
0.0
 30
0.0
  3
_D_8
  1

  0
LINE
  5
18CA
330
18C8
100
AcDbEntity
  8
レイヤー_1
 62
     0
370
    -2
100
AcDbLine
 10
290.005781932234
 20
123.8251555348273
 30
0.0
 11
315.7788713936004
 21
128.8401396301651
 31
0.0
  0
MTEXT
  5
18CB
330
18C8
100
AcDbEntity
  8
レイヤー_1
  6
Continuous
 62
     0
100
AcDbMText
 10
307.6426706784833
 20
131.7140340564321
 30
0.0
 40
3.5
 41
0.0
 46
0.0
 71
     1
 72
     1
  1
\A1;%%c70
  7
SLDTEXTSTYLE0
 11
0.9815900487383643
 21
0.1909999377429618
 31
0.0
 73
     1
 44
1.0
  0
INSERT
  5
18CC
330
18C8
100
AcDbEntity
  8
レイヤー_1
 62
     0
370
    -2
100
AcDbBlockReference
  2
_OPEN30
 10
286.7645715913
 20
123.1944737404
 30
0.0
 41
3.302
 42
3.302
 43
3.302
 50
191.0111451667315
  0
POINT
  5
18CD
330
18C8
100
AcDbEntity
  8
DEFPOINTS
 62
     0
100
AcDbPoint
 10
286.7645715913
 20
123.1944737404
 30
0.0
  0
POINT
  5
18CE
330
18C8
100
AcDbEntity
  8
DEFPOINTS
 62
     0
100
AcDbPoint
 10
321.1253290569
 20
129.8804650513
 30
0.0
  0
ENDBLK
  5
18CF
330
18C8
100
AcDbEntity
  8
0
100
AcDbBlockEnd
  0
BLOCK
  5
18D2
330
18D1
100
AcDbEntity
  8
0
100
AcDbBlockBegin
  2
SW_NOTE_1
 70
     0
 10
0.0
 20
0.0
 30
0.0
  3
SW_NOTE_1
  1

  0
CIRCLE
  5
18D3
330
18D1
100
AcDbEntity
  8
レイヤー_1
 62
     0
100
AcDbCircle
 10
1.0184027487
 20
2.2864583724
 30
0.0
 40
5.01495430787454
  0
MTEXT
  5
18D4
330
18D1
100
AcDbEntity
  8
レイヤー_1
 62
     0
100
AcDbMText
 10
0.984375
 20
4.072727272700007
 30
0.0
 40
3.5
 41
0.0
 46
3.5
 71
     2
 72
     1
  1
{4}
  7
SLDTEXTSTYLE0
 73
     1
 44
1.0
  0
ENDBLK
  5
18D5
330
18D1
100
AcDbEntity
  8
0
100
AcDbBlockEnd
  0
BLOCK
  5
18D8
330
18D7
100
AcDbEntity
  8
0
100
AcDbBlockBegin
  2
SW_NOTE_2
 70
     0
 10
0.0
 20
0.0
 30
0.0
  3
SW_NOTE_2
  1

  0
CIRCLE
  5
18D9
330
18D7
100
AcDbEntity
  8
レイヤー_1
 62
     0
100
AcDbCircle
 10
4.5
 20
-2.2135416667
 30
0.0
 40
5.014954307874547
  0
MTEXT
  5
18DA
330
18D7
100
AcDbEntity
  8
レイヤー_1
 62
     0
100
AcDbMText
 10
4.4659722513
 20
-0.4272727664
 30
0.0
 40
3.5
 41
0.0
 46
0.0
 71
     2
 72
     1
  1
3
  7
SLDTEXTSTYLE0
 73
     1
 44
1.0
  0
ENDBLK
  5
18DB
330
18D7
100
AcDbEntity
  8
0
100
AcDbBlockEnd
  0
BLOCK
  5
18DF
330
18DE
100
AcDbEntity
  8
0
100
AcDbBlockBegin
  2
SW_CENTERMARKSYMBOL_2
 70
     0
 10
0.0
 20
0.0
 30
0.0
  3
SW_CENTERMARKSYMBOL_2
  1

  0
LINE
  5
18E0
330
18DE
100
AcDbEntity
  8
レイヤー_1
 62
     0
100
AcDbLine
 10
0.0
 20
0.0
 30
0.0
 11
0.0
 21
1.25
 31
0.0
  0
LINE
  5
18E1
330
18DE
100
AcDbEntity
  8
レイヤー_1
 62
     0
100
AcDbLine
 10
0.0
 20
0.0
 30
0.0
 11
-1.25
 21
0.0
 31
0.0
  0
LINE
  5
18E2
330
18DE
100
AcDbEntity
  8
レイヤー_1
 62
     0
100
AcDbLine
 10
0.0
 20
0.0
 30
0.0
 11
0.0
 21
-1.25
 31
0.0
  0
LINE
  5
18E3
330
18DE
100
AcDbEntity
  8
レイヤー_1
 62
     0
100
AcDbLine
 10
0.0
 20
0.0
 30
0.0
 11
1.25
 21
0.0
 31
0.0
  0
LINE
  5
18E4
330
18DE
100
AcDbEntity
  8
レイヤー_1
 62
     0
100
AcDbLine
 10
0.0
 20
2.5
 30
0.0
 11
0.0
 21
22.9075273589
 31
0.0
  0
LINE
  5
18E5
330
18DE
100
AcDbEntity
  8
レイヤー_1
 62
     0
100
AcDbLine
 10
-2.5
 20
0.0
 30
0.0
 11
-23.0469173121
 21
0.0
 31
0.0
  0
LINE
  5
18E6
330
18DE
100
AcDbEntity
  8
レイヤー_1
 62
     0
100
AcDbLine
 10
0.0
 20
-2.5
 30
0.0
 11
0.0
 21
-37.8095366719
 31
0.0
  0
LINE
  5
18E7
330
18DE
100
AcDbEntity
  8
レイヤー_1
 62
     0
100
AcDbLine
 10
2.5
 20
0.0
 30
0.0
 11
22.490880711
 21
0.0
 31
0.0
  0
ENDBLK
  5
18E8
330
18DE
100
AcDbEntity
  8
0
100
AcDbBlockEnd
  0
BLOCK
  5
193E
330
193D
100
AcDbEntity
  8
0
100
AcDbBlockBegin
  2
SW_CENTERMARKSYMBOL_3
 70
     0
 10
0.0
 20
0.0
 30
0.0
  3
SW_CENTERMARKSYMBOL_3
  1

  0
LINE
  5
193F
330
193D
100
AcDbEntity
  8
レイヤー_1
 62
     0
100
AcDbLine
 10
0.0
 20
0.0
 30
0.0
 11
0.0
 21
1.25
 31
0.0
  0
LINE
  5
1940
330
193D
100
AcDbEntity
  8
レイヤー_1
 62
     0
100
AcDbLine
 10
0.0
 20
0.0
 30
0.0
 11
-1.25
 21
0.0
 31
0.0
  0
LINE
  5
1941
330
193D
100
AcDbEntity
  8
レイヤー_1
 62
     0
100
AcDbLine
 10
0.0
 20
0.0
 30
0.0
 11
0.0
 21
-1.25
 31
0.0
  0
LINE
  5
1942
330
193D
100
AcDbEntity
  8
レイヤー_1
 62
     0
100
AcDbLine
 10
0.0
 20
0.0
 30
0.0
 11
1.25
 21
0.0
 31
0.0
  0
LINE
  5
1943
330
193D
100
AcDbEntity
  8
レイヤー_1
 62
     0
100
AcDbLine
 10
0.0
 20
2.5
 30
0.0
 11
0.0
 21
4.25
 31
0.0
  0
LINE
  5
1944
330
193D
100
AcDbEntity
  8
レイヤー_1
 62
     0
100
AcDbLine
 10
-2.5
 20
0.0
 30
0.0
 11
-4.25
 21
0.0
 31
0.0
  0
LINE
  5
1945
330
193D
100
AcDbEntity
  8
レイヤー_1
 62
     0
100
AcDbLine
 10
0.0
 20
-2.5
 30
0.0
 11
0.0
 21
-4.25
 31
0.0
  0
LINE
  5
1946
330
193D
100
AcDbEntity
  8
レイヤー_1
 62
     0
100
AcDbLine
 10
2.5
 20
0.0
 30
0.0
 11
4.25
 21
0.0
 31
0.0
  0
ENDBLK
  5
1947
330
193D
100
AcDbEntity
  8
0
100
AcDbBlockEnd
  0
BLOCK
  5
2530
330
252F
100
AcDbEntity
  8
0
100
AcDbBlockBegin
  2
SW_NOTE_3
 70
     0
 10
0.0
 20
0.0
 30
0.0
  3
SW_NOTE_3
  1

  0
CIRCLE
  5
2531
330
252F
100
AcDbEntity
  8
レイヤー_1
 62
     0
100
AcDbCircle
 10
1.0184027487
 20
2.2864583724
 30
0.0
 40
5.014954307874553
  0
MTEXT
  5
2532
330
252F
100
AcDbEntity
  8
レイヤー_1
 62
     0
100
AcDbMText
 10
0.984375
 20
4.0727272727
 30
0.0
 40
3.5
 41
0.0
 46
0.0
 71
     2
 72
     1
  1
2
  7
SLDTEXTSTYLE0
 73
     1
 44
1.0
  0
ENDBLK
  5
2533
330
252F
100
AcDbEntity
  8
0
100
AcDbBlockEnd
  0
BLOCK
  5
463F
330
463E
100
AcDbEntity
  8
0
100
AcDbBlockBegin
  2
*D157
 70
     1
 10
0.0
 20
0.0
 30
0.0
  3
*D157
  1

  0
LINE
  5
4641
330
463E
100
AcDbEntity
  8
レイヤー_1
 62
     0
370
    -2
100
AcDbLine
 10
500.8695669026358
 20
155.5476092263325
 30
0.0
 11
500.88574309296
 21
155.4872388621698
 31
0.0
  0
LINE
  5
4642
330
463E
100
AcDbEntity
  8
レイヤー_1
 62
     0
370
    -2
100
AcDbLine
 10
524.0517867335858
 20
161.7592663087825
 30
0.0
 11
524.0679629239065
 21
161.6988959446327
 31
0.0
  0
LINE
  5
4643
330
463E
100
AcDbEntity
  8
レイヤー_1
 62
     0
370
    -2
100
AcDbLine
 10
500.88574309296
 20
155.4872388621698
 30
0.0
 11
534.5472922133166
 21
164.50682376495
 31
0.0
  0
LINE
  5
4644
330
463E
100
AcDbEntity
  8
レイヤー_1
 62
     0
370
    -2
100
AcDbLine
 10
500.88574309296
 20
155.4872388621698
 30
0.0
 11
524.0679629239065
 21
161.6988959446327
 31
0.0
  0
LINE
  5
4645
330
463E
100
AcDbEntity
  8
レイヤー_1
 62
     0
370
    -2
100
AcDbLine
 10
497.6962560145535
 20
154.6326183752413
 30
0.0
 11
494.506768936147
 21
153.7779978883128
 31
0.0
  0
LINE
  5
4646
330
463E
100
AcDbEntity
  8
レイヤー_1
 62
     0
370
    -2
100
AcDbLine
 10
527.257450002313
 20
162.5535164315613
 30
0.0
 11
530.4469370807195
 21
163.4081369184898
 31
0.0
  0
INSERT
  5
4647
330
463E
100
AcDbEntity
  8
レイヤー_1
 62
     0
370
    -2
100
AcDbBlockReference
  2
_OPEN30
 10
500.88574309296
 20
155.4872388621698
 30
0.0
 41
3.302
 42
3.302
 43
3.302
 50
15.0
  0
INSERT
  5
4648
330
463E
100
AcDbEntity
  8
レイヤー_1
 62
     0
370
    -2
100
AcDbBlockReference
  2
_OPEN30
 10
524.0679629239065
 20
161.6988959446327
 30
0.0
 41
3.302
 42
3.302
 43
3.302
 50
195.0
  0
MTEXT
  5
4660
330
463E
100
AcDbEntity
  8
レイヤー_1
  6
Continuous
 62
     0
100
AcDbMText
 10
530.283378285821
 20
166.8583685803657
 30
0.0
 40
2.5
 41
0.0
 46
0.0
 71
     2
 72
     1
  1
\A1;%%c24
  7
ＭＳ_Ｐゴシック
 11
0.9659258262890684
 21
0.2588190451025209
 31
0.0
 73
     1
 44
1.0
  0
POINT
  5
4661
330
463E
100
AcDbEntity
  8
DEFPOINTS
 62
     0
100
AcDbPoint
 10
500.8857430929547
 20
155.4872388621894
 30
0.0
  0
POINT
  5
4665
330
463E
100
AcDbEntity
  8
DEFPOINTS
 62
     0
100
AcDbPoint
 10
524.0679629239047
 20
161.6988959446394
 30
0.0
  0
POINT
  5
4666
330
463E
100
AcDbEntity
  8
DEFPOINTS
 62
     0
100
AcDbPoint
 10
524.0679629239065
 20
161.6988959446327
 30
0.0
  0
ENDBLK
  5
4640
330
463E
100
AcDbEntity
  8
0
100
AcDbBlockEnd
  0
BLOCK
  5
464A
330
4649
100
AcDbEntity
  8
0
100
AcDbBlockBegin
  2
*D158
 70
     1
 10
0.0
 20
0.0
 30
0.0
  3
*D158
  1

  0
LINE
  5
464C
330
4649
100
AcDbEntity
  8
レイヤー_1
 62
     0
370
    -2
100
AcDbLine
 10
585.2155402748047
 20
170.6555674033894
 30
0.0
 11
585.2155402748047
 21
178.5930674033894
 31
0.0
  0
LINE
  5
464D
330
4649
100
AcDbEntity
  8
レイヤー_1
 62
     0
370
    -2
100
AcDbLine
 10
566.7155402748048
 20
165.6555674033894
 30
0.0
 11
566.7155402748048
 21
178.5930674033894
 31
0.0
  0
LINE
  5
464E
330
4649
100
AcDbEntity
  8
レイヤー_1
 62
     0
370
    -2
100
AcDbLine
 10
581.9135402748046
 20
178.5930674033894
 30
0.0
 11
570.0175402748048
 21
178.5930674033894
 31
0.0
  0
INSERT
  5
464F
330
4649
100
AcDbEntity
  8
レイヤー_1
 62
     0
370
    -2
100
AcDbBlockReference
  2
_OPEN30
 10
585.2155402748047
 20
178.5930674033894
 30
0.0
 41
3.302
 42
3.302
 43
3.302
  0
INSERT
  5
4650
330
4649
100
AcDbEntity
  8
レイヤー_1
 62
     0
370
    -2
100
AcDbBlockReference
  2
_OPEN30
 10
566.7155402748048
 20
178.5930674033894
 30
0.0
 41
3.302
 42
3.302
 43
3.302
 50
180.0
  0
MTEXT
  5
4651
330
4649
100
AcDbEntity
  8
レイヤー_1
  6
Continuous
 62
     0
100
AcDbMText
 10
575.9655402748047
 20
181.9805674033894
 30
0.0
 40
2.5
 41
0.0
 46
0.0
 71
     2
 72
     1
  1
\A1;18
  7
ＭＳ_Ｐゴシック
 73
     1
 44
1.0
  0
POINT
  5
4652
330
4649
100
AcDbEntity
  8
DEFPOINTS
 62
     0
100
AcDbPoint
 10
585.2155402748047
 20
170.5930674033894
 30
0.0
  0
POINT
  5
4653
330
4649
100
AcDbEntity
  8
DEFPOINTS
 62
     0
100
AcDbPoint
 10
566.7155402748048
 20
165.5930674033894
 30
0.0
  0
POINT
  5
4654
330
4649
100
AcDbEntity
  8
DEFPOINTS
 62
     0
100
AcDbPoint
 10
566.7155402748048
 20
178.5930674033894
 30
0.0
  0
ENDBLK
  5
464B
330
4649
100
AcDbEntity
  8
0
100
AcDbBlockEnd
  0
BLOCK
  5
4656
330
4655
100
AcDbEntity
  8
0
100
AcDbBlockBegin
  2
*D159
 70
     1
 10
0.0
 20
0.0
 30
0.0
  3
*D159
  1

  0
LINE
  5
4658
330
4655
100
AcDbEntity
  8
レイヤー_1
 62
     0
370
    -2
100
AcDbLine
 10
581.2155402748047
 20
170.6555674033894
 30
0.0
 11
581.2155402748047
 21
173.7153774731894
 31
0.0
  0
LINE
  5
4659
330
4655
100
AcDbEntity
  8
レイヤー_1
 62
     0
370
    -2
100
AcDbLine
 10
585.2155402748047
 20
170.6555674033894
 30
0.0
 11
585.2155402748047
 21
173.7153774731894
 31
0.0
  0
LINE
  5
465A
330
4655
100
AcDbEntity
  8
レイヤー_1
 62
     0
370
    -2
100
AcDbLine
 10
581.2155402748047
 20
173.7153774731894
 30
0.0
 11
595.3047902748048
 21
173.7153774731894
 31
0.0
  0
LINE
  5
465B
330
4655
100
AcDbEntity
  8
レイヤー_1
 62
     0
370
    -2
100
AcDbLine
 10
577.9135402748046
 20
173.7153774731894
 30
0.0
 11
574.6115402748046
 21
173.7153774731894
 31
0.0
  0
LINE
  5
465C
330
4655
100
AcDbEntity
  8
レイヤー_1
 62
     0
370
    -2
100
AcDbLine
 10
588.5175402748047
 20
173.7153774731894
 30
0.0
 11
591.8195402748047
 21
173.7153774731894
 31
0.0
  0
INSERT
  5
465D
330
4655
100
AcDbEntity
  8
レイヤー_1
 62
     0
370
    -2
100
AcDbBlockReference
  2
_OPEN30
 10
581.2155402748047
 20
173.7153774731894
 30
0.0
 41
3.302
 42
3.302
 43
3.302
  0
INSERT
  5
465E
330
4655
100
AcDbEntity
  8
レイヤー_1
 62
     0
370
    -2
100
AcDbBlockReference
  2
_OPEN30
 10
585.2155402748047
 20
173.7153774731894
 30
0.0
 41
3.302
 42
3.302
 43
3.302
 50
180.0
  0
MTEXT
  5
465F
330
4655
100
AcDbEntity
  8
レイヤー_1
  6
Continuous
 62
     0
100
AcDbMText
 10
593.6410402748047
 20
177.0903774731894
 30
0.0
 40
2.5
 41
0.0
 46
0.0
 71
     2
 72
     1
  1
\A1;4
  7
ＭＳ_Ｐゴシック
 73
     1
 44
1.0
  0
POINT
  5
4662
330
4655
100
AcDbEntity
  8
DEFPOINTS
 62
     0
100
AcDbPoint
 10
581.2155402748047
 20
170.5930674033894
 30
0.0
  0
POINT
  5
4663
330
4655
100
AcDbEntity
  8
DEFPOINTS
 62
     0
100
AcDbPoint
 10
585.2155402748047
 20
170.5930674033894
 30
0.0
  0
POINT
  5
4664
330
4655
100
AcDbEntity
  8
DEFPOINTS
 62
     0
100
AcDbPoint
 10
585.2155402748047
 20
173.7153774731894
 30
0.0
  0
ENDBLK
  5
4657
330
4655
100
AcDbEntity
  8
0
100
AcDbBlockEnd
  0
ENDSEC
  0
SECTION
  2
ENTITIES
  0
MTEXT
  5
156
330
A
100
AcDbEntity
  8
レイヤー_1
 62
     7
100
AcDbMText
 10
176.2125
 20
32.789434
 30
0.0
 40
2.362351
 41
0.0
 46
0.0
 71
     1
 72
     2
  1
\fMSGothic|b0|i0|c128;\H2.3624;\C7;
  7
STD
 73
     1
 44
1.0
  0
MTEXT
  5
154
330
A
100
AcDbEntity
  8
レイヤー_1
 62
     7
100
AcDbMText
 10
182.5625
 20
32.789434
 30
0.0
 40
2.362351
 41
0.0
 46
0.0
 71
     1
 72
     2
  1
\fMSGothic|b0|i0|c128;\H2.3624;\C7;
  7
STD
 73
     1
 44
1.0
  0
MTEXT
  5
152
330
A
100
AcDbEntity
  8
レイヤー_1
 62
     7
100
AcDbMText
 10
187.325
 20
32.789434
 30
0.0
 40
2.362351
 41
0.0
 46
0.0
 71
     1
 72
     2
  1
\fMSGothic|b0|i0|c128;\H2.3624;\C7;
  7
STD
 73
     1
 44
1.0
  0
MTEXT
  5
150
330
A
100
AcDbEntity
  8
レイヤー_1
 62
     7
100
AcDbMText
 10
193.675
 20
32.789434
 30
0.0
 40
2.362351
 41
0.0
 46
0.0
 71
     1
 72
     2
  1
\fMSGothic|b0|i0|c128;\H2.3624;\C7;
  7
STD
 73
     1
 44
1.0
  0
MTEXT
  5
14F
330
A
100
AcDbEntity
  8
レイヤー_1
 62
     7
100
AcDbMText
 10
196.85
 20
32.789434
 30
0.0
 40
2.362351
 41
0.0
 46
0.0
 71
     1
 72
     2
  1
\fMSGothic|b0|i0|c128;\H2.3624;\C7; 
  7
STD
 73
     1
 44
1.0
  0
MTEXT
  5
14D
330
A
100
AcDbEntity
  8
レイヤー_1
 62
     7
100
AcDbMText
 10
200.025
 20
32.789434
 30
0.0
 40
2.362351
 41
0.0
 46
0.0
 71
     1
 72
     2
  1
\fMSGothic|b0|i0|c128;\H2.3624;\C7;
  7
STD
 73
     1
 44
1.0
  0
MTEXT
  5
142
330
A
100
AcDbEntity
  8
レイヤー_1
 62
     7
100
AcDbMText
 10
46.302083
 20
283.123066
 30
0.0
 40
2.362351
 41
0.0
 46
0.0
 71
     1
 72
     2
  1
\fMSGothic|b0|i0|c128;\H2.3624;\C7;
  7
STD
 11
-1.0
 21
0.0
 31
0.0
 73
     1
 44
1.0
  0
MTEXT
  5
13E
330
A
100
AcDbEntity
  8
レイヤー_1
 62
     7
100
AcDbMText
 10
29.104167
 20
14.004018
 30
0.0
 40
2.362351
 41
0.0
 46
0.0
 71
     1
 72
     2
  1
\fMSGothic|b0|i0|c128;\H2.3624;\C7; 
  7
STD
 73
     1
 44
1.0
  0
MTEXT
  5
13B
330
A
100
AcDbEntity
  8
レイヤー_1
 62
     7
100
AcDbMText
 10
20.902083
 20
33.583184
 30
0.0
 40
2.362351
 41
0.0
 46
0.0
 71
     1
 72
     2
  1
\fMSGothic|b0|i0|c128;\H2.3624;\C7;
  7
STD
 73
     1
 44
1.0
  0
MTEXT
  5
13A
330
A
100
AcDbEntity
  8
レイヤー_1
 62
     7
100
AcDbMText
 10
17.991667
 20
29.349851
 30
0.0
 40
2.362351
 41
0.0
 46
0.0
 71
     1
 72
     2
  1
\fMSGothic|b0|i0|c128;\H2.3624;\C7;
  7
STD
 73
     1
 44
1.0
  0
MTEXT
  5
139
330
A
100
AcDbEntity
  8
レイヤー_1
 62
     7
100
AcDbMText
 10
17.727083
 20
25.116518
 30
0.0
 40
2.362351
 41
0.0
 46
0.0
 71
     1
 72
     2
  1
\fMSGothic|b0|i0|c128;\H2.3624;\C7;
  7
STD
 73
     1
 44
1.0
  0
MTEXT
  5
138
330
A
100
AcDbEntity
  8
レイヤー_1
 62
     7
100
AcDbMText
 10
20.902083
 20
25.116518
 30
0.0
 40
2.362351
 41
0.0
 46
0.0
 71
     1
 72
     2
  1
\fMSGothic|b0|i0|c128;\H2.3624;\C7;
  7
STD
 73
     1
 44
1.0
  0
MTEXT
  5
137
330
A
100
AcDbEntity
  8
レイヤー_1
 62
     7
100
AcDbMText
 10
17.991667
 20
20.883184
 30
0.0
 40
2.362351
 41
0.0
 46
0.0
 71
     1
 72
     2
  1
\fMSGothic|b0|i0|c128;\H2.3624;\C7;
  7
STD
 73
     1
 44
1.0
  0
MTEXT
  5
11B
330
A
100
AcDbEntity
  8
レイヤー_1
 62
     7
100
AcDbMText
 10
43.920833
 20
14.004018
 30
0.0
 40
2.362351
 41
0.0
 46
0.0
 71
     1
 72
     2
  1
\fMSGothic|b0|i0|c128;\H2.3624;\C7;
  7
STD
 73
     1
 44
1.0
  0
MTEXT
  5
114
330
A
100
AcDbEntity
  8
レイヤー_1
 62
     7
100
AcDbMText
 10
153.19375
 20
25.645684
 30
0.0
 40
2.362351
 41
0.0
 46
0.0
 71
     1
 72
     2
  1
\fMSGothic|b0|i0|c128;\H2.3624;\C7; 
  7
STD
 73
     1
 44
1.0
  0
MTEXT
  5
10F
330
A
100
AcDbEntity
  8
レイヤー_1
 62
     7
100
AcDbMText
 10
153.19375
 20
33.054018
 30
0.0
 40
2.362351
 41
0.0
 46
0.0
 71
     1
 72
     2
  1
\fMSGothic|b0|i0|c128;\H2.3624;\C7; 
  7
STD
 73
     1
 44
1.0
  0
MTEXT
  5
10C
330
A
100
AcDbEntity
  8
レイヤー_1
 62
     7
100
AcDbMText
 10
164.30625
 20
17.708184
 30
0.0
 40
2.362351
 41
0.0
 46
0.0
 71
     1
 72
     2
  1
\fMSGothic|b0|i0|c128;\H2.3624;\C7; 
  7
STD
 73
     1
 44
1.0
  0
MTEXT
  5
109
330
A
100
AcDbEntity
  8
レイヤー_1
 62
     7
100
AcDbMText
 10
164.30625
 20
25.645684
 30
0.0
 40
2.362351
 41
0.0
 46
0.0
 71
     1
 72
     2
  1
\fMSGothic|b0|i0|c128;\H2.3624;\C7; 
  7
STD
 73
     1
 44
1.0
  0
MTEXT
  5
106
330
A
100
AcDbEntity
  8
レイヤー_1
 62
     7
100
AcDbMText
 10
175.154167
 20
25.910268
 30
0.0
 40
2.362351
 41
0.0
 46
0.0
 71
     1
 72
     2
  1
\fMSGothic|b0|i0|c128;\H2.3624;\C7; 
  7
STD
 73
     1
 44
1.0
  0
MTEXT
  5
103
330
A
100
AcDbEntity
  8
レイヤー_1
 62
     7
100
AcDbMText
 10
175.41875
 20
17.708184
 30
0.0
 40
2.362351
 41
0.0
 46
0.0
 71
     1
 72
     2
  1
\fMSGothic|b0|i0|c128;\H2.3624;\C7; 
  7
STD
 73
     1
 44
1.0
  0
MTEXT
  5
FE
330
A
100
AcDbEntity
  8
レイヤー_1
 62
     7
100
AcDbMText
 10
185.7375
 20
26.704018
 30
0.0
 40
2.362351
 41
0.0
 46
0.0
 71
     1
 72
     2
  1
\fMSGothic|b0|i0|c128;\H2.3624;\C7;
  7
STD
 73
     1
 44
1.0
  0
MTEXT
  5
FB
330
A
100
AcDbEntity
  8
レイヤー_1
 62
     7
100
AcDbMText
 10
153.19375
 20
17.708184
 30
0.0
 40
2.362351
 41
0.0
 46
0.0
 71
     1
 72
     2
  1
\fMSGothic|b0|i0|c128;\H2.3624;\C7; 
  7
STD
 73
     1
 44
1.0
  0
MTEXT
  5
F6
330
A
100
AcDbEntity
  8
レイヤー_1
 62
     7
100
AcDbMText
 10
217.4875
 20
20.618601
 30
0.0
 40
2.362351
 41
0.0
 46
0.0
 71
     1
 72
     2
  1
\fMSGothic|b0|i0|c128;\H2.3624;\C7;
  7
STD
 73
     1
 44
1.0
  0
MTEXT
  5
F4
330
A
100
AcDbEntity
  8
レイヤー_1
 62
     7
100
AcDbMText
 10
220.6625
 20
24.851934
 30
0.0
 40
2.362351
 41
0.0
 46
0.0
 71
     1
 72
     2
  1
\fMSGothic|b0|i0|c128;\H2.3624;\C7;
  7
STD
 73
     1
 44
1.0
  0
MTEXT
  5
F3
330
A
100
AcDbEntity
  8
レイヤー_1
 62
     7
100
AcDbMText
 10
217.752083
 20
20.618601
 30
0.0
 40
2.362351
 41
0.0
 46
0.0
 71
     1
 72
     2
  1
\fMSGothic|b0|i0|c128;\H2.3624;\C7;
  7
STD
 73
     1
 44
1.0
  0
MTEXT
  5
F2
330
A
100
AcDbEntity
  8
レイヤー_1
 62
     7
100
AcDbMText
 10
220.927083
 20
20.618601
 30
0.0
 40
2.362351
 41
0.0
 46
0.0
 71
     1
 72
     2
  1
\fMSGothic|b0|i0|c128;\H2.3624;\C7;
  7
STD
 73
     1
 44
1.0
  0
MTEXT
  5
F1
330
A
100
AcDbEntity
  8
レイヤー_1
 62
     7
100
AcDbMText
 10
217.4875
 20
16.385268
 30
0.0
 40
2.362351
 41
0.0
 46
0.0
 71
     1
 72
     2
  1
\fMSGothic|b0|i0|c128;\H2.3624;\C7;
  7
STD
 73
     1
 44
1.0
  0
MTEXT
  5
E1
330
A
100
AcDbEntity
  8
レイヤー_1
 62
     7
100
AcDbMText
 10
217.4875
 20
20.618601
 30
0.0
 40
2.362351
 41
0.0
 46
0.0
 71
     1
 72
     2
  1
\fMSGothic|b0|i0|c128;\H2.3624;\C7;
  7
STD
 73
     1
 44
1.0
  0
MTEXT
  5
9D
330
A
100
AcDbEntity
  8
レイヤー_1
 62
     7
100
AcDbMText
 10
356.488146
 20
21.343456
 30
0.0
 40
2.849494
 41
0.0
 46
0.0
 71
     1
 72
     2
  1
\fHGPGothicE|b0|i0|c128;\H2.8495;\C7; 
  7
STD
 73
     1
 44
1.0
  0
MTEXT
  5
9C
330
A
100
AcDbEntity
  8
レイヤー_1
 62
     7
100
AcDbMText
 10
357.759386
 20
21.343456
 30
0.0
 40
2.849494
 41
0.0
 46
0.0
 71
     1
 72
     2
  1
\fHGPGothicE|b0|i0|c128;\H2.8495;\C7; 
  7
STD
 73
     1
 44
1.0
  0
MTEXT
  5
97
330
A
100
AcDbEntity
  8
レイヤー_1
 62
     7
100
AcDbMText
 10
357.395584
 20
16.808332
 30
0.0
 40
2.849494
 41
0.0
 46
0.0
 71
     1
 72
     2
  1
\fHGPGothicE|b0|i0|c128;\H2.8495;\C7; 
  7
STD
 73
     1
 44
1.0
  0
HATCH
  5
5DA
330
A
100
AcDbEntity
  8
997-図枠_文字
  6
Continuous
 62
     7
100
AcDbHatch
 10
0.0
 20
0.0
 30
0.0
210
0.0
220
0.0
230
1.0
  2
SOLID
 70
     1
 71
     0
 91
        1
 92
        0
 93
        2
 72
     4
 94
        3
 73
     1
 74
     0
 95
       11
 96
        7
 40
0.0
 40
0.0
 40
0.0
 40
0.0
 40
1.0
 40
1.0
 40
1.0
 40
2.0
 40
2.0
 40
2.0
 40
2.0
 10
800.0226885034076
 20
-336.143454320877
 42
1.0
 10
799.7736218802061
 20
-336.143454320877
 42
1.0
 10
799.5687351615072
 20
-335.9400627736188
 42
1.0
 10
799.5687351615072
 20
-335.6906102997228
 42
1.0
 10
799.5687351615072
 20
-335.4413025198372
 42
1.0
 10
799.7736218802061
 20
-335.2366569578224
 42
1.0
 10
800.0226885034076
 20
-335.2366569578224
 42
1.0
 97
        0
 72
     4
 94
        3
 73
     1
 74
     0
 95
       11
 96
        7
 40
2.0
 40
2.0
 40
2.0
 40
2.0
 40
3.0
 40
3.0
 40
3.0
 40
4.0
 40
4.0
 40
4.0
 40
4.0
 10
800.0226885034076
 20
-335.2366569578224
 42
1.0
 10
800.2619159339032
 20
-335.2366569578224
 42
1.0
 10
800.4752913678778
 20
-335.4413025198372
 42
1.0
 10
800.4752913678778
 20
-335.6906102997228
 42
1.0
 10
800.4752913678778
 20
-335.9400627736188
 42
1.0
 10
800.2619159339032
 20
-336.143454320877
 42
1.0
 10
800.0226885034076
 20
-336.143454320877
 42
1.0
 97
        0
 97
        0
 75
     0
 76
     1
 98
        1
 10
440.2006189529567
 20
-358.3381140435318
  0
HATCH
  5
5DD
330
A
100
AcDbEntity
  8
997-図枠_文字
  6
Continuous
 62
     7
100
AcDbHatch
 10
0.0
 20
0.0
 30
0.0
210
0.0
220
0.0
230
1.0
  2
SOLID
 70
     1
 71
     0
 91
        1
 92
        0
 93
        2
 72
     4
 94
        3
 73
     1
 74
     0
 95
       11
 96
        7
 40
0.0
 40
0.0
 40
0.0
 40
0.0
 40
1.0
 40
1.0
 40
1.0
 40
2.0
 40
2.0
 40
2.0
 40
2.0
 10
809.4045999051418
 20
-336.143454320877
 42
1.0
 10
809.1559191326346
 20
-336.143454320877
 42
1.0
 10
808.950743025915
 20
-335.9400627736188
 42
1.0
 10
808.950743025915
 20
-335.6906102997228
 42
1.0
 10
808.950743025915
 20
-335.4413025198372
 42
1.0
 10
809.1559191326346
 20
-335.2366569578224
 42
1.0
 10
809.4045999051418
 20
-335.2366569578224
 42
1.0
 97
        0
 72
     4
 94
        3
 73
     1
 74
     0
 95
       11
 96
        7
 40
2.0
 40
2.0
 40
2.0
 40
2.0
 40
3.0
 40
3.0
 40
3.0
 40
4.0
 40
4.0
 40
4.0
 40
4.0
 10
809.4045999051418
 20
-335.2366569578224
 42
1.0
 10
809.6438273356375
 20
-335.2366569578224
 42
1.0
 10
809.8575886203065
 20
-335.4413025198372
 42
1.0
 10
809.8575886203065
 20
-335.6906102997228
 42
1.0
 10
809.8575886203065
 20
-335.9400627736188
 42
1.0
 10
809.6438273356375
 20
-336.143454320877
 42
1.0
 10
809.4045999051418
 20
-336.143454320877
 42
1.0
 97
        0
 97
        0
 75
     0
 76
     1
 98
        1
 10
440.2006189529567
 20
-358.3381140435318
  0
HATCH
  5
675
330
A
100
AcDbEntity
  8
997-図枠_文字
  6
Continuous
 62
     7
100
AcDbHatch
 10
0.0
 20
0.0
 30
0.0
210
0.0
220
0.0
230
1.0
  2
SOLID
 70
     1
 71
     0
 91
        1
 92
        0
 93
        2
 72
     4
 94
        3
 73
     1
 74
     0
 95
       11
 96
        7
 40
0.0
 40
0.0
 40
0.0
 40
0.0
 40
1.0
 40
1.0
 40
1.0
 40
2.0
 40
2.0
 40
2.0
 40
2.0
 10
800.203157544262
 20
-336.0443968358463
 42
1.0
 10
799.9540909210605
 20
-336.0443968358463
 42
1.0
 10
799.7492042023616
 20
-335.8410052885881
 42
1.0
 10
799.7492042023616
 20
-335.5915528146921
 42
1.0
 10
799.7492042023616
 20
-335.3422450348066
 42
1.0
 10
799.9540909210605
 20
-335.1375994727918
 42
1.0
 10
800.203157544262
 20
-335.1375994727918
 42
1.0
 97
        0
 72
     4
 94
        3
 73
     1
 74
     0
 95
       11
 96
        7
 40
2.0
 40
2.0
 40
2.0
 40
2.0
 40
3.0
 40
3.0
 40
3.0
 40
4.0
 40
4.0
 40
4.0
 40
4.0
 10
800.203157544262
 20
-335.1375994727918
 42
1.0
 10
800.4423849747575
 20
-335.1375994727918
 42
1.0
 10
800.6557604087322
 20
-335.3422450348066
 42
1.0
 10
800.6557604087322
 20
-335.5915528146921
 42
1.0
 10
800.6557604087322
 20
-335.8410052885881
 42
1.0
 10
800.4423849747575
 20
-336.0443968358463
 42
1.0
 10
800.203157544262
 20
-336.0443968358463
 42
1.0
 97
        0
 97
        0
 75
     0
 76
     1
 98
        1
 10
440.3810879938112
 20
-358.2390565585012
  0
HATCH
  5
678
330
A
100
AcDbEntity
  8
997-図枠_文字
  6
Continuous
 62
     7
100
AcDbHatch
 10
0.0
 20
0.0
 30
0.0
210
0.0
220
0.0
230
1.0
  2
SOLID
 70
     1
 71
     0
 91
        1
 92
        0
 93
        2
 72
     4
 94
        3
 73
     1
 74
     0
 95
       11
 96
        7
 40
0.0
 40
0.0
 40
0.0
 40
0.0
 40
1.0
 40
1.0
 40
1.0
 40
2.0
 40
2.0
 40
2.0
 40
2.0
 10
809.5850689459962
 20
-336.0443968358463
 42
1.0
 10
809.336388173489
 20
-336.0443968358463
 42
1.0
 10
809.1312120667694
 20
-335.8410052885881
 42
1.0
 10
809.1312120667694
 20
-335.5915528146921
 42
1.0
 10
809.1312120667694
 20
-335.3422450348066
 42
1.0
 10
809.336388173489
 20
-335.1375994727918
 42
1.0
 10
809.5850689459962
 20
-335.1375994727918
 42
1.0
 97
        0
 72
     4
 94
        3
 73
     1
 74
     0
 95
       11
 96
        7
 40
2.0
 40
2.0
 40
2.0
 40
2.0
 40
3.0
 40
3.0
 40
3.0
 40
4.0
 40
4.0
 40
4.0
 40
4.0
 10
809.5850689459962
 20
-335.1375994727918
 42
1.0
 10
809.8242963764919
 20
-335.1375994727918
 42
1.0
 10
810.0380576611608
 20
-335.3422450348066
 42
1.0
 10
810.0380576611608
 20
-335.5915528146921
 42
1.0
 10
810.0380576611608
 20
-335.8410052885881
 42
1.0
 10
809.8242963764919
 20
-336.0443968358463
 42
1.0
 10
809.5850689459962
 20
-336.0443968358463
 42
1.0
 97
        0
 97
        0
 75
     0
 76
     1
 98
        1
 10
440.3810879938112
 20
-358.2390565585012
  0
LINE
  5
4617
330
A
100
AcDbEntity
  8
0
  6
SLD-実線
 62
     7
370
    25
100
AcDbLine
 10
507.4768531202047
 20
165.5930676194894
 30
0.0
 11
507.4768531202047
 21
163.5930672916394
 31
0.0
  0
LINE
  5
4618
330
A
100
AcDbEntity
  8
0
  6
SLD-実線
 62
     7
370
    25
100
AcDbLine
 10
508.9768529004048
 20
165.5930676194894
 30
0.0
 11
507.4768531202047
 21
165.5930676194894
 31
0.0
  0
LINE
  5
4619
330
A
100
AcDbEntity
  8
0
  6
SLD-実線
 62
     7
370
    25
100
AcDbLine
 10
508.9768529004048
 20
163.5930672916394
 30
0.0
 11
508.9768529004048
 21
165.5930676194894
 31
0.0
  0
LINE
  5
461A
330
A
100
AcDbEntity
  8
0
  6
SLD-実線
 62
     7
370
    25
100
AcDbLine
 10
518.9768531425548
 20
163.5930672916394
 30
0.0
 11
508.9768529004048
 21
163.5930672916394
 31
0.0
  0
LINE
  5
461B
330
A
100
AcDbEntity
  8
0
  6
SLD-実線
 62
     7
370
    25
100
AcDbLine
 10
518.9768531425548
 20
162.0930675114394
 30
0.0
 11
518.9768531425548
 21
163.5930672916394
 31
0.0
  0
LINE
  5
461C
330
A
100
AcDbEntity
  8
0
  6
SLD-実線
 62
     7
370
    25
100
AcDbLine
 10
508.9768529004048
 20
151.5930671873394
 30
0.0
 11
508.9768529004048
 21
153.5930675151394
 31
0.0
  0
LINE
  5
461D
330
A
100
AcDbEntity
  8
0
  6
SLD-実線
 62
     7
370
    25
100
AcDbLine
 10
507.4768531202047
 20
151.5930671873394
 30
0.0
 11
508.9768529004048
 21
151.5930671873394
 31
0.0
  0
LINE
  5
461E
330
A
100
AcDbEntity
  8
0
  6
SLD-実線
 62
     7
370
    25
100
AcDbLine
 10
507.4768531202047
 20
153.5930675151394
 30
0.0
 11
507.4768531202047
 21
151.5930671873394
 31
0.0
  0
LINE
  5
461F
330
A
100
AcDbEntity
  8
0
  6
SLD-実線
 62
     7
370
    25
100
AcDbLine
 10
506.4768529562548
 20
153.5930675151394
 30
0.0
 11
507.4768531202047
 21
153.5930675151394
 31
0.0
  0
LINE
  5
4620
330
A
100
AcDbEntity
  8
0
  6
SLD-実線
 62
     7
370
    25
100
AcDbLine
 10
506.4768529562548
 20
163.5930672916394
 30
0.0
 11
506.4768529562548
 21
153.5930675151394
 31
0.0
  0
LINE
  5
4621
330
A
100
AcDbEntity
  8
0
  6
SLD-実線
 62
     7
370
    25
100
AcDbLine
 10
507.4768531202047
 20
163.5930672916394
 30
0.0
 11
506.4768529562548
 21
163.5930672916394
 31
0.0
  0
LINE
  5
4622
330
A
100
AcDbEntity
  8
0
  6
SLD-実線
 62
     7
370
    25
100
AcDbLine
 10
507.4768531202047
 20
162.0930675114394
 30
0.0
 11
518.9768531425548
 21
162.0930675114394
 31
0.0
  0
LINE
  5
4623
330
A
100
AcDbEntity
  8
0
  6
SLD-実線
 62
     7
370
    25
100
AcDbLine
 10
507.4768531202047
 20
155.0930672953894
 30
0.0
 11
507.4768531202047
 21
162.0930675114394
 31
0.0
  0
LINE
  5
4624
330
A
100
AcDbEntity
  8
0
  6
SLD-実線
 62
     7
370
    25
100
AcDbLine
 10
518.9768531425548
 20
155.0930672953894
 30
0.0
 11
507.4768531202047
 21
155.0930672953894
 31
0.0
  0
LINE
  5
4625
330
A
100
AcDbEntity
  8
0
  6
SLD-実線
 62
     7
370
    25
100
AcDbLine
 10
518.9768531425548
 20
153.5930675151394
 30
0.0
 11
518.9768531425548
 21
155.0930672953894
 31
0.0
  0
LINE
  5
4626
330
A
100
AcDbEntity
  8
0
  6
SLD-実線
 62
     7
370
    25
100
AcDbLine
 10
508.9768529004048
 20
153.5930675151394
 30
0.0
 11
518.9768531425548
 21
153.5930675151394
 31
0.0
  0
CIRCLE
  5
4627
330
A
100
AcDbEntity
  8
0
  6
SLD-実線
 62
     7
370
    25
100
AcDbCircle
 10
512.4768530084548
 20
158.5930674033894
 30
0.0
 40
10.0
  0
CIRCLE
  5
4628
330
A
100
AcDbEntity
  8
0
  6
SLD-実線
 62
     7
370
    25
100
AcDbCircle
 10
512.4768530084548
 20
158.5930674033894
 30
0.0
 40
12.0
  0
DIMENSION
  5
4629
330
A
100
AcDbEntity
  8
レイヤー_1
 62
     7
100
AcDbDimension
280
     0
  2
*D157
 10
524.0679629239065
 20
161.6988959446327
 30
0.0
 11
531.156892563042
 21
163.5983689166401
 31
0.0
 70
   160
  1
%%c<>
 71
     2
 42
24.0000000000092
 73
     0
 74
     1
 75
     1
  3
SLDDIMSTYLE0
100
AcDbAlignedDimension
 13
500.8857430929547
 23
155.4872388621894
 33
0.0
 14
524.0679629239047
 24
161.6988959446394
 34
0.0
 50
15.0
100
AcDbRotatedDimension
1001
ACAD
1000
DSTYLE
1002
{
1070
   140
1040
2.5
1070
   340
1005
C82
1002
}
  0
INSERT
  5
462C
330
A
100
AcDbEntity
  8
レイヤー_1
 62
     7
100
AcDbBlockReference
  2
SW_CENTERMARKSYMBOL_0
 10
512.4768530084548
 20
158.5930674033894
 30
0.0
 41
0.5
 42
0.5
 43
0.5
  0
LINE
  5
462D
330
A
100
AcDbEntity
  8
0
  6
SLD-実線
 62
     7
370
    25
100
AcDbLine
 10
585.2155402748047
 20
170.5930675076894
 30
0.0
 11
581.2155400848047
 21
170.5930675076894
 31
0.0
  0
LINE
  5
462E
330
A
100
AcDbEntity
  8
0
  6
SLD-実線
 62
     7
370
    25
100
AcDbLine
 10
581.2155400848047
 20
146.5930672990894
 30
0.0
 11
585.2155402748047
 21
146.5930672990894
 31
0.0
  0
LINE
  5
462F
330
A
100
AcDbEntity
  8
0
  6
SLD-実線
 62
     7
370
    25
100
AcDbLine
 10
585.2155402748047
 20
146.5930672990894
 30
0.0
 11
585.2155402748047
 21
170.5930675076894
 31
0.0
  0
LINE
  5
4630
330
A
100
AcDbEntity
  8
0
  6
SLD-実線
 62
     7
370
    25
100
AcDbLine
 10
581.2155400848047
 20
146.5930672990894
 30
0.0
 11
581.2155400848047
 21
170.5930675076894
 31
0.0
  0
LINE
  5
4631
330
A
100
AcDbEntity
  8
0
  6
SLD-実線
 62
     7
370
    25
100
AcDbLine
 10
566.7155400364047
 20
153.5930675151394
 30
0.0
 11
581.2155400848047
 21
153.5930675151394
 31
0.0
  0
LINE
  5
4632
330
A
100
AcDbEntity
  8
0
  6
SLD-実線
 62
     7
370
    25
100
AcDbLine
 10
566.7155400364047
 20
153.5930675151394
 30
0.0
 11
566.7155400364047
 21
155.0930672953894
 31
0.0
  0
LINE
  5
4633
330
A
100
AcDbEntity
  8
0
  6
SLD-実線
 62
     7
370
    25
100
AcDbLine
 10
566.7155400364047
 20
155.0930672953894
 30
0.0
 11
581.2155400848047
 21
155.0930672953894
 31
0.0
  0
LINE
  5
4634
330
A
100
AcDbEntity
  8
0
  6
SLD-実線
 62
     7
370
    25
100
AcDbLine
 10
566.7155400364047
 20
162.0930675114394
 30
0.0
 11
581.2155400848047
 21
162.0930675114394
 31
0.0
  0
LINE
  5
4635
330
A
100
AcDbEntity
  8
0
  6
SLD-実線
 62
     7
370
    25
100
AcDbLine
 10
566.7155400364047
 20
162.0930675114394
 30
0.0
 11
566.7155400364047
 21
163.5930672916394
 31
0.0
  0
LINE
  5
4636
330
A
100
AcDbEntity
  8
0
  6
SLD-実線
 62
     7
370
    25
100
AcDbLine
 10
566.7155400364047
 20
163.5930672916394
 30
0.0
 11
581.2155400848047
 21
163.5930672916394
 31
0.0
  0
LINE
  5
4637
330
A
100
AcDbEntity
  8
0
  6
SLD-実線
 62
     7
370
    25
100
AcDbLine
 10
566.7155400364047
 20
151.5930671873394
 30
0.0
 11
581.2155400848047
 21
151.5930671873394
 31
0.0
  0
LINE
  5
4638
330
A
100
AcDbEntity
  8
0
  6
SLD-実線
 62
     7
370
    25
100
AcDbLine
 10
566.7155400364047
 20
151.5930671873394
 30
0.0
 11
566.7155400364047
 21
153.5930675151394
 31
0.0
  0
LINE
  5
4639
330
A
100
AcDbEntity
  8
0
  6
SLD-実線
 62
     7
370
    25
100
AcDbLine
 10
566.7155400364047
 20
165.5930676194894
 30
0.0
 11
581.2155400848047
 21
165.5930676194894
 31
0.0
  0
LINE
  5
463A
330
A
100
AcDbEntity
  8
0
  6
SLD-実線
 62
     7
370
    25
100
AcDbLine
 10
566.7155400364047
 20
163.5930672916394
 30
0.0
 11
566.7155400364047
 21
165.5930676194894
 31
0.0
  0
LINE
  5
463B
330
A
100
AcDbEntity
  8
0
  6
SLD-実線
 62
     7
370
    25
100
AcDbLine
 10
566.7155400364047
 20
155.0930672953894
 30
0.0
 11
566.7155400364047
 21
162.0930675114394
 31
0.0
  0
DIMENSION
  5
463C
330
A
100
AcDbEntity
  8
レイヤー_1
 62
     7
100
AcDbDimension
280
     0
  2
*D158
 10
566.7155402748048
 20
178.5930674033894
 30
0.0
 11
575.9655402748047
 21
178.5930674033894
 31
0.0
 70
   160
  1
18
 71
     2
 42
36.99999999999977
 73
     0
 74
     0
 75
     0
  3
SLDDIMSTYLE3
100
AcDbAlignedDimension
 13
585.2155402748047
 23
170.5930674033894
 33
0.0
 14
566.7155402748048
 24
165.5930674033894
 34
0.0
100
AcDbRotatedDimension
1001
ACAD
1000
DSTYLE
1002
{
1070
   140
1040
2.5
1070
   340
1005
C82
1002
}
  0
DIMENSION
  5
463D
330
A
100
AcDbEntity
  8
レイヤー_1
 62
     7
100
AcDbDimension
280
     0
  2
*D159
 10
585.2155402748047
 20
173.7153774731894
 30
0.0
 11
593.6410402748047
 21
173.7153774731894
 31
0.0
 70
   160
  1
<>
 71
     2
 42
4.0
 73
     0
 74
     0
 75
     0
  3
SLDDIMSTYLE0
100
AcDbAlignedDimension
 13
581.2155402748047
 23
170.5930674033894
 33
0.0
 14
585.2155402748047
 24
170.5930674033894
 34
0.0
100
AcDbRotatedDimension
1001
ACAD
1000
DSTYLE
1002
{
1070
   140
1040
2.5
1070
   340
1005
C82
1002
}
  0
LINE
  5
4791
330
A
100
AcDbEntity
  8
998-図枠
 62
     7
100
AcDbLine
 10
639.4250200184739
 20
294.0872072606362
 30
0.0
 11
639.4250200184739
 21
17.08720726063618
 31
0.0
  0
LINE
  5
4792
330
A
100
AcDbEntity
  8
998-図枠
  6
Continuous
 62
     7
100
AcDbLine
 10
649.4250200184739
 20
155.5872072606362
 30
0.0
 11
634.4250200184739
 21
155.5872072606362
 31
0.0
  0
LINE
  5
4793
330
A
100
AcDbEntity
  8
998-図枠
  6
Continuous
 62
     7
100
AcDbLine
 10
494.4250200184739
 20
294.0872072606362
 30
0.0
 11
494.4250200184739
 21
304.0872072606362
 31
0.0
  0
LINE
  5
4794
330
A
100
AcDbEntity
  8
998-図枠
  6
Continuous
 62
     7
100
AcDbLine
 10
494.4250200184739
 20
17.08720726063618
 30
0.0
 11
494.4250200184739
 21
7.087207260636177
 31
0.0
  0
LINE
  5
4795
330
A
100
AcDbEntity
  8
998-図枠
  6
Continuous
 62
     7
100
AcDbLine
 10
544.4250200184739
 20
294.0872072606362
 30
0.0
 11
544.4250200184739
 21
304.0872072606362
 31
0.0
  0
LINE
  5
4796
330
A
100
AcDbEntity
  8
998-図枠
  6
Continuous
 62
     7
100
AcDbLine
 10
544.4250200184739
 20
17.08720726063618
 30
0.0
 11
544.4250200184739
 21
7.087207260636177
 31
0.0
  0
LINE
  5
4797
330
A
100
AcDbEntity
  8
998-図枠
  6
Continuous
 62
     7
100
AcDbLine
 10
594.4250200184739
 20
294.0872072606362
 30
0.0
 11
594.4250200184739
 21
304.0872072606362
 31
0.0
  0
LINE
  5
4798
330
A
100
AcDbEntity
  8
998-図枠
  6
Continuous
 62
     7
100
AcDbLine
 10
594.4250200184739
 20
17.08720726063618
 30
0.0
 11
594.4250200184739
 21
7.087207260636177
 31
0.0
  0
LINE
  5
4799
330
A
100
AcDbEntity
  8
998-図枠
 62
     7
100
AcDbLine
 10
449.4250200184739
 20
294.0872072606362
 30
0.0
 11
449.4250200184739
 21
17.08720726063618
 31
0.0
  0
LINE
  5
479A
330
A
100
AcDbEntity
  8
998-図枠
  6
Continuous
 62
     7
100
AcDbLine
 10
639.4250200184739
 20
255.5872072606362
 30
0.0
 11
649.4250200184739
 21
255.5872072606362
 31
0.0
  0
LINE
  5
479B
330
A
100
AcDbEntity
  8
998-図枠
  6
Continuous
 62
     7
100
AcDbLine
 10
449.4250200184739
 20
255.5872072606362
 30
0.0
 11
439.4250200184739
 21
255.5872072606362
 31
0.0
  0
LINE
  5
479C
330
A
100
AcDbEntity
  8
998-図枠
  6
Continuous
 62
     7
100
AcDbLine
 10
639.4250200184739
 20
205.5872072606362
 30
0.0
 11
649.4250200184739
 21
205.5872072606362
 31
0.0
  0
LINE
  5
479D
330
A
100
AcDbEntity
  8
998-図枠
  6
Continuous
 62
     7
100
AcDbLine
 10
449.4250200184739
 20
205.5872072606362
 30
0.0
 11
439.4250200184739
 21
205.5872072606362
 31
0.0
  0
LINE
  5
479E
330
A
100
AcDbEntity
  8
998-図枠
  6
Continuous
 62
     7
100
AcDbLine
 10
454.4250200184739
 20
155.5872072606362
 30
0.0
 11
439.4250200184739
 21
155.5872072606362
 31
0.0
  0
LINE
  5
479F
330
A
100
AcDbEntity
  8
998-図枠
  6
Continuous
 62
     7
100
AcDbLine
 10
639.4250200184739
 20
105.5872072606362
 30
0.0
 11
649.4250200184739
 21
105.5872072606362
 31
0.0
  0
LINE
  5
47A0
330
A
100
AcDbEntity
  8
998-図枠
  6
Continuous
 62
     7
100
AcDbLine
 10
449.4250200184739
 20
105.5872072606362
 30
0.0
 11
439.4250200184739
 21
105.5872072606362
 31
0.0
  0
LINE
  5
47A1
330
A
100
AcDbEntity
  8
998-図枠
  6
Continuous
 62
     7
100
AcDbLine
 10
639.4250200184739
 20
55.58720726063618
 30
0.0
 11
649.4250200184739
 21
55.58720726063618
 31
0.0
  0
LINE
  5
47A2
330
A
100
AcDbEntity
  8
998-図枠
  6
Continuous
 62
     7
100
AcDbLine
 10
449.4250200184739
 20
55.58720726063618
 30
0.0
 11
439.4250200184739
 21
55.58720726063618
 31
0.0
  0
MTEXT
  5
47A3
330
A
100
AcDbEntity
  8
998-図枠
  6
Continuous
 62
     7
100
AcDbMText
 10
644.0387263792738
 20
32.64022530383615
 30
0.0
 40
3.5
 41
0.0
 46
0.0
 71
     2
 72
     1
  1
F
  7
SLDTEXTSTYLE0
 73
     1
 44
1.0
  0
MTEXT
  5
47A4
330
A
100
AcDbEntity
  8
998-図枠
  6
Continuous
 62
     7
100
AcDbMText
 10
642.7731389288739
 20
282.0525263980362
 30
0.0
 40
3.5
 41
0.0
 46
0.0
 71
     2
 72
     1
  1
A
  7
SLDTEXTSTYLE0
 73
     1
 44
1.0
  0
MTEXT
  5
47A5
330
A
100
AcDbEntity
  8
998-図枠
  6
Continuous
 62
     7
100
AcDbMText
 10
643.4193628529739
 20
182.8404066821362
 30
0.0
 40
3.5
 41
0.0
 46
0.0
 71
     2
 72
     1
  1
C
  7
SLDTEXTSTYLE0
 73
     1
 44
1.0
  0
MTEXT
  5
47A6
330
A
100
AcDbEntity
  8
998-図枠
  6
Continuous
 62
     7
100
AcDbMText
 10
643.9455782069739
 20
82.84040668213618
 30
0.0
 40
3.5
 41
0.0
 46
0.0
 71
     2
 72
     1
  1
E
  7
SLDTEXTSTYLE0
 73
     1
 44
1.0
  0
MTEXT
  5
47A7
330
A
100
AcDbEntity
  8
998-図枠
  6
Continuous
 62
     7
100
AcDbMText
 10
642.8724878529739
 20
232.8404066821362
 30
0.0
 40
3.5
 41
0.0
 46
0.0
 71
     2
 72
     1
  1
B
  7
SLDTEXTSTYLE0
 73
     1
 44
1.0
  0
MTEXT
  5
47A8
330
A
100
AcDbEntity
  8
998-図枠
  6
Continuous
 62
     7
100
AcDbMText
 10
643.415716941174
 20
132.8404066821362
 30
0.0
 40
3.5
 41
0.0
 46
0.0
 71
     2
 72
     1
  1
D
  7
SLDTEXTSTYLE0
 73
     1
 44
1.0
  0
MTEXT
  5
47A9
330
A
100
AcDbEntity
  8
998-図枠
  6
Continuous
 62
     7
100
AcDbMText
 10
520.7149142979739
 20
299.0830088460361
 30
0.0
 40
3.5
 41
0.0
 46
0.0
 71
     2
 72
     1
  1
2
  7
SLDTEXTSTYLE0
 73
     1
 44
1.0
  0
MTEXT
  5
47AA
330
A
100
AcDbEntity
  8
998-図枠
  6
Continuous
 62
     7
100
AcDbMText
 10
465.8743998655739
 20
299.0830088460361
 30
0.0
 40
3.5
 41
0.0
 46
0.0
 71
     2
 72
     1
  1
1
  7
SLDTEXTSTYLE0
 73
     1
 44
1.0
  0
MTEXT
  5
47AB
330
A
100
AcDbEntity
  8
998-図枠
  6
Continuous
 62
     7
100
AcDbMText
 10
570.8809126665739
 20
299.0830088460361
 30
0.0
 40
3.5
 41
0.0
 46
0.0
 71
     2
 72
     1
  1
3
  7
SLDTEXTSTYLE0
 73
     1
 44
1.0
  0
MTEXT
  5
47AC
330
A
100
AcDbEntity
  8
998-図枠
  6
Continuous
 62
     7
100
AcDbMText
 10
620.7817348991739
 20
299.0830088460361
 30
0.0
 40
3.5
 41
0.0
 46
0.0
 71
     2
 72
     1
  1
4
  7
SLDTEXTSTYLE0
 73
     1
 44
1.0
  0
MTEXT
  5
47AD
330
A
100
AcDbEntity
  8
998-図枠
  6
Continuous
 62
     7
100
AcDbMText
 10
445.6070083028739
 20
132.8404066821362
 30
0.0
 40
3.5
 41
0.0
 46
0.0
 71
     2
 72
     1
  1
D
  7
SLDTEXTSTYLE0
 73
     1
 44
1.0
  0
MTEXT
  5
47AE
330
A
100
AcDbEntity
  8
998-図枠
  6
Continuous
 62
     7
100
AcDbMText
 10
445.6106542146739
 20
182.8404066821362
 30
0.0
 40
3.5
 41
0.0
 46
0.0
 71
     2
 72
     1
  1
C
  7
SLDTEXTSTYLE0
 73
     1
 44
1.0
  0
MTEXT
  5
47AF
330
A
100
AcDbEntity
  8
998-図枠
  6
Continuous
 62
     7
100
AcDbMText
 10
445.0637792146739
 20
232.9618673392362
 30
0.0
 40
3.5
 41
0.0
 46
0.0
 71
     2
 72
     1
  1
B
  7
SLDTEXTSTYLE0
 73
     1
 44
1.0
  0
MTEXT
  5
47B0
330
A
100
AcDbEntity
  8
998-図枠
  6
Continuous
 62
     7
100
AcDbMText
 10
445.6531889357739
 20
82.84040668213618
 30
0.0
 40
3.5
 41
0.0
 46
0.0
 71
     2
 72
     1
  1
E
  7
SLDTEXTSTYLE0
 73
     1
 44
1.0
  0
MTEXT
  5
47B1
330
A
100
AcDbEntity
  8
998-図枠
  6
Continuous
 62
     7
100
AcDbMText
 10
569.5004820713739
 20
15.48568043273618
 30
0.0
 40
3.5
 41
0.0
 46
0.0
 71
     2
 72
     1
  1
3
  7
SLDTEXTSTYLE0
 73
     1
 44
1.0
  0
MTEXT
  5
47B2
330
A
100
AcDbEntity
  8
998-図枠
  6
Continuous
 62
     7
100
AcDbMText
 10
619.404967957074
 20
15.48568060743618
 30
0.0
 40
3.5
 41
0.0
 46
0.0
 71
     2
 72
     1
  1
4
  7
SLDTEXTSTYLE0
 73
     1
 44
1.0
  0
MTEXT
  5
47B3
330
A
100
AcDbEntity
  8
998-図枠
  6
Continuous
 62
     7
100
AcDbMText
 10
444.9644302904739
 20
282.0548267218362
 30
0.0
 40
3.5
 41
0.0
 46
0.0
 71
     2
 72
     1
  1
A
  7
SLDTEXTSTYLE0
 73
     1
 44
1.0
  0
MTEXT
  5
47B4
330
A
100
AcDbEntity
  8
998-図枠
  6
Continuous
 62
     7
100
AcDbMText
 10
519.4092214236739
 20
15.48568043273618
 30
0.0
 40
3.5
 41
0.0
 46
0.0
 71
     2
 72
     1
  1
2
  7
SLDTEXTSTYLE0
 73
     1
 44
1.0
  0
MTEXT
  5
47B5
330
A
100
AcDbEntity
  8
998-図枠
  6
Continuous
 62
     7
100
AcDbMText
 10
464.4976329233739
 20
15.48568043273618
 30
0.0
 40
3.5
 41
0.0
 46
0.0
 71
     2
 72
     1
  1
1
  7
SLDTEXTSTYLE0
 73
     1
 44
1.0
  0
MTEXT
  5
47B6
330
A
100
AcDbEntity
  8
998-図枠
  6
Continuous
 62
     7
100
AcDbMText
 10
445.6471125048739
 20
33.61610123163618
 30
0.0
 40
3.5
 41
0.0
 46
0.0
 71
     2
 72
     1
  1
F
  7
SLDTEXTSTYLE0
 73
     1
 44
1.0
  0
MTEXT
  5
47B7
330
A
100
AcDbEntity
  8
図枠
370
     9
100
AcDbMText
 10
544.944507544242
 20
291.3110703860189
 30
0.0
 40
3.5
 41
105.651
 46
3.9375
 71
     1
 72
     1
  1
{\pxql;注.本図において寸法公差はJIS(並級)する。}
 73
     1
 44
1.0
  0
LINE
  5
47E4
330
A
100
AcDbEntity
  8
998-図枠
 62
     7
100
AcDbLine
 10
639.4250200184739
 20
294.0872072606362
 30
0.0
 11
449.4250200184739
 21
294.0872072606362
 31
0.0
  0
LINE
  5
47E5
330
A
100
AcDbEntity
  8
998-図枠
 62
     7
100
AcDbLine
 10
449.4250200184739
 20
17.08720726063618
 30
0.0
 11
639.4250200184739
 21
17.08720726063618
 31
0.0
  0
LINE
  5
47E6
330
A
100
AcDbEntity
  8
999-OFF
 62
     7
100
AcDbLine
 10
439.4250200184739
 20
7.087207260636177
 30
0.0
 11
439.4250200184739
 21
304.0872072606362
 31
0.0
  0
LINE
  5
47E7
330
A
100
AcDbEntity
  8
999-OFF
 62
     7
100
AcDbLine
 10
649.4250200184739
 20
304.0872072606362
 30
0.0
 11
649.4250200184739
 21
7.087207260636177
 31
0.0
  0
LINE
  5
47E8
330
A
100
AcDbEntity
  8
999-OFF
 62
     7
100
AcDbLine
 10
439.4250200184739
 20
304.0872072606362
 30
0.0
 11
649.4250200184739
 21
304.0872072606362
 31
0.0
  0
LINE
  5
47E9
330
A
100
AcDbEntity
  8
999-OFF
 62
     7
100
AcDbLine
 10
649.4250200184739
 20
7.087207260636177
 30
0.0
 11
439.4250200184739
 21
7.087207260636177
 31
0.0
  0
LINE
  5
47EA
330
A
100
AcDbEntity
  8
0
  6
Continuous
 62
     7
370
    50
100
AcDbLine
 10
544.4250200184739
 20
40.08720726063618
 30
0.0
 11
639.4250200184739
 21
40.08720726063618
 31
0.0
  0
LINE
  5
47EB
330
A
100
AcDbEntity
  8
0
  6
Continuous
 62
     7
370
    50
100
AcDbLine
 10
589.4250200184739
 20
64.08720726063618
 30
0.0
 11
589.4250200184739
 21
17.08720726063618
 31
0.0
  0
LINE
  5
47EC
330
A
100
AcDbEntity
  8
0
  6
Continuous
 62
     7
370
    50
100
AcDbLine
 10
639.4250200184739
 20
28.08720726063618
 30
0.0
 11
544.4250200184739
 21
28.08720726063618
 31
0.0
  0
LINE
  5
47ED
330
A
100
AcDbEntity
  8
0
  6
Continuous
 62
     7
370
    50
100
AcDbLine
 10
544.4250200184739
 20
24.08720726063618
 30
0.0
 11
589.4250200184739
 21
24.08720726063618
 31
0.0
  0
LINE
  5
47EE
330
A
100
AcDbEntity
  8
0
  6
Continuous
 62
     7
370
    50
100
AcDbLine
 10
573.3314002647738
 20
28.08720726063618
 30
0.0
 11
573.3314002647738
 21
17.08720726063618
 31
0.0
  0
LINE
  5
47EF
330
A
100
AcDbEntity
  8
0
  6
Continuous
 62
     7
370
    18
100
AcDbLine
 10
459.4250200184739
 20
64.08720726063618
 30
0.0
 11
459.4250200184739
 21
17.08720726063618
 31
0.0
  0
LINE
  5
47F0
330
A
100
AcDbEntity
  8
0
  6
Continuous
 62
     7
370
    18
100
AcDbLine
 10
494.4250200184739
 20
64.08720726063618
 30
0.0
 11
494.4250200184739
 21
17.08720726063618
 31
0.0
  0
LINE
  5
47F1
330
A
100
AcDbEntity
  8
0
  6
Continuous
 62
     7
370
    18
100
AcDbLine
 10
504.4250200184739
 20
64.08720726063618
 30
0.0
 11
504.4250200184739
 21
17.08720726063618
 31
0.0
  0
LINE
  5
47F2
330
A
100
AcDbEntity
  8
0
  6
Continuous
 62
     7
370
    50
100
AcDbLine
 10
519.4250200184739
 20
64.08720726063618
 30
0.0
 11
519.4250200184739
 21
17.08720726063618
 31
0.0
  0
LINE
  5
47F3
330
A
100
AcDbEntity
  8
0
  6
Continuous
 62
     7
370
    50
100
AcDbLine
 10
530.2939341635739
 20
60.08720726063618
 30
0.0
 11
530.2939341635739
 21
17.08720726063618
 31
0.0
  0
LINE
  5
47F4
330
A
100
AcDbEntity
  8
0
  6
Continuous
 62
     7
370
    50
100
AcDbLine
 10
449.4250200184739
 20
22.0872072606362
 30
0.0
 11
519.4250200184739
 21
22.08720726063618
 31
0.0
  0
LINE
  5
47F5
330
A
100
AcDbEntity
  8
0
  6
Continuous
 62
     7
370
    50
100
AcDbLine
 10
544.4250200184739
 20
36.08720726063618
 30
0.0
 11
639.4250200184739
 21
36.08720726063618
 31
0.0
  0
LINE
  5
47F6
330
A
100
AcDbEntity
  8
0
  6
Continuous
 62
     7
370
    50
100
AcDbLine
 10
544.4250200184739
 20
64.08720726063618
 30
0.0
 11
544.4250200184739
 21
17.08720726063618
 31
0.0
  0
LINE
  5
47F7
330
A
100
AcDbEntity
  8
0
  6
Continuous
 62
     7
370
    50
100
AcDbLine
 10
625.2499903774739
 20
17.08720726063618
 30
0.0
 11
625.2499903774739
 21
28.08720726063618
 31
0.0
  0
LINE
  5
47F8
330
A
100
AcDbEntity
  8
0
  6
Continuous
 62
     7
370
    50
100
AcDbLine
 10
639.4250200184739
 20
48.08720726063618
 30
0.0
 11
544.4250200184739
 21
48.08720726063618
 31
0.0
  0
LINE
  5
47F9
330
A
100
AcDbEntity
  8
0
  6
Continuous
 62
     7
370
    18
100
AcDbLine
 10
561.1299396040739
 20
22.01649720693618
 30
0.0
 11
565.082631959274
 21
22.61649720693617
 31
0.0
  0
LINE
  5
47FA
330
A
100
AcDbEntity
  8
0
  6
Continuous
 62
     7
370
    18
100
AcDbLine
 10
567.2018465352738
 20
20.81649720693618
 30
0.0
 11
553.534103090174
 21
20.81649720693618
 31
0.0
  0
LINE
  5
47FB
330
A
100
AcDbEntity
  8
0
  6
Continuous
 62
     7
370
    18
100
AcDbLine
 10
556.4357281862739
 20
23.13942911013618
 30
0.0
 11
556.4357281862739
 21
18.33942911013618
 31
0.0
  0
LINE
  5
47FC
330
A
100
AcDbEntity
  8
0
  6
Continuous
 62
     7
370
    18
100
AcDbLine
 10
561.1299396040739
 20
19.61649720693617
 30
0.0
 11
565.106443359074
 21
19.01649720693618
 31
0.0
  0
LINE
  5
47FD
330
A
100
AcDbEntity
  8
0
  6
Continuous
 62
     7
370
    18
100
AcDbLine
 10
561.1299396040739
 20
22.01649720693618
 30
0.0
 11
561.1299396040739
 21
19.61649720693617
 31
0.0
  0
LINE
  5
47FE
330
A
100
AcDbEntity
  8
0
  6
Continuous
 62
     7
370
    18
100
AcDbLine
 10
565.106443359074
 20
19.01649720693618
 30
0.0
 11
565.082631959274
 21
22.61649720693617
 31
0.0
  0
CIRCLE
  5
47FF
330
A
100
AcDbEntity
  8
0
  6
Continuous
 62
     7
370
    18
100
AcDbCircle
 10
556.4357281862739
 20
20.81649720693618
 30
0.0
 40
1.800000000000014
  0
CIRCLE
  5
4800
330
A
100
AcDbEntity
  8
0
  6
Continuous
 62
     7
370
    18
100
AcDbCircle
 10
556.4357281862739
 20
20.81649720693618
 30
0.0
 40
1.199999999999995
  0
MTEXT
  5
4801
330
A
100
AcDbEntity
  8
0
  6
Continuous
 62
     7
370
     0
100
AcDbMText
 10
628.749949671074
 20
24.83390124733617
 30
0.0
 40
3.5
 41
0.0
 46
0.0
 71
     1
 72
     1
  1
1/1
  7
SLDTEXTSTYLE1
 73
     1
 44
1.0
  0
MTEXT
  5
4802
330
A
100
AcDbEntity
  8
997-図枠_文字
  6
Continuous
 62
     7
100
AcDbMText
 10
454.4250200184739
 20
19.58720726063619
 30
0.0
 40
2.5
 41
6.219000000000051
 46
3.0
 71
     5
 72
     1
  1
{NO.}
 73
     1
 44
1.0
  0
MTEXT
  5
4803
330
A
100
AcDbEntity
  8
997-図枠_文字
  6
Continuous
 62
     7
100
AcDbMText
 10
476.9250200184739
 20
19.58720726063618
 30
0.0
 40
2.5
 41
59.33400000000006
 46
3.135
 71
     5
 72
     1
  1
{\W0.5;改定履歴 / REVISION HISTORY}
 73
     1
 44
1.0
  0
MTEXT
  5
4804
330
A
100
AcDbEntity
  8
997-図枠_文字
  6
Continuous
 62
     7
100
AcDbMText
 10
499.4250200184739
 20
19.58720726063618
 30
0.0
 40
2.5
 41
11.66687956747364
 46
8.549
 71
     5
 72
     1
  1
{日付}
 73
     1
 44
1.0
  0
MTEXT
  5
4805
330
A
100
AcDbEntity
  8
997-図枠_文字
  6
Continuous
 62
     7
100
AcDbMText
 10
511.9250200184739
 20
19.58720726063618
 30
0.0
 40
2.5
 41
32.42848736245901
 46
3.135
 71
     5
 72
     1
  1
{\W0.5;名前 / NAME}
 73
     1
 44
1.0
  0
LINE
  5
4806
330
A
100
AcDbEntity
  8
0
  6
Continuous
 62
     7
370
    50
100
AcDbLine
 10
544.4250200184739
 20
52.08720726063618
 30
0.0
 11
639.4250200184739
 21
52.08720726063618
 31
0.0
  0
LINE
  5
4807
330
A
100
AcDbEntity
  8
0
  6
Continuous
 62
     7
370
    50
100
AcDbLine
 10
449.4250200184739
 20
64.08720726063618
 30
0.0
 11
639.4250200184739
 21
64.08720726063618
 31
0.0
  0
LINE
  5
4808
330
A
100
AcDbEntity
  8
0
  6
Continuous
 62
     7
370
    50
100
AcDbLine
 10
639.4250200184739
 20
60.08720726063618
 30
0.0
 11
519.4250200184739
 21
60.08720726063618
 31
0.0
  0
LINE
  5
4809
330
A
100
AcDbEntity
  8
0
  6
Continuous
 62
     7
370
    18
100
AcDbLine
 10
449.4250200184739
 20
43.08720726063615
 30
0.0
 11
519.4250200184739
 21
43.08720726063618
 31
0.0
  0
LINE
  5
480A
330
A
100
AcDbEntity
  8
0
  6
Continuous
 62
     7
370
    18
100
AcDbLine
 10
449.4250200184739
 20
53.58720726063615
 30
0.0
 11
519.4250200184739
 21
53.58720726063618
 31
0.0
  0
LINE
  5
480B
330
A
100
AcDbEntity
  8
0
  6
Continuous
 62
     7
370
    18
100
AcDbLine
 10
449.4250200184739
 20
32.58720726063621
 30
0.0
 11
519.4250200184739
 21
32.58720726063618
 31
0.0
  0
LINE
  5
480C
330
A
100
AcDbEntity
  8
0
  6
Continuous
 62
     7
370
    18
100
AcDbLine
 10
449.4250200184739
 20
58.83720726063618
 30
0.0
 11
519.4250200184739
 21
58.83720726063618
 31
0.0
  0
LINE
  5
480D
330
A
100
AcDbEntity
  8
0
  6
Continuous
 62
     7
370
    18
100
AcDbLine
 10
449.4250200184739
 20
48.33720726063615
 30
0.0
 11
519.4250200184739
 21
48.33720726063618
 31
0.0
  0
LINE
  5
480E
330
A
100
AcDbEntity
  8
0
  6
Continuous
 62
     7
370
    18
100
AcDbLine
 10
449.4250200184739
 20
37.83720726063621
 30
0.0
 11
519.4250200184739
 21
37.83720726063618
 31
0.0
  0
LINE
  5
480F
330
A
100
AcDbEntity
  8
0
  6
Continuous
 62
     7
370
    18
100
AcDbLine
 10
449.4250200184739
 20
27.3372072606362
 30
0.0
 11
519.4250200184739
 21
27.33720726063618
 31
0.0
  0
LINE
  5
4810
330
A
100
AcDbEntity
  8
0
  6
Continuous
 62
     7
370
    50
100
AcDbLine
 10
544.4250200184739
 20
38.58720726063618
 30
0.0
 11
519.4250200184739
 21
38.58720726063618
 31
0.0
  0
LINE
  5
4811
330
A
100
AcDbEntity
  8
0
  6
Continuous
 62
     7
370
    50
100
AcDbLine
 10
544.4250200184739
 20
49.33720726063618
 30
0.0
 11
519.4250200184739
 21
49.33720726063618
 31
0.0
  0
LINE
  5
4812
330
A
100
AcDbEntity
  8
0
  6
Continuous
 62
     7
370
    50
100
AcDbLine
 10
544.4250200184739
 20
27.83720726063618
 30
0.0
 11
519.4250200184739
 21
27.83720726063618
 31
0.0
  0
LINE
  5
4813
330
A
100
AcDbEntity
  8
0
  6
Continuous
 62
     7
370
    50
100
AcDbLine
 10
544.4250200184739
 20
22.46220726063618
 30
0.0
 11
519.4250200184739
 21
22.46220726063618
 31
0.0
  0
MTEXT
  5
4814
330
A
100
AcDbEntity
  8
997-図枠_文字
  6
Continuous
 62
     7
100
AcDbMText
 10
524.8594770910239
 20
19.77470726063618
 30
0.0
 40
2.5
 41
0.0
 46
0.0
 71
     5
 72
     1
  1
日付
 73
     1
 44
1.0
  0
MTEXT
  5
4815
330
A
100
AcDbEntity
  8
997-図枠_文字
  6
Continuous
 62
     7
100
AcDbMText
 10
524.8594770910239
 20
25.14970726063618
 30
0.0
 40
2.5
 41
0.0
 46
0.0
 71
     5
 72
     1
  1
製図
 73
     1
 44
1.0
  0
MTEXT
  5
4816
330
A
100
AcDbEntity
  8
997-図枠_文字
  6
Continuous
 62
     7
100
AcDbMText
 10
524.8594770910239
 20
33.21220726063618
 30
0.0
 40
2.5
 41
0.0
 46
0.0
 71
     5
 72
     1
  1
設計
 73
     1
 44
1.0
  0
MTEXT
  5
4817
330
A
100
AcDbEntity
  8
997-図枠_文字
  6
Continuous
 62
     7
100
AcDbMText
 10
524.8594770910239
 20
43.96220726063618
 30
0.0
 40
2.5
 41
0.0
 46
0.0
 71
     5
 72
     1
  1
検認
 73
     1
 44
1.0
  0
MTEXT
  5
4818
330
A
100
AcDbEntity
  8
997-図枠_文字
  6
Continuous
 62
     7
100
AcDbMText
 10
524.8594770910239
 20
54.71220726063618
 30
0.0
 40
2.5
 41
0.0
 46
0.0
 71
     5
 72
     1
  1
検認
 73
     1
 44
1.0
  0
MTEXT
  5
4819
330
A
100
AcDbEntity
  8
997-図枠_文字
  6
Continuous
 62
     7
100
AcDbMText
 10
537.3594770910239
 20
19.77470726063618
 30
0.0
 40
2.5
 41
31.48042338568848
 46
2.6125
 71
     5
 72
     1
  1
{\pxqc;\W0.5;2019/10/21}
 73
     1
 44
1.0
  0
MTEXT
  5
481A
330
A
100
AcDbEntity
  8
997-図枠_文字
  6
Continuous
 62
     7
100
AcDbMText
 10
537.3594770910239
 20
25.14970726063618
 30
0.0
 40
2.5
 41
31.4804233856886
 46
3.255
 71
     5
 72
     1
  1
{\pxqc;岩下}
 73
     1
 44
1.0
  0
MTEXT
  5
481B
330
A
100
AcDbEntity
  8
997-図枠_文字
  6
Continuous
 62
     7
100
AcDbMText
 10
537.3594770910239
 20
33.21220726063618
 30
0.0
 40
2.5
 41
31.4804233856886
 46
3.357
 71
     5
 72
     1
  1
{\pxqc;小林}
 73
     1
 44
1.0
  0
MTEXT
  5
481C
330
A
100
AcDbEntity
  8
997-図枠_文字
  6
Continuous
 62
     7
100
AcDbMText
 10
537.3594770910239
 20
43.96220726063618
 30
0.0
 40
2.5
 41
31.4804233856886
 46
3.357
 71
     5
 72
     1
  1
{\pxqc;小林}
 73
     1
 44
1.0
  0
MTEXT
  5
481D
330
A
100
AcDbEntity
  8
997-図枠_文字
  6
Continuous
 62
     7
100
AcDbMText
 10
537.3594770910239
 20
54.71220726063618
 30
0.0
 40
2.5
 41
31.4804233856886
 46
3.357
 71
     5
 72
     1
  1
{\pxqc;原}
 73
     1
 44
1.0
  0
MTEXT
  5
481E
330
A
100
AcDbEntity
  8
997-図枠_文字
  6
Continuous
 62
     7
100
AcDbMText
 10
531.9250200184739
 20
62.08720726063618
 30
0.0
 40
2.5
 41
0.0
 46
0.0
 71
     5
 72
     1
  1
名前 / NAME
 73
     1
 44
1.0
  0
MTEXT
  5
4843
330
A
100
AcDbEntity
  8
997-図枠_文字
  6
Continuous
 62
     7
100
AcDbMText
 10
566.9250200184739
 20
32.08720726063619
 30
0.0
 40
2.5
 41
71.0461698193127
 46
2.9825
 71
     5
 72
     1
  1
{約5g}
 73
     1
 44
1.0
  0
MTEXT
  5
4844
330
A
100
AcDbEntity
  8
997-図枠_文字
  6
Continuous
 62
     7
100
AcDbMText
 10
566.9250200184739
 20
38.08720726063619
 30
0.0
 40
2.5
 41
72.17167895256375
 46
2.6125
 71
     5
 72
     1
  1
{重量 / WEIGHT}
 73
     1
 44
1.0
  0
MTEXT
  5
4845
330
A
100
AcDbEntity
  8
997-図枠_文字
  6
Continuous
 62
     7
100
AcDbMText
 10
566.9250200184739
 20
44.08720726063616
 30
0.0
 40
2.5
 41
72.61422673335937
 46
2.5
 71
     5
 72
     1
  1
{PC}
 73
     1
 44
1.0
  0
MTEXT
  5
4846
330
A
100
AcDbEntity
  8
997-図枠_文字
  6
Continuous
 62
     7
100
AcDbMText
 10
566.9250200184739
 20
50.08720726063618
 30
0.0
 40
2.5
 41
37.62378883580891
 46
3.135
 71
     5
 72
     1
  1
\pi6.34839,l0;光源 / LIGHT
 73
     1
 44
1.0
  0
MTEXT
  5
4847
330
A
100
AcDbEntity
  8
997-図枠_文字
  6
Continuous
 62
     7
100
AcDbMText
 10
566.9250200184739
 20
56.08720726063619
 30
0.0
 40
2.5
 41
73.25769728997102
 46
2.5
 71
     5
 72
     1
  1
{\pxqc;-}
 73
     1
 44
1.0
  0
MTEXT
  5
4848
330
A
100
AcDbEntity
  8
997-図枠_文字
  6
Continuous
 62
     7
100
AcDbMText
 10
566.9250200184739
 20
62.08720726063616
 30
0.0
 40
2.5
 41
0.0
 46
2.6125
 71
     5
 72
     1
  1
{\W0.5;消費電力 / POWER CONSUMPTION}
 73
     1
 44
1.0
  0
MTEXT
  5
4849
330
A
100
AcDbEntity
  8
997-図枠_文字
  6
Continuous
 62
     7
100
AcDbMText
 10
614.4250200184739
 20
62.08720726063618
 30
0.0
 40
2.5
 41
76.36279484668648
 46
2.6125
 71
     5
 72
     1
  1
{品番 / PART NO.}
 73
     1
 44
1.0
  0
MTEXT
  5
484A
330
A
100
AcDbEntity
  8
997-図枠_文字
  6
Continuous
 62
     7
100
AcDbMText
 10
614.4250200184739
 20
56.08720726063616
 30
0.0
 40
2.5
 41
73.25769728997102
 46
2.5
 71
     5
 72
     1
  1
{GHCE-005}
 73
     1
 44
1.0
  0
MTEXT
  5
484B
330
A
100
AcDbEntity
  8
997-図枠_文字
  6
Continuous
 62
     7
100
AcDbMText
 10
614.4250200184739
 20
50.08720726063618
 30
0.0
 40
2.5
 41
0.0
 46
3.135
 71
     5
 72
     1
  1
{品名 / DRAWING NAME}
 73
     1
 44
1.0
  0
MTEXT
  5
484C
330
A
100
AcDbEntity
  8
997-図枠_文字
  6
Continuous
 62
     7
100
AcDbMText
 10
614.4250200184739
 20
44.08720726063618
 30
0.0
 40
2.5
 41
72.61422673335937
 46
2.585
 71
     5
 72
     1
  1
{\W0.9;ローボルトレール用エンドキャップ}
 73
     1
 44
1.0
  0
MTEXT
  5
484D
330
A
100
AcDbEntity
  8
997-図枠_文字
  6
Continuous
 62
     7
100
AcDbMText
 10
614.9990593202946
 20
38.08720726063616
 30
0.0
 40
2.5
 41
76.96280320599999
 46
3.135
 71
     5
 72
     1
  1
{コード番号 / CODE NO.}
 73
     1
 44
1.0
  0
MTEXT
  5
484E
330
A
100
AcDbEntity
  8
997-図枠_文字
  6
Continuous
 62
     7
100
AcDbMText
 10
614.9990593202946
 20
32.08720726063616
 30
0.0
 40
2.5
 41
72.61422673335937
 46
2.5
 71
     5
 72
     1
  1
{5874229}
 73
     1
 44
1.0
  0
MTEXT
  5
484F
330
A
100
AcDbEntity
  8
997-図枠_文字
  6
Continuous
 62
     7
100
AcDbMText
 10
558.878210141624
 20
26.08720726063618
 30
0.0
 40
2.5
 41
0.0
 46
2.6125
 71
     5
 72
     1
  1
{\W0.5;投影法 / PROJECTION}
 73
     1
 44
1.0
  0
MTEXT
  5
4850
330
A
100
AcDbEntity
  8
997-図枠_文字
  6
Continuous
 62
     7
100
AcDbMText
 10
581.378210141624
 20
26.08720726063618
 30
0.0
 40
2.5
 41
0.0
 46
2.6125
 71
     5
 72
     1
  1
{\W0.5;尺度 / SCALE}
 73
     1
 44
1.0
  0
MTEXT
  5
4851
330
A
100
AcDbEntity
  8
997-図枠_文字
  6
Continuous
 62
     7
100
AcDbMText
 10
581.378210141624
 20
20.58720726063618
 30
0.0
 40
2.5
 41
32.84561120864851
 46
2.5
 71
     5
 72
     1
  1
{\pxqc;1 : 1}
 73
     1
 44
1.0
  0
MTEXT
  5
487F
330
A
100
AcDbEntity
  8
1
  6
Continuous
 62
     7
100
AcDbMText
 10
638.9552924488753
 20
71.01370868445564
 30
0.0
 40
3.0
 41
52.6294105837228
 46
9.229
 71
     5
 72
     1
  1
{\pxql;【COLOR】\P\pt0.277778;KTC：ブラック}
 73
     1
 44
1.0
  0
POLYLINE
  5
490A
330
A
100
AcDbEntity
  8
図枠
 62
     0
370
     0
100
AcDb2dPolyline
 66
     1
 10
0.0
 20
0.0
 30
0.0
  0
VERTEX
  5
490B
330
490A
100
AcDbEntity
  8
図枠
 62
     0
370
     0
100
AcDbVertex
100
AcDb2dVertex
 10
602.6849270865176
 20
24.24935107160815
 30
0.0
  0
VERTEX
  5
490C
330
490A
100
AcDbEntity
  8
図枠
 62
     0
370
     0
100
AcDbVertex
100
AcDb2dVertex
 10
602.2450775882818
 20
24.24935107160815
 30
0.0
  0
VERTEX
  5
490D
330
490A
100
AcDbEntity
  8
図枠
 62
     0
370
     0
100
AcDbVertex
100
AcDb2dVertex
 10
602.2450775882818
 20
25.37450223756156
 30
0.0
  0
VERTEX
  5
490E
330
490A
100
AcDbEntity
  8
図枠
 62
     0
370
     0
100
AcDbVertex
100
AcDb2dVertex
 10
602.2040550831322
 20
25.37450223756156
 30
0.0
  0
VERTEX
  5
490F
330
490A
100
AcDbEntity
  8
図枠
 62
     0
370
     0
100
AcDbVertex
100
AcDb2dVertex
 10
601.6414794859444
 20
25.37450223756156
 30
0.0
  0
VERTEX
  5
4910
330
490A
100
AcDbEntity
  8
図枠
 62
     0
370
     0
100
AcDbVertex
100
AcDb2dVertex
 10
601.6414794859444
 20
24.24935107160815
 30
0.0
  0
VERTEX
  5
4911
330
490A
100
AcDbEntity
  8
図枠
 62
     0
370
     0
100
AcDbVertex
100
AcDb2dVertex
 10
601.2690728770964
 20
24.24935107160815
 30
0.0
  0
VERTEX
  5
4912
330
490A
100
AcDbEntity
  8
図枠
 62
     0
370
     0
100
AcDbVertex
100
AcDb2dVertex
 10
601.2690728770964
 20
23.68023604975607
 30
0.0
  0
VERTEX
  5
4913
330
490A
100
AcDbEntity
  8
図枠
 62
     0
370
     0
100
AcDbVertex
100
AcDb2dVertex
 10
601.6414794859444
 20
23.68023604975607
 30
0.0
  0
VERTEX
  5
4914
330
490A
100
AcDbEntity
  8
図枠
 62
     0
370
     0
100
AcDbVertex
100
AcDb2dVertex
 10
601.6414794859444
 20
20.1172135862277
 30
0.0
  0
VERTEX
  5
4915
330
490A
100
AcDbEntity
  8
図枠
 62
     0
370
     0
100
AcDbVertex
100
AcDb2dVertex
 10
602.2450775882818
 20
20.1172135862277
 30
0.0
  0
VERTEX
  5
4916
330
490A
100
AcDbEntity
  8
図枠
 62
     0
370
     0
100
AcDbVertex
100
AcDb2dVertex
 10
602.2450775882818
 20
23.68023604975607
 30
0.0
  0
VERTEX
  5
4917
330
490A
100
AcDbEntity
  8
図枠
 62
     0
370
     0
100
AcDbVertex
100
AcDb2dVertex
 10
602.6849270865176
 20
23.68023604975607
 30
0.0
  0
VERTEX
  5
4918
330
490A
100
AcDbEntity
  8
図枠
 62
     0
370
     0
100
AcDbVertex
100
AcDb2dVertex
 10
602.6849270865176
 20
24.24935107160815
 30
0.0
  0
SEQEND
  5
4919
330
490A
100
AcDbEntity
  8
図枠
 62
     0
370
     0
  0
SPLINE
  5
491A
330
A
100
AcDbEntity
  8
図枠
 62
     0
370
     0
100
AcDbSpline
210
0.0
220
0.0
230
1.0
 70
    11
 71
     3
 72
    77
 73
    73
 74
     0
 42
0.000000001
 43
0.0000000001
 40
0.0
 40
0.0
 40
0.0
 40
0.0
 40
1.0
 40
1.0
 40
1.0
 40
2.0
 40
2.0
 40
2.0
 40
3.0
 40
3.0
 40
3.0
 40
4.0
 40
4.0
 40
4.0
 40
5.0
 40
5.0
 40
5.0
 40
6.0
 40
6.0
 40
6.0
 40
7.0
 40
7.0
 40
7.0
 40
8.0
 40
8.0
 40
8.0
 40
9.0
 40
9.0
 40
9.0
 40
10.0
 40
10.0
 40
10.0
 40
11.0
 40
11.0
 40
11.0
 40
12.0
 40
12.0
 40
12.0
 40
13.0
 40
13.0
 40
13.0
 40
14.0
 40
14.0
 40
14.0
 40
15.0
 40
15.0
 40
15.0
 40
16.0
 40
16.0
 40
16.0
 40
17.0
 40
17.0
 40
17.0
 40
18.0
 40
18.0
 40
18.0
 40
19.0
 40
19.0
 40
19.0
 40
20.0
 40
20.0
 40
20.0
 40
21.0
 40
21.0
 40
21.0
 40
22.0
 40
22.0
 40
22.0
 40
23.0
 40
23.0
 40
23.0
 40
24.0
 40
24.0
 40
24.0
 40
24.0
 10
602.8758839590802
 20
23.57227335860965
 30
0.0
 10
602.8758839590802
 20
23.57227335860965
 30
0.0
 10
602.8758839590802
 20
23.57227335860965
 30
0.0
 10
602.8758839590802
 20
23.57227335860965
 30
0.0
 10
602.8758839590802
 20
23.57227335860965
 30
0.0
 10
602.8192088207235
 20
23.56047765106528
 30
0.0
 10
602.8192088207235
 20
23.56047765106528
 30
0.0
 10
602.8192088207235
 20
23.56047765106528
 30
0.0
 10
602.8192088207235
 20
23.04176464924955
 30
0.0
 10
602.8192088207235
 20
23.04176464924955
 30
0.0
 10
602.8192088207235
 20
23.04176464924955
 30
0.0
 10
602.900124530305
 20
23.05253240028196
 30
0.0
 10
602.900124530305
 20
23.05253240028196
 30
0.0
 10
603.8145692209581
 20
23.18205686888323
 30
0.0
 10
604.3087827305004
 20
23.57303127268259
 30
0.0
 10
604.5005012244771
 20
24.3944005531823
 30
0.0
 10
604.5005012244771
 20
24.3944005531823
 30
0.0
 10
605.3616061533131
 20
24.3944005531823
 30
0.0
 10
605.3616061533131
 20
24.3944005531823
 30
0.0
 10
605.3616061533131
 20
24.3944005531823
 30
0.0
 10
605.3616061533131
 20
23.63511654779362
 30
0.0
 10
605.3616061533131
 20
23.63511654779362
 30
0.0
 10
605.3616061533131
 20
23.63511654779362
 30
0.0
 10
604.7135188552505
 20
23.63511654779362
 30
0.0
 10
604.7135188552505
 20
23.63511654779362
 30
0.0
 10
604.7135188552505
 20
23.63511654779362
 30
0.0
 10
604.7135188552505
 20
23.06573889787385
 30
0.0
 10
604.7135188552505
 20
23.06573889787385
 30
0.0
 10
604.7135188552505
 20
23.06573889787385
 30
0.0
 10
605.6064280438405
 20
23.06573889787385
 30
0.0
 10
605.6064280438405
 20
23.06573889787385
 30
0.0
 10
605.7277359511937
 20
23.06573889787385
 30
0.0
 10
605.9313777597271
 20
23.11164628403936
 30
0.0
 10
605.9313777597271
 20
23.42057567961185
 30
0.0
 10
605.9313777597271
 20
23.42057567961185
 30
0.0
 10
605.9313777597271
 20
24.65960237554813
 30
0.0
 10
605.9313777597271
 20
24.65960237554813
 30
0.0
 10
605.9313777597271
 20
24.8064114651723
 30
0.0
 10
605.8162153493048
 20
24.96401456836183
 30
0.0
 10
605.6294867887328
 20
24.96401456836183
 30
0.0
 10
605.6294867887328
 20
24.96401456836183
 30
0.0
 10
604.581154305984
 20
24.96401456836183
 30
0.0
 10
604.581154305984
 20
24.96401456836183
 30
0.0
 10
604.583229067767
 20
25.03198271218111
 30
0.0
 10
604.5939968187996
 20
25.30306740325486
 30
0.0
 10
604.5939968187996
 20
25.30306740325486
 30
0.0
 10
604.5939968187996
 20
25.30306740325486
 30
0.0
 10
604.5939968187996
 20
25.37450223756156
 30
0.0
 10
604.5939968187996
 20
25.37450223756156
 30
0.0
 10
604.5939968187996
 20
25.37450223756156
 30
0.0
 10
604.5541036143678
 20
25.37450223756156
 30
0.0
 10
604.5541036143678
 20
25.37450223756156
 30
0.0
 10
604.5541036143678
 20
25.37450223756156
 30
0.0
 10
603.9650025817124
 20
25.37450223756156
 30
0.0
 10
603.9650025817124
 20
25.37450223756156
 30
0.0
 10
603.9650025817124
 20
25.37450223756156
 30
0.0
 10
603.9650025817124
 20
25.30306740325486
 30
0.0
 10
603.9650025817124
 20
25.30306740325486
 30
0.0
 10
603.9650025817124
 20
25.30306740325486
 30
0.0
 10
603.9584631426718
 20
25.02518064523692
 30
0.0
 10
603.956388380887
 20
24.96401456836183
 30
0.0
 10
603.956388380887
 20
24.96401456836183
 30
0.0
 10
602.6581390229761
 20
24.96401456836183
 30
0.0
 10
602.6581390229761
 20
24.96401456836183
 30
0.0
 10
602.6581390229761
 20
24.96401456836183
 30
0.0
 10
602.6581390229761
 20
24.3944005531823
 30
0.0
 10
602.6581390229761
 20
24.3944005531823
 30
0.0
 10
602.6581390229761
 20
24.3944005531823
 30
0.0
 10
603.8793333039924
 20
24.3944005531823
 30
0.0
 10
603.8793333039924
 20
24.3944005531823
 30
0.0
 10
603.7539021358775
 20
23.90927398725422
 30
0.0
 10
603.4607566797455
 20
23.69308227262278
 30
0.0
 10
602.8758839590802
 20
23.57227335860965
 30
0.0
  0
SPLINE
  5
491B
330
A
100
AcDbEntity
  8
図枠
 62
     0
370
     0
100
AcDbSpline
210
0.0
220
0.0
230
1.0
 70
    11
 71
     3
 72
    74
 73
    70
 74
     0
 42
0.000000001
 43
0.0000000001
 40
0.0
 40
0.0
 40
0.0
 40
0.0
 40
1.0
 40
1.0
 40
1.0
 40
2.0
 40
2.0
 40
2.0
 40
3.0
 40
3.0
 40
3.0
 40
4.0
 40
4.0
 40
4.0
 40
5.0
 40
5.0
 40
5.0
 40
6.0
 40
6.0
 40
6.0
 40
7.0
 40
7.0
 40
7.0
 40
8.0
 40
8.0
 40
8.0
 40
9.0
 40
9.0
 40
9.0
 40
10.0
 40
10.0
 40
10.0
 40
11.0
 40
11.0
 40
11.0
 40
12.0
 40
12.0
 40
12.0
 40
13.0
 40
13.0
 40
13.0
 40
14.0
 40
14.0
 40
14.0
 40
15.0
 40
15.0
 40
15.0
 40
16.0
 40
16.0
 40
16.0
 40
17.0
 40
17.0
 40
17.0
 40
18.0
 40
18.0
 40
18.0
 40
19.0
 40
19.0
 40
19.0
 40
20.0
 40
20.0
 40
20.0
 40
21.0
 40
21.0
 40
21.0
 40
22.0
 40
22.0
 40
22.0
 40
23.0
 40
23.0
 40
23.0
 40
23.0
 10
603.8424077967967
 20
22.73847806320332
 30
0.0
 10
603.8424077967967
 20
22.73847806320332
 30
0.0
 10
603.3475377170702
 20
22.73847806320332
 30
0.0
 10
603.3475377170702
 20
22.73847806320332
 30
0.0
 10
603.3475377170702
 20
22.73847806320332
 30
0.0
 10
603.3475377170702
 20
22.92019042297226
 30
0.0
 10
603.3475377170702
 20
22.92019042297226
 30
0.0
 10
603.3475377170702
 20
22.92019042297226
 30
0.0
 10
603.3073818845652
 20
22.92019042297226
 30
0.0
 10
603.3073818845652
 20
22.92019042297226
 30
0.0
 10
603.3073818845652
 20
22.92019042297226
 30
0.0
 10
602.8606252679843
 20
22.92019042297226
 30
0.0
 10
602.8606252679843
 20
22.92019042297226
 30
0.0
 10
602.8606252679843
 20
22.92019042297226
 30
0.0
 10
602.8202330702119
 20
22.92019042297226
 30
0.0
 10
602.8202330702119
 20
22.92019042297226
 30
0.0
 10
602.8202330702119
 20
22.92019042297226
 30
0.0
 10
602.8204694354787
 20
22.80592463885064
 30
0.0
 10
602.8204694354787
 20
22.80592463885064
 30
0.0
 10
602.8204694354787
 20
22.80592463885064
 30
0.0
 10
602.8212573197007
 20
22.76952070075979
 30
0.0
 10
602.8212573197007
 20
22.73847806320332
 30
0.0
 10
602.8212573197007
 20
22.73847806320332
 30
0.0
 10
602.3711390637733
 20
22.73847806320332
 30
0.0
 10
602.3711390637733
 20
22.73847806320332
 30
0.0
 10
602.3711390637733
 20
22.73847806320332
 30
0.0
 10
602.3711390637733
 20
22.1691004132821
 30
0.0
 10
602.3711390637733
 20
22.1691004132821
 30
0.0
 10
602.3711390637733
 20
22.1691004132821
 30
0.0
 10
602.8212573197007
 20
22.1691004132821
 30
0.0
 10
602.8212573197007
 20
22.1691004132821
 30
0.0
 10
602.8134310030973
 20
21.4994513672656
 30
0.0
 10
602.8212573197007
 20
20.92369185531046
 30
0.0
 10
602.4110322682048
 20
20.64118284330909
 30
0.0
 10
602.4110322682048
 20
20.64118284330909
 30
0.0
 10
602.3808825653167
 20
20.61988370705076
 30
0.0
 10
602.3808825653167
 20
20.61988370705076
 30
0.0
 10
602.3808825653167
 20
20.61988370705076
 30
0.0
 10
602.3808825653167
 20
20.09436494437054
 30
0.0
 10
602.3808825653167
 20
20.09436494437054
 30
0.0
 10
602.3808825653167
 20
20.09436494437054
 30
0.0
 10
602.4811802267546
 20
20.1384864596781
 30
0.0
 10
602.4811802267546
 20
20.1384864596781
 30
0.0
 10
603.2713493128205
 20
20.48357974011955
 30
0.0
 10
603.3166263927668
 20
21.32685220143224
 30
0.0
 10
603.3409982780296
 20
22.1691004132821
 30
0.0
 10
603.3409982780296
 20
22.1691004132821
 30
0.0
 10
603.5933575942788
 20
22.1691004132821
 30
0.0
 10
603.5933575942788
 20
22.1691004132821
 30
0.0
 10
603.5933575942788
 20
22.1691004132821
 30
0.0
 10
603.5933575942788
 20
20.6818376681273
 30
0.0
 10
603.5933575942788
 20
20.6818376681273
 30
0.0
 10
603.5933575942788
 20
20.6818376681273
 30
0.0
 10
603.1983912338802
 20
20.6818376681273
 30
0.0
 10
603.1983912338802
 20
20.6818376681273
 30
0.0
 10
603.1983912338802
 20
20.6818376681273
 30
0.0
 10
603.1983912338802
 20
20.1172135862277
 30
0.0
 10
603.1983912338802
 20
20.1172135862277
 30
0.0
 10
603.1983912338802
 20
20.1172135862277
 30
0.0
 10
603.7925084627472
 20
20.1172135862277
 30
0.0
 10
603.7925084627472
 20
20.1172135862277
 30
0.0
 10
604.0135887753917
 20
20.1172135862277
 30
0.0
 10
604.1627352585813
 20
20.28056824409035
 30
0.0
 10
604.1627352585813
 20
20.52998975008033
 30
0.0
 10
604.1627352585813
 20
20.52998975008033
 30
0.0
 10
604.1627352585813
 20
22.40417879633027
 30
0.0
 10
604.1627352585813
 20
22.40417879633027
 30
0.0
 10
604.1627352585813
 20
22.61690753084825
 30
0.0
 10
604.0461546565604
 20
22.73847806320332
 30
0.0
 10
603.8424077967967
 20
22.73847806320332
 30
0.0
  0
SPLINE
  5
491C
330
A
100
AcDbEntity
  8
図枠
 62
     0
370
     0
100
AcDbSpline
210
0.0
220
0.0
230
1.0
 70
    11
 71
     3
 72
    68
 73
    64
 74
     0
 42
0.000000001
 43
0.0000000001
 40
0.0
 40
0.0
 40
0.0
 40
0.0
 40
1.0
 40
1.0
 40
1.0
 40
2.0
 40
2.0
 40
2.0
 40
3.0
 40
3.0
 40
3.0
 40
4.0
 40
4.0
 40
4.0
 40
5.0
 40
5.0
 40
5.0
 40
6.0
 40
6.0
 40
6.0
 40
7.0
 40
7.0
 40
7.0
 40
8.0
 40
8.0
 40
8.0
 40
9.0
 40
9.0
 40
9.0
 40
10.0
 40
10.0
 40
10.0
 40
11.0
 40
11.0
 40
11.0
 40
12.0
 40
12.0
 40
12.0
 40
13.0
 40
13.0
 40
13.0
 40
14.0
 40
14.0
 40
14.0
 40
15.0
 40
15.0
 40
15.0
 40
16.0
 40
16.0
 40
16.0
 40
17.0
 40
17.0
 40
17.0
 40
18.0
 40
18.0
 40
18.0
 40
19.0
 40
19.0
 40
19.0
 40
20.0
 40
20.0
 40
20.0
 40
21.0
 40
21.0
 40
21.0
 40
21.0
 10
605.7366915685159
 20
22.73847806320332
 30
0.0
 10
605.7366915685159
 20
22.73847806320332
 30
0.0
 10
605.2415851235222
 20
22.73847806320332
 30
0.0
 10
605.2415851235222
 20
22.73847806320332
 30
0.0
 10
605.2410598673747
 20
22.7923430798087
 30
0.0
 10
605.2410598673747
 20
22.92019042297226
 30
0.0
 10
605.2410598673747
 20
22.92019042297226
 30
0.0
 10
605.2410598673747
 20
22.92019042297226
 30
0.0
 10
605.2011929257507
 20
22.92019042297226
 30
0.0
 10
605.2011929257507
 20
22.92019042297226
 30
0.0
 10
605.2011929257507
 20
22.92019042297226
 30
0.0
 10
604.714543104738
 20
22.92019042297226
 30
0.0
 10
604.714543104738
 20
22.92019042297226
 30
0.0
 10
604.714543104738
 20
22.92019042297226
 30
0.0
 10
604.7150420980778
 20
22.76925807269211
 30
0.0
 10
604.7150420980778
 20
22.73847806320332
 30
0.0
 10
604.7150420980778
 20
22.73847806320332
 30
0.0
 10
604.2659743544472
 20
22.73847806320332
 30
0.0
 10
604.2659743544472
 20
22.73847806320332
 30
0.0
 10
604.2659743544472
 20
22.73847806320332
 30
0.0
 10
604.2659743544472
 20
22.1691004132821
 30
0.0
 10
604.2659743544472
 20
22.1691004132821
 30
0.0
 10
604.2659743544472
 20
22.1691004132821
 30
0.0
 10
604.714543104738
 20
22.1691004132821
 30
0.0
 10
604.714543104738
 20
22.1691004132821
 30
0.0
 10
604.7040117189741
 20
21.5007382447961
 30
0.0
 10
604.7085026590377
 20
20.92637066159674
 30
0.0
 10
604.2962291085659
 20
20.64118284330909
 30
0.0
 10
604.2962291085659
 20
20.64118284330909
 30
0.0
 10
604.2646874768865
 20
20.61988370705076
 30
0.0
 10
604.2646874768865
 20
20.61988370705076
 30
0.0
 10
604.2646874768865
 20
20.61988370705076
 30
0.0
 10
604.2646874768865
 20
20.09436494437054
 30
0.0
 10
604.2646874768865
 20
20.09436494437054
 30
0.0
 10
604.2646874768865
 20
20.09436494437054
 30
0.0
 10
604.3646962474428
 20
20.1384864596781
 30
0.0
 10
604.3646962474428
 20
20.1384864596781
 30
0.0
 10
605.1591199083056
 20
20.48510298290981
 30
0.0
 10
605.207469736718
 20
21.3627534582319
 30
0.0
 10
605.2345204283341
 20
22.1691004132821
 30
0.0
 10
605.2345204283341
 20
22.1691004132821
 30
0.0
 10
605.487667628806
 20
22.1691004132821
 30
0.0
 10
605.487667628806
 20
22.1691004132821
 30
0.0
 10
605.487667628806
 20
22.1691004132821
 30
0.0
 10
605.487667628806
 20
20.6818376681273
 30
0.0
 10
605.487667628806
 20
20.6818376681273
 30
0.0
 10
605.487667628806
 20
20.6818376681273
 30
0.0
 10
605.0924386403326
 20
20.6818376681273
 30
0.0
 10
605.0924386403326
 20
20.6818376681273
 30
0.0
 10
605.0924386403326
 20
20.6818376681273
 30
0.0
 10
605.0924386403326
 20
20.1172135862277
 30
0.0
 10
605.0924386403326
 20
20.1172135862277
 30
0.0
 10
605.0924386403326
 20
20.1172135862277
 30
0.0
 10
605.6868184972742
 20
20.1172135862277
 30
0.0
 10
605.6868184972742
 20
20.1172135862277
 30
0.0
 10
605.9081614379917
 20
20.1172135862277
 30
0.0
 10
606.0576756004849
 20
20.28056824409035
 30
0.0
 10
606.0576756004849
 20
20.52998975008033
 30
0.0
 10
606.0576756004849
 20
20.52998975008033
 30
0.0
 10
606.0576756004849
 20
22.40417879633027
 30
0.0
 10
606.0576756004849
 20
22.40417879633027
 30
0.0
 10
606.0576756004849
 20
22.61690753084825
 30
0.0
 10
605.9404646910856
 20
22.73847806320332
 30
0.0
 10
605.7366915685159
 20
22.73847806320332
 30
0.0
  0
HATCH
  5
491D
330
A
100
AcDbEntity
  8
図枠
 62
     0
100
AcDbHatch
 10
0.0
 20
0.0
 30
0.0
210
0.0
220
0.0
230
1.0
  2
SOLID
 70
     1
 71
     0
 91
        4
 92
        1
 93
       13
 72
     1
 10
602.6849270865176
 20
24.24935107160815
 11
602.2450775882818
 21
24.24935107160815
 72
     1
 10
602.2450775882818
 20
24.24935107160815
 11
602.2450775882818
 21
25.37450223756156
 72
     1
 10
602.2450775882818
 20
25.37450223756156
 11
602.2040550831324
 21
25.37450223756156
 72
     1
 10
602.2040550831322
 20
25.37450223756156
 11
601.6414794859443
 21
25.37450223756156
 72
     1
 10
601.6414794859444
 20
25.37450223756156
 11
601.6414794859444
 21
24.24935107160815
 72
     1
 10
601.6414794859444
 20
24.24935107160815
 11
601.2690728770965
 21
24.24935107160815
 72
     1
 10
601.2690728770964
 20
24.24935107160815
 11
601.2690728770964
 21
23.68023604975607
 72
     1
 10
601.2690728770964
 20
23.68023604975607
 11
601.6414794859443
 21
23.68023604975607
 72
     1
 10
601.6414794859444
 20
23.68023604975607
 11
601.6414794859444
 21
20.1172135862277
 72
     1
 10
601.6414794859444
 20
20.1172135862277
 11
602.2450775882818
 21
20.1172135862277
 72
     1
 10
602.2450775882818
 20
20.1172135862277
 11
602.2450775882818
 21
23.68023604975607
 72
     1
 10
602.2450775882818
 20
23.68023604975607
 11
602.6849270865176
 21
23.68023604975607
 72
     1
 10
602.6849270865176
 20
23.68023604975607
 11
602.6849270865176
 21
24.24935107160815
 97
        0
 92
        1
 93
        2
 72
     4
 94
        3
 73
     0
 74
     0
 95
       77
 96
       73
 40
0.0
 40
0.0
 40
0.0
 40
0.0
 40
0.3527777776895833
 40
0.3527777776895833
 40
0.3527777776895833
 40
0.7055555553791667
 40
0.7055555553791667
 40
0.7055555553791667
 40
1.05833333306875
 40
1.05833333306875
 40
1.05833333306875
 40
1.411111110758333
 40
1.411111110758333
 40
1.411111110758333
 40
1.763888888447917
 40
1.763888888447917
 40
1.763888888447917
 40
2.1166666661375
 40
2.1166666661375
 40
2.1166666661375
 40
2.469444443827083
 40
2.469444443827083
 40
2.469444443827083
 40
2.822222221516667
 40
2.822222221516667
 40
2.822222221516667
 40
3.17499999920625
 40
3.17499999920625
 40
3.17499999920625
 40
3.527777776895833
 40
3.527777776895833
 40
3.527777776895833
 40
3.880555554585417
 40
3.880555554585417
 40
3.880555554585417
 40
4.233333332275
 40
4.233333332275
 40
4.233333332275
 40
4.586111109964584
 40
4.586111109964584
 40
4.586111109964584
 40
4.938888887654167
 40
4.938888887654167
 40
4.938888887654167
 40
5.29166666534375
 40
5.29166666534375
 40
5.29166666534375
 40
5.644444443033334
 40
5.644444443033334
 40
5.644444443033334
 40
5.997222220722917
 40
5.997222220722917
 40
5.997222220722917
 40
6.349999998412501
 40
6.349999998412501
 40
6.349999998412501
 40
6.702777776102083
 40
6.702777776102083
 40
6.702777776102083
 40
7.055555553791667
 40
7.055555553791667
 40
7.055555553791667
 40
7.40833333148125
 40
7.40833333148125
 40
7.40833333148125
 40
7.761111109170834
 40
7.761111109170834
 40
7.761111109170834
 40
8.113888886860417
 40
8.113888886860417
 40
8.113888886860417
 40
8.46666666455
 40
8.46666666455
 40
8.46666666455
 40
8.46666666455
 10
602.8758839590802
 20
23.57227335860965
 10
602.8758839590802
 20
23.57227335860965
 10
602.8758839590802
 20
23.57227335860965
 10
602.8758839590802
 20
23.57227335860965
 10
602.8758839590802
 20
23.57227335860965
 10
602.8192088207235
 20
23.56047765106528
 10
602.8192088207235
 20
23.56047765106528
 10
602.8192088207235
 20
23.56047765106528
 10
602.8192088207235
 20
23.04176464924955
 10
602.8192088207235
 20
23.04176464924955
 10
602.8192088207235
 20
23.04176464924955
 10
602.900124530305
 20
23.05253240028196
 10
602.900124530305
 20
23.05253240028196
 10
603.8145692209581
 20
23.18205686888323
 10
604.3087827305004
 20
23.57303127268259
 10
604.5005012244771
 20
24.3944005531823
 10
604.5005012244771
 20
24.3944005531823
 10
605.3616061533131
 20
24.3944005531823
 10
605.3616061533131
 20
24.3944005531823
 10
605.3616061533131
 20
24.3944005531823
 10
605.3616061533131
 20
23.63511654779362
 10
605.3616061533131
 20
23.63511654779362
 10
605.3616061533131
 20
23.63511654779362
 10
604.7135188552505
 20
23.63511654779362
 10
604.7135188552505
 20
23.63511654779362
 10
604.7135188552505
 20
23.63511654779362
 10
604.7135188552505
 20
23.06573889787385
 10
604.7135188552505
 20
23.06573889787385
 10
604.7135188552505
 20
23.06573889787385
 10
605.6064280438405
 20
23.06573889787385
 10
605.6064280438405
 20
23.06573889787385
 10
605.7277359511937
 20
23.06573889787385
 10
605.9313777597271
 20
23.11164628403936
 10
605.9313777597271
 20
23.42057567961185
 10
605.9313777597271
 20
23.42057567961185
 10
605.9313777597271
 20
24.65960237554813
 10
605.9313777597271
 20
24.65960237554813
 10
605.9313777597271
 20
24.8064114651723
 10
605.8162153493048
 20
24.96401456836183
 10
605.6294867887328
 20
24.96401456836183
 10
605.6294867887328
 20
24.96401456836183
 10
604.581154305984
 20
24.96401456836183
 10
604.581154305984
 20
24.96401456836183
 10
604.583229067767
 20
25.03198271218111
 10
604.5939968187996
 20
25.30306740325486
 10
604.5939968187996
 20
25.30306740325486
 10
604.5939968187996
 20
25.30306740325486
 10
604.5939968187996
 20
25.37450223756156
 10
604.5939968187996
 20
25.37450223756156
 10
604.5939968187996
 20
25.37450223756156
 10
604.5541036143678
 20
25.37450223756156
 10
604.5541036143678
 20
25.37450223756156
 10
604.5541036143678
 20
25.37450223756156
 10
603.9650025817124
 20
25.37450223756156
 10
603.9650025817124
 20
25.37450223756156
 10
603.9650025817124
 20
25.37450223756156
 10
603.9650025817124
 20
25.30306740325486
 10
603.9650025817124
 20
25.30306740325486
 10
603.9650025817124
 20
25.30306740325486
 10
603.9584631426718
 20
25.02518064523692
 10
603.956388380887
 20
24.96401456836183
 10
603.956388380887
 20
24.96401456836183
 10
602.6581390229761
 20
24.96401456836183
 10
602.6581390229761
 20
24.96401456836183
 10
602.6581390229761
 20
24.96401456836183
 10
602.6581390229761
 20
24.3944005531823
 10
602.6581390229761
 20
24.3944005531823
 10
602.6581390229761
 20
24.3944005531823
 10
603.8793333039924
 20
24.3944005531823
 10
603.8793333039924
 20
24.3944005531823
 10
603.7539021358775
 20
23.90927398725422
 10
603.4607566797455
 20
23.69308227262278
 10
602.8758839590802
 20
23.57227335860965
 97
        0
 72
     1
 10
602.8758839590802
 20
23.57227335860965
 11
602.8758839590802
 21
23.57227335860965
 97
        0
 92
        1
 93
        2
 72
     4
 94
        3
 73
     0
 74
     0
 95
       74
 96
       70
 40
0.0
 40
0.0
 40
0.0
 40
0.0
 40
0.3527777776895833
 40
0.3527777776895833
 40
0.3527777776895833
 40
0.7055555553791667
 40
0.7055555553791667
 40
0.7055555553791667
 40
1.05833333306875
 40
1.05833333306875
 40
1.05833333306875
 40
1.411111110758333
 40
1.411111110758333
 40
1.411111110758333
 40
1.763888888447917
 40
1.763888888447917
 40
1.763888888447917
 40
2.1166666661375
 40
2.1166666661375
 40
2.1166666661375
 40
2.469444443827083
 40
2.469444443827083
 40
2.469444443827083
 40
2.822222221516667
 40
2.822222221516667
 40
2.822222221516667
 40
3.17499999920625
 40
3.17499999920625
 40
3.17499999920625
 40
3.527777776895833
 40
3.527777776895833
 40
3.527777776895833
 40
3.880555554585417
 40
3.880555554585417
 40
3.880555554585417
 40
4.233333332275
 40
4.233333332275
 40
4.233333332275
 40
4.586111109964584
 40
4.586111109964584
 40
4.586111109964584
 40
4.938888887654167
 40
4.938888887654167
 40
4.938888887654167
 40
5.29166666534375
 40
5.29166666534375
 40
5.29166666534375
 40
5.644444443033334
 40
5.644444443033334
 40
5.644444443033334
 40
5.997222220722917
 40
5.997222220722917
 40
5.997222220722917
 40
6.349999998412501
 40
6.349999998412501
 40
6.349999998412501
 40
6.702777776102083
 40
6.702777776102083
 40
6.702777776102083
 40
7.055555553791667
 40
7.055555553791667
 40
7.055555553791667
 40
7.40833333148125
 40
7.40833333148125
 40
7.40833333148125
 40
7.761111109170834
 40
7.761111109170834
 40
7.761111109170834
 40
8.113888886860417
 40
8.113888886860417
 40
8.113888886860417
 40
8.113888886860417
 10
603.8424077967967
 20
22.73847806320332
 10
603.8424077967967
 20
22.73847806320332
 10
603.3475377170702
 20
22.73847806320332
 10
603.3475377170702
 20
22.73847806320332
 10
603.3475377170702
 20
22.73847806320332
 10
603.3475377170702
 20
22.92019042297226
 10
603.3475377170702
 20
22.92019042297226
 10
603.3475377170702
 20
22.92019042297226
 10
603.3073818845652
 20
22.92019042297226
 10
603.3073818845652
 20
22.92019042297226
 10
603.3073818845652
 20
22.92019042297226
 10
602.8606252679843
 20
22.92019042297226
 10
602.8606252679843
 20
22.92019042297226
 10
602.8606252679843
 20
22.92019042297226
 10
602.8202330702119
 20
22.92019042297226
 10
602.8202330702119
 20
22.92019042297226
 10
602.8202330702119
 20
22.92019042297226
 10
602.8204694354787
 20
22.80592463885064
 10
602.8204694354787
 20
22.80592463885064
 10
602.8204694354787
 20
22.80592463885064
 10
602.8212573197007
 20
22.76952070075979
 10
602.8212573197007
 20
22.73847806320332
 10
602.8212573197007
 20
22.73847806320332
 10
602.3711390637733
 20
22.73847806320332
 10
602.3711390637733
 20
22.73847806320332
 10
602.3711390637733
 20
22.73847806320332
 10
602.3711390637733
 20
22.1691004132821
 10
602.3711390637733
 20
22.1691004132821
 10
602.3711390637733
 20
22.1691004132821
 10
602.8212573197007
 20
22.1691004132821
 10
602.8212573197007
 20
22.1691004132821
 10
602.8134310030973
 20
21.4994513672656
 10
602.8212573197007
 20
20.92369185531046
 10
602.4110322682048
 20
20.64118284330909
 10
602.4110322682048
 20
20.64118284330909
 10
602.3808825653167
 20
20.61988370705076
 10
602.3808825653167
 20
20.61988370705076
 10
602.3808825653167
 20
20.61988370705076
 10
602.3808825653167
 20
20.09436494437054
 10
602.3808825653167
 20
20.09436494437054
 10
602.3808825653167
 20
20.09436494437054
 10
602.4811802267546
 20
20.1384864596781
 10
602.4811802267546
 20
20.1384864596781
 10
603.2713493128205
 20
20.48357974011955
 10
603.3166263927668
 20
21.32685220143224
 10
603.3409982780296
 20
22.1691004132821
 10
603.3409982780296
 20
22.1691004132821
 10
603.5933575942788
 20
22.1691004132821
 10
603.5933575942788
 20
22.1691004132821
 10
603.5933575942788
 20
22.1691004132821
 10
603.5933575942788
 20
20.6818376681273
 10
603.5933575942788
 20
20.6818376681273
 10
603.5933575942788
 20
20.6818376681273
 10
603.1983912338802
 20
20.6818376681273
 10
603.1983912338802
 20
20.6818376681273
 10
603.1983912338802
 20
20.6818376681273
 10
603.1983912338802
 20
20.1172135862277
 10
603.1983912338802
 20
20.1172135862277
 10
603.1983912338802
 20
20.1172135862277
 10
603.7925084627472
 20
20.1172135862277
 10
603.7925084627472
 20
20.1172135862277
 10
604.0135887753917
 20
20.1172135862277
 10
604.1627352585813
 20
20.28056824409035
 10
604.1627352585813
 20
20.52998975008033
 10
604.1627352585813
 20
20.52998975008033
 10
604.1627352585813
 20
22.40417879633027
 10
604.1627352585813
 20
22.40417879633027
 10
604.1627352585813
 20
22.61690753084825
 10
604.0461546565604
 20
22.73847806320332
 10
603.8424077967967
 20
22.73847806320332
 97
        0
 72
     1
 10
603.8424077967967
 20
22.73847806320332
 11
603.8424077967967
 21
22.73847806320332
 97
        0
 92
        1
 93
        2
 72
     4
 94
        3
 73
     0
 74
     0
 95
       68
 96
       64
 40
0.0
 40
0.0
 40
0.0
 40
0.0
 40
0.3527777776895833
 40
0.3527777776895833
 40
0.3527777776895833
 40
0.7055555553791667
 40
0.7055555553791667
 40
0.7055555553791667
 40
1.05833333306875
 40
1.05833333306875
 40
1.05833333306875
 40
1.411111110758333
 40
1.411111110758333
 40
1.411111110758333
 40
1.763888888447917
 40
1.763888888447917
 40
1.763888888447917
 40
2.1166666661375
 40
2.1166666661375
 40
2.1166666661375
 40
2.469444443827083
 40
2.469444443827083
 40
2.469444443827083
 40
2.822222221516667
 40
2.822222221516667
 40
2.822222221516667
 40
3.17499999920625
 40
3.17499999920625
 40
3.17499999920625
 40
3.527777776895833
 40
3.527777776895833
 40
3.527777776895833
 40
3.880555554585417
 40
3.880555554585417
 40
3.880555554585417
 40
4.233333332275
 40
4.233333332275
 40
4.233333332275
 40
4.586111109964584
 40
4.586111109964584
 40
4.586111109964584
 40
4.938888887654167
 40
4.938888887654167
 40
4.938888887654167
 40
5.29166666534375
 40
5.29166666534375
 40
5.29166666534375
 40
5.644444443033334
 40
5.644444443033334
 40
5.644444443033334
 40
5.997222220722917
 40
5.997222220722917
 40
5.997222220722917
 40
6.349999998412501
 40
6.349999998412501
 40
6.349999998412501
 40
6.702777776102083
 40
6.702777776102083
 40
6.702777776102083
 40
7.055555553791667
 40
7.055555553791667
 40
7.055555553791667
 40
7.40833333148125
 40
7.40833333148125
 40
7.40833333148125
 40
7.40833333148125
 10
605.7366915685159
 20
22.73847806320332
 10
605.7366915685159
 20
22.73847806320332
 10
605.2415851235222
 20
22.73847806320332
 10
605.2415851235222
 20
22.73847806320332
 10
605.2410598673747
 20
22.7923430798087
 10
605.2410598673747
 20
22.92019042297226
 10
605.2410598673747
 20
22.92019042297226
 10
605.2410598673747
 20
22.92019042297226
 10
605.2011929257507
 20
22.92019042297226
 10
605.2011929257507
 20
22.92019042297226
 10
605.2011929257507
 20
22.92019042297226
 10
604.714543104738
 20
22.92019042297226
 10
604.714543104738
 20
22.92019042297226
 10
604.714543104738
 20
22.92019042297226
 10
604.7150420980778
 20
22.76925807269211
 10
604.7150420980778
 20
22.73847806320332
 10
604.7150420980778
 20
22.73847806320332
 10
604.2659743544472
 20
22.73847806320332
 10
604.2659743544472
 20
22.73847806320332
 10
604.2659743544472
 20
22.73847806320332
 10
604.2659743544472
 20
22.1691004132821
 10
604.2659743544472
 20
22.1691004132821
 10
604.2659743544472
 20
22.1691004132821
 10
604.714543104738
 20
22.1691004132821
 10
604.714543104738
 20
22.1691004132821
 10
604.7040117189741
 20
21.5007382447961
 10
604.7085026590377
 20
20.92637066159674
 10
604.2962291085659
 20
20.64118284330909
 10
604.2962291085659
 20
20.64118284330909
 10
604.2646874768865
 20
20.61988370705076
 10
604.2646874768865
 20
20.61988370705076
 10
604.2646874768865
 20
20.61988370705076
 10
604.2646874768865
 20
20.09436494437054
 10
604.2646874768865
 20
20.09436494437054
 10
604.2646874768865
 20
20.09436494437054
 10
604.3646962474428
 20
20.1384864596781
 10
604.3646962474428
 20
20.1384864596781
 10
605.1591199083056
 20
20.48510298290981
 10
605.207469736718
 20
21.3627534582319
 10
605.2345204283341
 20
22.1691004132821
 10
605.2345204283341
 20
22.1691004132821
 10
605.487667628806
 20
22.1691004132821
 10
605.487667628806
 20
22.1691004132821
 10
605.487667628806
 20
22.1691004132821
 10
605.487667628806
 20
20.6818376681273
 10
605.487667628806
 20
20.6818376681273
 10
605.487667628806
 20
20.6818376681273
 10
605.0924386403326
 20
20.6818376681273
 10
605.0924386403326
 20
20.6818376681273
 10
605.0924386403326
 20
20.6818376681273
 10
605.0924386403326
 20
20.1172135862277
 10
605.0924386403326
 20
20.1172135862277
 10
605.0924386403326
 20
20.1172135862277
 10
605.6868184972742
 20
20.1172135862277
 10
605.6868184972742
 20
20.1172135862277
 10
605.9081614379917
 20
20.1172135862277
 10
606.0576756004849
 20
20.28056824409035
 10
606.0576756004849
 20
20.52998975008033
 10
606.0576756004849
 20
20.52998975008033
 10
606.0576756004849
 20
22.40417879633027
 10
606.0576756004849
 20
22.40417879633027
 10
606.0576756004849
 20
22.61690753084825
 10
605.9404646910856
 20
22.73847806320332
 10
605.7366915685159
 20
22.73847806320332
 97
        0
 72
     1
 10
605.7366915685159
 20
22.73847806320332
 11
605.7366915685159
 21
22.73847806320332
 97
        0
 75
     2
 76
     1
 98
        0
  0
POLYLINE
  5
491E
330
A
100
AcDbEntity
  8
図枠
 62
     0
370
     0
100
AcDb2dPolyline
 66
     1
 10
0.0
 20
0.0
 30
0.0
  0
VERTEX
  5
491F
330
491E
100
AcDbEntity
  8
図枠
 62
     0
370
     0
100
AcDbVertex
100
AcDb2dVertex
 10
600.9050178409998
 20
25.02392003051435
 30
0.0
  0
VERTEX
  5
4920
330
491E
100
AcDbEntity
  8
図枠
 62
     0
370
     0
100
AcDbVertex
100
AcDb2dVertex
 10
596.8405595058874
 20
25.02392003051435
 30
0.0
  0
VERTEX
  5
4921
330
491E
100
AcDbEntity
  8
図枠
 62
     0
370
     0
100
AcDbVertex
100
AcDb2dVertex
 10
596.8405595058874
 20
24.45454238059458
 30
0.0
  0
VERTEX
  5
4922
330
491E
100
AcDbEntity
  8
図枠
 62
     0
370
     0
100
AcDbVertex
100
AcDb2dVertex
 10
600.9050178409998
 20
24.45454238059458
 30
0.0
  0
VERTEX
  5
4923
330
491E
100
AcDbEntity
  8
図枠
 62
     0
370
     0
100
AcDbVertex
100
AcDb2dVertex
 10
600.9050178409998
 20
25.02392003051435
 30
0.0
  0
SEQEND
  5
4924
330
491E
100
AcDbEntity
  8
図枠
 62
     0
370
     0
  0
HATCH
  5
4925
330
A
100
AcDbEntity
  8
図枠
 62
     0
100
AcDbHatch
 10
0.0
 20
0.0
 30
0.0
210
0.0
220
0.0
230
1.0
  2
SOLID
 70
     1
 71
     0
 91
        1
 92
        1
 93
        4
 72
     1
 10
600.9050178409998
 20
25.02392003051435
 11
596.8405595058874
 21
25.02392003051435
 72
     1
 10
596.8405595058874
 20
25.02392003051435
 11
596.8405595058874
 21
24.45454238059458
 72
     1
 10
596.8405595058874
 20
24.45454238059458
 11
600.9050178409997
 21
24.45454238059458
 72
     1
 10
600.9050178409998
 20
24.45454238059458
 11
600.9050178409998
 21
25.02392003051435
 97
        0
 75
     2
 76
     1
 98
        0
  0
POLYLINE
  5
4926
330
A
100
AcDbEntity
  8
図枠
 62
     0
370
     0
100
AcDb2dPolyline
 66
     1
 10
0.0
 20
0.0
 30
0.0
  0
VERTEX
  5
4927
330
4926
100
AcDbEntity
  8
図枠
 62
     0
370
     0
100
AcDbVertex
100
AcDb2dVertex
 10
600.7629360529985
 20
22.92827936744534
 30
0.0
  0
VERTEX
  5
4928
330
4926
100
AcDbEntity
  8
図枠
 62
     0
370
     0
100
AcDbVertex
100
AcDb2dVertex
 10
596.9818796724747
 20
22.92827936744534
 30
0.0
  0
VERTEX
  5
4929
330
4926
100
AcDbEntity
  8
図枠
 62
     0
370
     0
100
AcDbVertex
100
AcDb2dVertex
 10
596.9818796724747
 20
22.35916434559278
 30
0.0
  0
VERTEX
  5
492A
330
4926
100
AcDbEntity
  8
図枠
 62
     0
370
     0
100
AcDbVertex
100
AcDb2dVertex
 10
600.7629360529985
 20
22.35916434559278
 30
0.0
  0
VERTEX
  5
492B
330
4926
100
AcDbEntity
  8
図枠
 62
     0
370
     0
100
AcDbVertex
100
AcDb2dVertex
 10
600.7629360529985
 20
22.92827936744534
 30
0.0
  0
SEQEND
  5
492C
330
4926
100
AcDbEntity
  8
図枠
 62
     0
370
     0
  0
HATCH
  5
492D
330
A
100
AcDbEntity
  8
図枠
 62
     0
100
AcDbHatch
 10
0.0
 20
0.0
 30
0.0
210
0.0
220
0.0
230
1.0
  2
SOLID
 70
     1
 71
     0
 91
        1
 92
        1
 93
        4
 72
     1
 10
600.7629360529985
 20
22.92827936744534
 11
596.9818796724747
 21
22.92827936744534
 72
     1
 10
596.9818796724747
 20
22.92827936744534
 11
596.9818796724747
 21
22.35916434559278
 72
     1
 10
596.9818796724747
 20
22.35916434559278
 11
600.7629360529985
 21
22.35916434559278
 72
     1
 10
600.7629360529985
 20
22.35916434559278
 11
600.7629360529985
 21
22.92827936744535
 97
        0
 75
     2
 76
     1
 98
        0
  0
POLYLINE
  5
492E
330
A
100
AcDbEntity
  8
図枠
 62
     0
370
     0
100
AcDb2dPolyline
 66
     1
 10
0.0
 20
0.0
 30
0.0
  0
VERTEX
  5
492F
330
492E
100
AcDbEntity
  8
図枠
 62
     0
370
     0
100
AcDbVertex
100
AcDb2dVertex
 10
596.5843395569512
 20
20.22735979765514
 30
0.0
  0
VERTEX
  5
4930
330
492E
100
AcDbEntity
  8
図枠
 62
     0
370
     0
100
AcDbVertex
100
AcDb2dVertex
 10
601.1608438478253
 20
20.22735979765514
 30
0.0
  0
VERTEX
  5
4931
330
492E
100
AcDbEntity
  8
図枠
 62
     0
370
     0
100
AcDbVertex
100
AcDb2dVertex
 10
601.1608438478253
 20
20.79647481950722
 30
0.0
  0
VERTEX
  5
4932
330
492E
100
AcDbEntity
  8
図枠
 62
     0
370
     0
100
AcDbVertex
100
AcDb2dVertex
 10
596.5843395569512
 20
20.79647481950722
 30
0.0
  0
VERTEX
  5
4933
330
492E
100
AcDbEntity
  8
図枠
 62
     0
370
     0
100
AcDbVertex
100
AcDb2dVertex
 10
596.5843395569512
 20
20.22735979765514
 30
0.0
  0
SEQEND
  5
4934
330
492E
100
AcDbEntity
  8
図枠
 62
     0
370
     0
  0
HATCH
  5
4935
330
A
100
AcDbEntity
  8
図枠
 62
     0
100
AcDbHatch
 10
0.0
 20
0.0
 30
0.0
210
0.0
220
0.0
230
1.0
  2
SOLID
 70
     1
 71
     0
 91
        1
 92
        1
 93
        4
 72
     1
 10
596.5843395569512
 20
20.22735979765514
 11
601.1608438478253
 21
20.22735979765514
 72
     1
 10
601.1608438478253
 20
20.22735979765514
 11
601.1608438478253
 21
20.79647481950722
 72
     1
 10
601.1608438478253
 20
20.79647481950722
 11
596.5843395569512
 21
20.79647481950722
 72
     1
 10
596.5843395569512
 20
20.79647481950722
 11
596.5843395569512
 21
20.22735979765514
 97
        0
 75
     2
 76
     1
 98
        0
  0
SPLINE
  5
4936
330
A
100
AcDbEntity
  8
図枠
 62
     0
370
     0
100
AcDbSpline
210
0.0
220
0.0
230
1.0
 70
    11
 71
     3
 72
    59
 73
    55
 74
     0
 42
0.000000001
 43
0.0000000001
 40
0.0
 40
0.0
 40
0.0
 40
0.0
 40
1.0
 40
1.0
 40
1.0
 40
2.0
 40
2.0
 40
2.0
 40
3.0
 40
3.0
 40
3.0
 40
4.0
 40
4.0
 40
4.0
 40
5.0
 40
5.0
 40
5.0
 40
6.0
 40
6.0
 40
6.0
 40
7.0
 40
7.0
 40
7.0
 40
8.0
 40
8.0
 40
8.0
 40
9.0
 40
9.0
 40
9.0
 40
10.0
 40
10.0
 40
10.0
 40
11.0
 40
11.0
 40
11.0
 40
12.0
 40
12.0
 40
12.0
 40
13.0
 40
13.0
 40
13.0
 40
14.0
 40
14.0
 40
14.0
 40
15.0
 40
15.0
 40
15.0
 40
16.0
 40
16.0
 40
16.0
 40
17.0
 40
17.0
 40
17.0
 40
18.0
 40
18.0
 40
18.0
 40
18.0
 10
606.4758582826224
 20
25.13251673634521
 30
0.0
 10
606.4758582826224
 20
25.13251673634521
 30
0.0
 10
606.4362277062636
 20
25.13251673634521
 30
0.0
 10
606.4362277062636
 20
25.13251673634521
 30
0.0
 10
606.4362277062636
 20
25.13251673634521
 30
0.0
 10
606.4362277062636
 20
24.54559553153046
 30
0.0
 10
606.4362277062636
 20
24.54559553153046
 30
0.0
 10
606.4362277062636
 20
24.54559553153046
 30
0.0
 10
610.0762265482724
 20
24.54559553153046
 30
0.0
 10
610.0762265482724
 20
24.54559553153046
 30
0.0
 10
610.033917165562
 20
23.83773410172065
 30
0.0
 10
609.3397649033288
 20
23.00546575642709
 30
0.0
 10
608.7207767958575
 20
22.76988838005436
 30
0.0
 10
608.7224313527234
 20
22.80720782841741
 30
0.0
 10
608.7207767958575
 20
22.93326930072494
 30
0.0
 10
608.7207767958575
 20
22.93326930072494
 30
0.0
 10
608.7207767958575
 20
22.93326930072494
 30
0.0
 10
608.7207767958575
 20
23.76230732078925
 30
0.0
 10
608.7207767958575
 20
23.76230732078925
 30
0.0
 10
608.7207767958575
 20
23.76230732078925
 30
0.0
 10
608.0768915469774
 20
23.76230732078925
 30
0.0
 10
608.0768915469774
 20
23.76230732078925
 30
0.0
 10
608.0768915469774
 20
23.76230732078925
 30
0.0
 10
608.0768915469774
 20
23.12049684990757
 30
0.0
 10
608.0768915469774
 20
23.12049684990757
 30
0.0
 10
608.0768915469774
 20
21.74876419155926
 30
0.0
 10
607.8882458014672
 20
21.1427010465843
 30
0.0
 10
606.5099736694266
 20
20.66734423275033
 30
0.0
 10
606.5099736694266
 20
20.66734423275033
 30
0.0
 10
606.4873876550679
 20
20.66156641512458
 30
0.0
 10
606.4873876550679
 20
20.66156641512458
 30
0.0
 10
606.4873876550679
 20
20.66156641512458
 30
0.0
 10
606.4582884644748
 20
20.65284352949838
 30
0.0
 10
606.4582884644748
 20
20.65284352949838
 30
0.0
 10
606.4582884644748
 20
20.65284352949838
 30
0.0
 10
606.4582884644748
 20
20.09746395556563
 30
0.0
 10
606.4582884644748
 20
20.09746395556563
 30
0.0
 10
606.4582884644748
 20
20.09746395556563
 30
0.0
 10
606.5470304906588
 20
20.12002732665862
 30
0.0
 10
606.5470304906588
 20
20.12002732665862
 30
0.0
 10
607.7732147050796
 20
20.45663410041305
 30
0.0
 10
608.4132655840807
 20
20.90995640739113
 30
0.0
 10
608.6690915909074
 20
22.08075233144043
 30
0.0
 10
609.93516900976
 20
22.50355725699884
 30
0.0
 10
610.7879223658452
 20
23.75371938298872
 30
0.0
 10
610.7879223658452
 20
24.83630227848685
 30
0.0
 10
610.7906274350065
 20
24.83527428976834
 30
0.0
 10
610.8029446916743
 20
24.94389725840744
 30
0.0
 10
610.7270189154978
 20
25.03250796831487
 30
0.0
 10
610.6695821557281
 20
25.09866772435242
 30
0.0
 10
610.580183559358
 20
25.13251673634521
 30
0.0
 10
610.4618170864329
 20
25.13251673634521
 30
0.0
 10
610.4618170864329
 20
25.13251673634521
 30
0.0
 10
606.4758582826224
 20
25.13251673634521
 30
0.0
 10
606.4758582826224
 20
25.13251673634521
 30
0.0
  0
HATCH
  5
4937
330
A
100
AcDbEntity
  8
図枠
 62
     0
100
AcDbHatch
 10
0.0
 20
0.0
 30
0.0
210
0.0
220
0.0
230
1.0
  2
SOLID
 70
     1
 71
     0
 91
        1
 92
        1
 93
        1
 72
     4
 94
        3
 73
     0
 74
     1
 95
       59
 96
       55
 40
0.0
 40
0.0
 40
0.0
 40
0.0
 40
1.0
 40
1.0
 40
1.0
 40
2.0
 40
2.0
 40
2.0
 40
3.0
 40
3.0
 40
3.0
 40
4.0
 40
4.0
 40
4.0
 40
5.0
 40
5.0
 40
5.0
 40
6.0
 40
6.0
 40
6.0
 40
7.0
 40
7.0
 40
7.0
 40
8.0
 40
8.0
 40
8.0
 40
9.0
 40
9.0
 40
9.0
 40
10.0
 40
10.0
 40
10.0
 40
11.0
 40
11.0
 40
11.0
 40
12.0
 40
12.0
 40
12.0
 40
13.0
 40
13.0
 40
13.0
 40
14.0
 40
14.0
 40
14.0
 40
15.0
 40
15.0
 40
15.0
 40
16.0
 40
16.0
 40
16.0
 40
17.0
 40
17.0
 40
17.0
 40
18.0
 40
18.0
 40
18.0
 40
18.0
 10
606.4758582826224
 20
25.13251673634521
 10
606.4758582826224
 20
25.13251673634521
 10
606.4362277062636
 20
25.13251673634521
 10
606.4362277062636
 20
25.13251673634521
 10
606.4362277062636
 20
25.13251673634521
 10
606.4362277062636
 20
24.54559553153046
 10
606.4362277062636
 20
24.54559553153046
 10
606.4362277062636
 20
24.54559553153046
 10
610.0762265482724
 20
24.54559553153046
 10
610.0762265482724
 20
24.54559553153046
 10
610.033917165562
 20
23.83773410172065
 10
609.3397649033288
 20
23.00546575642709
 10
608.7207767958575
 20
22.76988838005436
 10
608.7224313527234
 20
22.80720782841741
 10
608.7207767958575
 20
22.93326930072494
 10
608.7207767958575
 20
22.93326930072494
 10
608.7207767958575
 20
22.93326930072494
 10
608.7207767958575
 20
23.76230732078925
 10
608.7207767958575
 20
23.76230732078925
 10
608.7207767958575
 20
23.76230732078925
 10
608.0768915469774
 20
23.76230732078925
 10
608.0768915469774
 20
23.76230732078925
 10
608.0768915469774
 20
23.76230732078925
 10
608.0768915469774
 20
23.12049684990757
 10
608.0768915469774
 20
23.12049684990757
 10
608.0768915469774
 20
21.74876419155926
 10
607.8882458014672
 20
21.1427010465843
 10
606.5099736694266
 20
20.66734423275033
 10
606.5099736694266
 20
20.66734423275033
 10
606.4873876550679
 20
20.66156641512458
 10
606.4873876550679
 20
20.66156641512458
 10
606.4873876550679
 20
20.66156641512458
 10
606.4582884644748
 20
20.65284352949838
 10
606.4582884644748
 20
20.65284352949838
 10
606.4582884644748
 20
20.65284352949838
 10
606.4582884644748
 20
20.09746395556563
 10
606.4582884644748
 20
20.09746395556563
 10
606.4582884644748
 20
20.09746395556563
 10
606.5470304906588
 20
20.12002732665862
 10
606.5470304906588
 20
20.12002732665862
 10
607.7732147050796
 20
20.45663410041305
 10
608.4132655840807
 20
20.90995640739113
 10
608.6690915909074
 20
22.08075233144043
 10
609.93516900976
 20
22.50355725699884
 10
610.7879223658452
 20
23.75371938298872
 10
610.7879223658452
 20
24.83630227848685
 10
610.7906274350065
 20
24.83527428976834
 10
610.8029446916743
 20
24.94389725840744
 10
610.7270189154978
 20
25.03250796831487
 10
610.6695821557281
 20
25.09866772435242
 10
610.580183559358
 20
25.13251673634521
 10
610.4618170864329
 20
25.13251673634521
 10
610.4618170864329
 20
25.13251673634521
 10
606.4758582826224
 20
25.13251673634521
 10
606.4758582826224
 20
25.13251673634521
 97
        0
 97
        0
 75
     2
 76
     1
 98
        0
  0
SPLINE
  5
4938
330
A
100
AcDbEntity
  8
図枠
 62
     0
370
     0
100
AcDbSpline
210
0.0
220
0.0
230
1.0
 70
    11
 71
     3
 72
    35
 73
    31
 74
     0
 42
0.000000001
 43
0.0000000001
 40
0.0
 40
0.0
 40
0.0
 40
0.0
 40
1.0
 40
1.0
 40
1.0
 40
2.0
 40
2.0
 40
2.0
 40
3.0
 40
3.0
 40
3.0
 40
4.0
 40
4.0
 40
4.0
 40
5.0
 40
5.0
 40
5.0
 40
6.0
 40
6.0
 40
6.0
 40
7.0
 40
7.0
 40
7.0
 40
8.0
 40
8.0
 40
8.0
 40
9.0
 40
9.0
 40
9.0
 40
10.0
 40
10.0
 40
10.0
 40
10.0
 10
612.0359309732119
 20
25.12445405467876
 30
0.0
 10
612.0359309732119
 20
25.12445405467876
 30
0.0
 10
611.4127145537502
 20
25.12445405467876
 30
0.0
 10
611.4127145537502
 20
25.12445405467876
 30
0.0
 10
611.4127145537502
 20
25.12445405467876
 30
0.0
 10
611.4127145537502
 20
22.72348200056141
 30
0.0
 10
611.4127145537502
 20
22.72348200056141
 30
0.0
 10
611.4127145537502
 20
21.63937960152695
 30
0.0
 10
611.061344453624
 20
20.99856711729856
 30
0.0
 10
610.5586480572948
 20
20.76401399038865
 30
0.0
 10
610.5586480572948
 20
20.76401399038865
 30
0.0
 10
610.540815611074
 20
20.7556886806542
 30
0.0
 10
610.540815611074
 20
20.7556886806542
 30
0.0
 10
610.540815611074
 20
20.7556886806542
 30
0.0
 10
610.5165750398495
 20
20.7454199232226
 30
0.0
 10
610.5165750398495
 20
20.7454199232226
 30
0.0
 10
610.5165750398495
 20
20.7454199232226
 30
0.0
 10
610.5165750398495
 20
20.08283557221637
 30
0.0
 10
610.5165750398495
 20
20.08283557221637
 30
0.0
 10
610.5165750398495
 20
20.08283557221637
 30
0.0
 10
610.6335495839818
 20
20.12322776896851
 30
0.0
 10
610.6335495839818
 20
20.12322776896851
 30
0.0
 10
611.5629903376581
 20
20.50036167361973
 30
0.0
 10
612.0564422257859
 20
21.22965355372267
 30
0.0
 10
612.0758241776422
 20
22.56228089284741
 30
0.0
 10
612.0758241776422
 20
22.56228089284741
 30
0.0
 10
612.0758241776422
 20
25.12445405467876
 30
0.0
 10
612.0758241776422
 20
25.12445405467876
 30
0.0
 10
612.0758241776422
 20
25.12445405467876
 30
0.0
 10
612.0359309732119
 20
25.12445405467876
 30
0.0
 10
612.0359309732119
 20
25.12445405467876
 30
0.0
  0
HATCH
  5
4939
330
A
100
AcDbEntity
  8
図枠
 62
     0
100
AcDbHatch
 10
0.0
 20
0.0
 30
0.0
210
0.0
220
0.0
230
1.0
  2
SOLID
 70
     1
 71
     0
 91
        1
 92
        1
 93
        1
 72
     4
 94
        3
 73
     0
 74
     1
 95
       35
 96
       31
 40
0.0
 40
0.0
 40
0.0
 40
0.0
 40
1.0
 40
1.0
 40
1.0
 40
2.0
 40
2.0
 40
2.0
 40
3.0
 40
3.0
 40
3.0
 40
4.0
 40
4.0
 40
4.0
 40
5.0
 40
5.0
 40
5.0
 40
6.0
 40
6.0
 40
6.0
 40
7.0
 40
7.0
 40
7.0
 40
8.0
 40
8.0
 40
8.0
 40
9.0
 40
9.0
 40
9.0
 40
10.0
 40
10.0
 40
10.0
 40
10.0
 10
612.0359309732119
 20
25.12445405467876
 10
612.0359309732119
 20
25.12445405467876
 10
611.4127145537502
 20
25.12445405467876
 10
611.4127145537502
 20
25.12445405467876
 10
611.4127145537502
 20
25.12445405467876
 10
611.4127145537502
 20
22.72348200056141
 10
611.4127145537502
 20
22.72348200056141
 10
611.4127145537502
 20
21.63937960152695
 10
611.061344453624
 20
20.99856711729856
 10
610.5586480572948
 20
20.76401399038865
 10
610.5586480572948
 20
20.76401399038865
 10
610.540815611074
 20
20.7556886806542
 10
610.540815611074
 20
20.7556886806542
 10
610.540815611074
 20
20.7556886806542
 10
610.5165750398495
 20
20.7454199232226
 10
610.5165750398495
 20
20.7454199232226
 10
610.5165750398495
 20
20.7454199232226
 10
610.5165750398495
 20
20.08283557221637
 10
610.5165750398495
 20
20.08283557221637
 10
610.5165750398495
 20
20.08283557221637
 10
610.6335495839818
 20
20.12322776896851
 10
610.6335495839818
 20
20.12322776896851
 10
611.5629903376581
 20
20.50036167361973
 10
612.0564422257859
 20
21.22965355372267
 10
612.0758241776422
 20
22.56228089284741
 10
612.0758241776422
 20
22.56228089284741
 10
612.0758241776422
 20
25.12445405467876
 10
612.0758241776422
 20
25.12445405467876
 10
612.0758241776422
 20
25.12445405467876
 10
612.0359309732119
 20
25.12445405467876
 10
612.0359309732119
 20
25.12445405467876
 97
        0
 97
        0
 75
     2
 76
     1
 98
        0
  0
SPLINE
  5
493A
330
A
100
AcDbEntity
  8
図枠
 62
     0
370
     0
100
AcDbSpline
210
0.0
220
0.0
230
1.0
 70
    11
 71
     3
 72
    38
 73
    34
 74
     0
 42
0.000000001
 43
0.0000000001
 40
0.0
 40
0.0
 40
0.0
 40
0.0
 40
1.0
 40
1.0
 40
1.0
 40
2.0
 40
2.0
 40
2.0
 40
3.0
 40
3.0
 40
3.0
 40
4.0
 40
4.0
 40
4.0
 40
5.0
 40
5.0
 40
5.0
 40
6.0
 40
6.0
 40
6.0
 40
7.0
 40
7.0
 40
7.0
 40
8.0
 40
8.0
 40
8.0
 40
9.0
 40
9.0
 40
9.0
 40
10.0
 40
10.0
 40
10.0
 40
11.0
 40
11.0
 40
11.0
 40
11.0
 10
613.3413763403468
 20
25.12445405467876
 30
0.0
 10
613.3413763403468
 20
25.12445405467876
 30
0.0
 10
612.7181599208867
 20
25.12445405467876
 30
0.0
 10
612.7181599208867
 20
25.12445405467876
 30
0.0
 10
612.7181599208867
 20
25.12445405467876
 30
0.0
 10
612.7181599208867
 20
20.46729679994554
 30
0.0
 10
612.7181599208867
 20
20.46729679994554
 30
0.0
 10
612.7181599208867
 20
20.354051577323
 30
0.0
 10
612.7504631739808
 20
20.26530955338076
 30
0.0
 10
612.8140716934896
 20
20.2022299138025
 30
0.0
 10
612.8967732739746
 20
20.12167826337192
 30
0.0
 10
613.0007739912529
 20
20.11744995148714
 30
0.0
 10
613.0206549364506
 20
20.11744995148714
 30
0.0
 10
614.238014847589
 20
20.11744995148714
 30
0.0
 10
615.4665101890615
 20
21.06319988466299
 30
0.0
 10
615.4665101890615
 20
23.25528127336423
 30
0.0
 10
615.4665101890615
 20
23.25528127336423
 30
0.0
 10
615.4665101890615
 20
23.36195709498823
 30
0.0
 10
615.4665101890615
 20
23.36195709498823
 30
0.0
 10
615.4665101890615
 20
23.36195709498823
 30
0.0
 10
614.8546918280086
 20
23.36195709498823
 30
0.0
 10
614.8546918280086
 20
23.36195709498823
 30
0.0
 10
614.8546918280086
 20
23.36195709498823
 30
0.0
 10
614.8546918280086
 20
23.30835470645053
 30
0.0
 10
614.8546918280086
 20
23.30835470645053
 30
0.0
 10
614.8546918280086
 20
21.77069363518016
 30
0.0
 10
614.1255312435202
 20
20.9471445417213
 30
0.0
 10
613.3812695447785
 20
20.82917201388685
 30
0.0
 10
613.3812695447785
 20
20.82917201388685
 30
0.0
 10
613.3812695447785
 20
25.12445405467876
 30
0.0
 10
613.3812695447785
 20
25.12445405467876
 30
0.0
 10
613.3812695447785
 20
25.12445405467876
 30
0.0
 10
613.3413763403468
 20
25.12445405467876
 30
0.0
 10
613.3413763403468
 20
25.12445405467876
 30
0.0
  0
HATCH
  5
493B
330
A
100
AcDbEntity
  8
図枠
 62
     0
100
AcDbHatch
 10
0.0
 20
0.0
 30
0.0
210
0.0
220
0.0
230
1.0
  2
SOLID
 70
     1
 71
     0
 91
        1
 92
        1
 93
        1
 72
     4
 94
        3
 73
     0
 74
     1
 95
       38
 96
       34
 40
0.0
 40
0.0
 40
0.0
 40
0.0
 40
1.0
 40
1.0
 40
1.0
 40
2.0
 40
2.0
 40
2.0
 40
3.0
 40
3.0
 40
3.0
 40
4.0
 40
4.0
 40
4.0
 40
5.0
 40
5.0
 40
5.0
 40
6.0
 40
6.0
 40
6.0
 40
7.0
 40
7.0
 40
7.0
 40
8.0
 40
8.0
 40
8.0
 40
9.0
 40
9.0
 40
9.0
 40
10.0
 40
10.0
 40
10.0
 40
11.0
 40
11.0
 40
11.0
 40
11.0
 10
613.3413763403468
 20
25.12445405467876
 10
613.3413763403468
 20
25.12445405467876
 10
612.7181599208867
 20
25.12445405467876
 10
612.7181599208867
 20
25.12445405467876
 10
612.7181599208867
 20
25.12445405467876
 10
612.7181599208867
 20
20.46729679994554
 10
612.7181599208867
 20
20.46729679994554
 10
612.7181599208867
 20
20.354051577323
 10
612.7504631739808
 20
20.26530955338076
 10
612.8140716934896
 20
20.2022299138025
 10
612.8967732739746
 20
20.12167826337192
 10
613.0007739912529
 20
20.11744995148714
 10
613.0206549364506
 20
20.11744995148714
 10
614.238014847589
 20
20.11744995148714
 10
615.4665101890615
 20
21.06319988466299
 10
615.4665101890615
 20
23.25528127336423
 10
615.4665101890615
 20
23.25528127336423
 10
615.4665101890615
 20
23.36195709498823
 10
615.4665101890615
 20
23.36195709498823
 10
615.4665101890615
 20
23.36195709498823
 10
614.8546918280086
 20
23.36195709498823
 10
614.8546918280086
 20
23.36195709498823
 10
614.8546918280086
 20
23.36195709498823
 10
614.8546918280086
 20
23.30835470645053
 10
614.8546918280086
 20
23.30835470645053
 10
614.8546918280086
 20
21.77069363518016
 10
614.1255312435202
 20
20.9471445417213
 10
613.3812695447785
 20
20.82917201388685
 10
613.3812695447785
 20
20.82917201388685
 10
613.3812695447785
 20
25.12445405467876
 10
613.3812695447785
 20
25.12445405467876
 10
613.3812695447785
 20
25.12445405467876
 10
613.3413763403468
 20
25.12445405467876
 10
613.3413763403468
 20
25.12445405467876
 97
        0
 97
        0
 75
     2
 76
     1
 98
        0
  0
SPLINE
  5
493C
330
A
100
AcDbEntity
  8
図枠
 62
     0
370
     0
100
AcDbSpline
210
0.0
220
0.0
230
1.0
 70
    11
 71
     3
 72
    35
 73
    31
 74
     0
 42
0.000000001
 43
0.0000000001
 40
0.0
 40
0.0
 40
0.0
 40
0.0
 40
1.0
 40
1.0
 40
1.0
 40
2.0
 40
2.0
 40
2.0
 40
3.0
 40
3.0
 40
3.0
 40
4.0
 40
4.0
 40
4.0
 40
5.0
 40
5.0
 40
5.0
 40
6.0
 40
6.0
 40
6.0
 40
7.0
 40
7.0
 40
7.0
 40
8.0
 40
8.0
 40
8.0
 40
9.0
 40
9.0
 40
9.0
 40
10.0
 40
10.0
 40
10.0
 40
10.0
 10
615.9543155735984
 20
25.10559735944664
 30
0.0
 10
615.9543155735984
 20
25.10559735944664
 30
0.0
 10
615.8821191160706
 20
25.10559735944664
 30
0.0
 10
615.8821191160706
 20
25.10559735944664
 30
0.0
 10
615.8821191160706
 20
25.10559735944664
 30
0.0
 10
615.8821191160706
 20
24.47634051018228
 30
0.0
 10
615.8821191160706
 20
24.47634051018228
 30
0.0
 10
615.8821191160706
 20
24.47634051018228
 30
0.0
 10
616.8913456056447
 20
24.47634051018228
 30
0.0
 10
616.8913456056447
 20
24.47634051018228
 30
0.0
 10
618.3174685367304
 20
24.47634051018228
 30
0.0
 10
619.2381900150925
 20
24.06611546904863
 30
0.0
 10
619.3376997897957
 20
24.01931514745511
 30
0.0
 10
619.3376997897957
 20
24.01931514745511
 30
0.0
 10
619.436710571168
 20
23.9734077612896
 30
0.0
 10
619.436710571168
 20
23.9734077612896
 30
0.0
 10
619.436710571168
 20
23.9734077612896
 30
0.0
 10
619.4417005044476
 20
24.08137415976014
 30
0.0
 10
619.4417005044476
 20
24.08137415976014
 30
0.0
 10
619.4417005044476
 20
24.08137415976014
 30
0.0
 10
619.4423578120255
 20
24.58509479285266
 30
0.0
 10
619.4423578120255
 20
24.58509479285266
 30
0.0
 10
619.4423578120255
 20
24.58509479285266
 30
0.0
 10
619.4065608690431
 20
24.60586867297754
 30
0.0
 10
619.4065608690431
 20
24.60586867297754
 30
0.0
 10
619.3981042452757
 20
24.61046466415465
 30
0.0
 10
618.5231595532342
 20
25.10559735944664
 30
0.0
 10
616.7582457011337
 20
25.10559735944664
 30
0.0
 10
616.7582457011337
 20
25.10559735944664
 30
0.0
 10
615.9543155735984
 20
25.10559735944664
 30
0.0
 10
615.9543155735984
 20
25.10559735944664
 30
0.0
  0
HATCH
  5
493D
330
A
100
AcDbEntity
  8
図枠
 62
     0
100
AcDbHatch
 10
0.0
 20
0.0
 30
0.0
210
0.0
220
0.0
230
1.0
  2
SOLID
 70
     1
 71
     0
 91
        1
 92
        1
 93
        1
 72
     4
 94
        3
 73
     0
 74
     1
 95
       35
 96
       31
 40
0.0
 40
0.0
 40
0.0
 40
0.0
 40
1.0
 40
1.0
 40
1.0
 40
2.0
 40
2.0
 40
2.0
 40
3.0
 40
3.0
 40
3.0
 40
4.0
 40
4.0
 40
4.0
 40
5.0
 40
5.0
 40
5.0
 40
6.0
 40
6.0
 40
6.0
 40
7.0
 40
7.0
 40
7.0
 40
8.0
 40
8.0
 40
8.0
 40
9.0
 40
9.0
 40
9.0
 40
10.0
 40
10.0
 40
10.0
 40
10.0
 10
615.9543155735984
 20
25.10559735944664
 10
615.9543155735984
 20
25.10559735944664
 10
615.8821191160706
 20
25.10559735944664
 10
615.8821191160706
 20
25.10559735944664
 10
615.8821191160706
 20
25.10559735944664
 10
615.8821191160706
 20
24.47634051018228
 10
615.8821191160706
 20
24.47634051018228
 10
615.8821191160706
 20
24.47634051018228
 10
616.8913456056447
 20
24.47634051018228
 10
616.8913456056447
 20
24.47634051018228
 10
618.3174685367304
 20
24.47634051018228
 10
619.2381900150925
 20
24.06611546904863
 10
619.3376997897957
 20
24.01931514745511
 10
619.3376997897957
 20
24.01931514745511
 10
619.436710571168
 20
23.9734077612896
 10
619.436710571168
 20
23.9734077612896
 10
619.436710571168
 20
23.9734077612896
 10
619.4417005044476
 20
24.08137415976014
 10
619.4417005044476
 20
24.08137415976014
 10
619.4417005044476
 20
24.08137415976014
 10
619.4423578120255
 20
24.58509479285266
 10
619.4423578120255
 20
24.58509479285266
 10
619.4423578120255
 20
24.58509479285266
 10
619.4065608690431
 20
24.60586867297754
 10
619.4065608690431
 20
24.60586867297754
 10
619.3981042452757
 20
24.61046466415465
 10
618.5231595532342
 20
25.10559735944664
 10
616.7582457011337
 20
25.10559735944664
 10
616.7582457011337
 20
25.10559735944664
 10
615.9543155735984
 20
25.10559735944664
 10
615.9543155735984
 20
25.10559735944664
 97
        0
 97
        0
 75
     2
 76
     1
 98
        0
  0
SPLINE
  5
493E
330
A
100
AcDbEntity
  8
図枠
 62
     0
370
     0
100
AcDbSpline
210
0.0
220
0.0
230
1.0
 70
    11
 71
     3
 72
    35
 73
    31
 74
     0
 42
0.000000001
 43
0.0000000001
 40
0.0
 40
0.0
 40
0.0
 40
0.0
 40
1.0
 40
1.0
 40
1.0
 40
2.0
 40
2.0
 40
2.0
 40
3.0
 40
3.0
 40
3.0
 40
4.0
 40
4.0
 40
4.0
 40
5.0
 40
5.0
 40
5.0
 40
6.0
 40
6.0
 40
6.0
 40
7.0
 40
7.0
 40
7.0
 40
8.0
 40
8.0
 40
8.0
 40
9.0
 40
9.0
 40
9.0
 40
10.0
 40
10.0
 40
10.0
 40
10.0
 10
616.0815326126152
 20
23.37093897489093
 30
0.0
 10
616.0815326126152
 20
23.37093897489093
 30
0.0
 10
616.0103604045772
 20
23.37093897489093
 30
0.0
 10
616.0103604045772
 20
23.37093897489093
 30
0.0
 10
616.0103604045772
 20
23.37093897489093
 30
0.0
 10
616.0103604045772
 20
22.75898931526051
 30
0.0
 10
616.0103604045772
 20
22.75898931526051
 30
0.0
 10
616.0103604045772
 20
22.75898931526051
 30
0.0
 10
616.7408071974652
 20
22.75898931526051
 30
0.0
 10
616.7408071974652
 20
22.75898931526051
 30
0.0
 10
618.1749928102175
 20
22.75898931526051
 30
0.0
 10
619.1099487298262
 20
22.35582896913793
 30
0.0
 10
619.2115332662598
 20
22.30965895490666
 30
0.0
 10
619.2115332662598
 20
22.30965895490666
 30
0.0
 10
619.3115420342905
 20
22.26553743959879
 30
0.0
 10
619.3115420342905
 20
22.26553743959879
 30
0.0
 10
619.3115420342905
 20
22.26553743959879
 30
0.0
 10
619.3137218472492
 20
22.37326747280828
 30
0.0
 10
619.3137218472492
 20
22.37326747280828
 30
0.0
 10
619.3137218472492
 20
22.37326747280828
 30
0.0
 10
619.314746096712
 20
22.84337171328508
 30
0.0
 10
619.314746096712
 20
22.84337171328508
 30
0.0
 10
619.314746096712
 20
22.84337171328508
 30
0.0
 10
619.2879580338464
 20
22.86427690744284
 30
0.0
 10
619.2879580338464
 20
22.86427690744284
 30
0.0
 10
619.2626932137729
 20
22.8853134156338
 30
0.0
 10
618.6486957725775
 20
23.37093897489093
 30
0.0
 10
616.6303720951634
 20
23.37093897489093
 30
0.0
 10
616.6303720951634
 20
23.37093897489093
 30
0.0
 10
616.0815326126152
 20
23.37093897489093
 30
0.0
 10
616.0815326126152
 20
23.37093897489093
 30
0.0
  0
HATCH
  5
493F
330
A
100
AcDbEntity
  8
図枠
 62
     0
100
AcDbHatch
 10
0.0
 20
0.0
 30
0.0
210
0.0
220
0.0
230
1.0
  2
SOLID
 70
     1
 71
     0
 91
        1
 92
        1
 93
        1
 72
     4
 94
        3
 73
     0
 74
     1
 95
       35
 96
       31
 40
0.0
 40
0.0
 40
0.0
 40
0.0
 40
1.0
 40
1.0
 40
1.0
 40
2.0
 40
2.0
 40
2.0
 40
3.0
 40
3.0
 40
3.0
 40
4.0
 40
4.0
 40
4.0
 40
5.0
 40
5.0
 40
5.0
 40
6.0
 40
6.0
 40
6.0
 40
7.0
 40
7.0
 40
7.0
 40
8.0
 40
8.0
 40
8.0
 40
9.0
 40
9.0
 40
9.0
 40
10.0
 40
10.0
 40
10.0
 40
10.0
 10
616.0815326126152
 20
23.37093897489093
 10
616.0815326126152
 20
23.37093897489093
 10
616.0103604045772
 20
23.37093897489093
 10
616.0103604045772
 20
23.37093897489093
 10
616.0103604045772
 20
23.37093897489093
 10
616.0103604045772
 20
22.75898931526051
 10
616.0103604045772
 20
22.75898931526051
 10
616.0103604045772
 20
22.75898931526051
 10
616.7408071974652
 20
22.75898931526051
 10
616.7408071974652
 20
22.75898931526051
 10
618.1749928102175
 20
22.75898931526051
 10
619.1099487298262
 20
22.35582896913793
 10
619.2115332662598
 20
22.30965895490666
 10
619.2115332662598
 20
22.30965895490666
 10
619.3115420342905
 20
22.26553743959879
 10
619.3115420342905
 20
22.26553743959879
 10
619.3115420342905
 20
22.26553743959879
 10
619.3137218472492
 20
22.37326747280828
 10
619.3137218472492
 20
22.37326747280828
 10
619.3137218472492
 20
22.37326747280828
 10
619.314746096712
 20
22.84337171328508
 10
619.314746096712
 20
22.84337171328508
 10
619.314746096712
 20
22.84337171328508
 10
619.2879580338464
 20
22.86427690744284
 10
619.2879580338464
 20
22.86427690744284
 10
619.2626932137729
 20
22.8853134156338
 10
618.6486957725775
 20
23.37093897489093
 10
616.6303720951634
 20
23.37093897489093
 10
616.6303720951634
 20
23.37093897489093
 10
616.0815326126152
 20
23.37093897489093
 10
616.0815326126152
 20
23.37093897489093
 97
        0
 97
        0
 75
     2
 76
     1
 98
        0
  0
SPLINE
  5
4940
330
A
100
AcDbEntity
  8
図枠
 62
     0
370
     0
100
AcDbSpline
210
0.0
220
0.0
230
1.0
 70
    11
 71
     3
 72
    38
 73
    34
 74
     0
 42
0.000000001
 43
0.0000000001
 40
0.0
 40
0.0
 40
0.0
 40
0.0
 40
1.0
 40
1.0
 40
1.0
 40
2.0
 40
2.0
 40
2.0
 40
3.0
 40
3.0
 40
3.0
 40
4.0
 40
4.0
 40
4.0
 40
5.0
 40
5.0
 40
5.0
 40
6.0
 40
6.0
 40
6.0
 40
7.0
 40
7.0
 40
7.0
 40
8.0
 40
8.0
 40
8.0
 40
9.0
 40
9.0
 40
9.0
 40
10.0
 40
10.0
 40
10.0
 40
11.0
 40
11.0
 40
11.0
 40
11.0
 10
615.8189045386733
 20
21.22248380748391
 30
0.0
 10
615.8189045386733
 20
21.22248380748391
 30
0.0
 10
615.7467080811475
 20
21.22248380748391
 30
0.0
 10
615.7467080811475
 20
21.22248380748391
 30
0.0
 10
615.7467080811475
 20
21.22248380748391
 30
0.0
 10
615.7467080811475
 20
20.57641876191177
 30
0.0
 10
615.7467080811475
 20
20.57641876191177
 30
0.0
 10
615.7467080811475
 20
20.57641876191177
 30
0.0
 10
616.9513561190239
 20
20.57641876191177
 30
0.0
 10
616.9513561190239
 20
20.57641876191177
 30
0.0
 10
618.3810777652307
 20
20.57641876191177
 30
0.0
 10
619.4465853864987
 20
20.16952909723458
 30
0.0
 10
619.564058921006
 20
20.1230964549337
 30
0.0
 10
619.5623788418164
 20
20.12385807632883
 30
0.0
 10
619.6065003582386
 20
20.10605189336584
 30
0.0
 10
619.6065003582386
 20
20.10605189336584
 30
0.0
 10
619.6065003582386
 20
20.10605189336584
 30
0.0
 10
619.6603646332873
 20
20.08399113571206
 30
0.0
 10
619.6603646332873
 20
20.08399113571206
 30
0.0
 10
619.6603646332873
 20
20.08399113571206
 30
0.0
 10
619.6625444462461
 20
20.18849084369326
 30
0.0
 10
619.6625444462461
 20
20.18849084369326
 30
0.0
 10
619.6625444462461
 20
20.18849084369326
 30
0.0
 10
619.6625444462461
 20
20.70376711174788
 30
0.0
 10
619.6625444462461
 20
20.70376711174788
 30
0.0
 10
619.6625444462461
 20
20.70376711174788
 30
0.0
 10
619.6254613631426
 20
20.72580160659566
 30
0.0
 10
619.6254613631426
 20
20.72580160659566
 30
0.0
 10
619.5871176653144
 20
20.74581386532349
 30
0.0
 10
618.683178120454
 20
21.22248380748391
 30
0.0
 10
616.8935254186032
 20
21.22248380748391
 30
0.0
 10
616.8935254186032
 20
21.22248380748391
 30
0.0
 10
615.8189045386733
 20
21.22248380748391
 30
0.0
 10
615.8189045386733
 20
21.22248380748391
 30
0.0
  0
HATCH
  5
4941
330
A
100
AcDbEntity
  8
図枠
 62
     0
100
AcDbHatch
 10
0.0
 20
0.0
 30
0.0
210
0.0
220
0.0
230
1.0
  2
SOLID
 70
     1
 71
     0
 91
        1
 92
        1
 93
        1
 72
     4
 94
        3
 73
     0
 74
     1
 95
       38
 96
       34
 40
0.0
 40
0.0
 40
0.0
 40
0.0
 40
1.0
 40
1.0
 40
1.0
 40
2.0
 40
2.0
 40
2.0
 40
3.0
 40
3.0
 40
3.0
 40
4.0
 40
4.0
 40
4.0
 40
5.0
 40
5.0
 40
5.0
 40
6.0
 40
6.0
 40
6.0
 40
7.0
 40
7.0
 40
7.0
 40
8.0
 40
8.0
 40
8.0
 40
9.0
 40
9.0
 40
9.0
 40
10.0
 40
10.0
 40
10.0
 40
11.0
 40
11.0
 40
11.0
 40
11.0
 10
615.8189045386733
 20
21.22248380748391
 10
615.8189045386733
 20
21.22248380748391
 10
615.7467080811475
 20
21.22248380748391
 10
615.7467080811475
 20
21.22248380748391
 10
615.7467080811475
 20
21.22248380748391
 10
615.7467080811475
 20
20.57641876191177
 10
615.7467080811475
 20
20.57641876191177
 10
615.7467080811475
 20
20.57641876191177
 10
616.9513561190239
 20
20.57641876191177
 10
616.9513561190239
 20
20.57641876191177
 10
618.3810777652307
 20
20.57641876191177
 10
619.4465853864987
 20
20.16952909723458
 10
619.564058921006
 20
20.1230964549337
 10
619.5623788418164
 20
20.12385807632883
 10
619.6065003582386
 20
20.10605189336584
 10
619.6065003582386
 20
20.10605189336584
 10
619.6065003582386
 20
20.10605189336584
 10
619.6603646332873
 20
20.08399113571206
 10
619.6603646332873
 20
20.08399113571206
 10
619.6603646332873
 20
20.08399113571206
 10
619.6625444462461
 20
20.18849084369326
 10
619.6625444462461
 20
20.18849084369326
 10
619.6625444462461
 20
20.18849084369326
 10
619.6625444462461
 20
20.70376711174788
 10
619.6625444462461
 20
20.70376711174788
 10
619.6625444462461
 20
20.70376711174788
 10
619.6254613631426
 20
20.72580160659566
 10
619.6254613631426
 20
20.72580160659566
 10
619.5871176653144
 20
20.74581386532349
 10
618.683178120454
 20
21.22248380748391
 10
616.8935254186032
 20
21.22248380748391
 10
616.8935254186032
 20
21.22248380748391
 10
615.8189045386733
 20
21.22248380748391
 10
615.8189045386733
 20
21.22248380748391
 97
        0
 97
        0
 75
     2
 76
     1
 98
        0
  0
VIEWPORT
  5
50C
330
B
100
AcDbEntity
 67
     1
  8
0
100
AcDbViewport
 10
0.0
 20
0.0
 30
0.0
 40
87.52768277709984
 41
50.8248981504
 68
     1
 69
     1
 12
144.2757933275833
 22
138.4691507916286
 13
0.0
 23
0.0
 14
0.5
 24
0.5
 15
0.0
 25
0.0
 16
0.0
 26
0.0
 36
1.0
 17
0.0
 27
0.0
 37
0.0
 42
50.0
 43
0.0
 44
0.0
 45
50.8248981504
 50
0.0
 51
0.0
 72
   100
 90
   557168
  1

281
     0
 71
     1
 74
     0
110
0.0
120
0.0
130
0.0
111
1.0
121
0.0
131
0.0
112
0.0
122
1.0
132
0.0
 79
     0
146
0.0
170
     0
 61
     5
348
D27
292
     1
282
     1
141
0.0
142
0.0
 63
   256
361
E27
  0
VIEWPORT
  5
50D
102
{ACAD_XDICTIONARY
360
50E
102
}
330
B
100
AcDbEntity
 67
     1
  8
0
100
AcDbViewport
 10
202.5
 20
128.5
 30
0.0
 40
324.0
 41
205.6
 68
     2
 69
     2
 12
644.4250200184739
 22
155.5872072606362
 13
0.0
 23
0.0
 14
0.5
 24
0.5
 15
0.0
 25
0.0
 16
0.0
 26
0.0
 36
1.0
 17
0.0
 27
0.0
 37
0.0
 42
50.0
 43
0.0
 44
0.0
 45
302.94
 50
0.0
 51
0.0
 72
   100
 90
   557152
  1

281
     0
 71
     1
 74
     0
110
0.0
120
0.0
130
0.0
111
1.0
121
0.0
131
0.0
112
0.0
122
1.0
132
0.0
 79
     0
146
0.0
170
     0
 61
     5
348
D27
292
     1
282
     1
141
0.0
142
0.0
 63
   256
  0
ENDSEC
  0
SECTION
  2
OBJECTS
  0
DICTIONARY
  5
19
330
0
100
AcDbDictionary
281
     1
  3
ACAD_COLOR
350
4890
  3
ACAD_DETAILVIEWSTYLE
350
1CF
  3
ACAD_GROUP
350
1A
  3
ACAD_IMAGE_VARS
350
1C6
  3
ACAD_LAYOUT
350
D60
  3
ACAD_MATERIAL
350
D63
  3
ACAD_MLEADERSTYLE
350
D69
  3
ACAD_MLINESTYLE
350
1B
  3
ACAD_PLOTSETTINGS
350
D3B
  3
ACAD_PLOTSTYLENAME
350
D3C
  3
ACAD_SCALELIST
350
D3E
  3
ACAD_SECTIONVIEWSTYLE
350
1D0
  3
ACAD_TABLESTYLE
350
D67
  3
ACAD_VISUALSTYLE
350
D22
  3
ACAD_WIPEOUT_VARS
350
23
  3
ACDB_RECOMPOSE_DATA
350
4944
  3
ACDBVARIABLEDICTIONARY
350
1C7
  3
ACSTSTANDARD
350
DE2
  3
APPDATA
350
1C4
  3
CENTERLINE
350
347
  3
DIMOFFSETDICTIONARY
350
342
  0
SUN
  5
D6B
330
15
100
AcDbSun
 90
        1
290
     0
 63
     7
421
 16777215
 40
1.0
291
     1
 91
  2455826
 92
 54000000
292
     0
 70
     2
 71
   256
280
     1
  0
DICTIONARY
  5
29A
330
2
100
AcDbDictionary
280
     1
281
     1
  3
ACAD_LAYERSTATES
360
29B
  0
SUN
  5
E27
330
50C
100
AcDbSun
 90
        1
290
     0
 63
     7
421
 16777215
 40
1.0
291
     1
 91
  2455826
 92
 54000000
292
     0
 70
     2
 71
   256
280
     1
  0
DICTIONARY
  5
50E
330
50D
100
AcDbDictionary
280
     1
281
     1
  3
ASDK_XREC_ANNOTATION_SCALE_INFO
360
50F
  0
DICTIONARY
  5
4890
102
{ACAD_REACTORS
330
19
102
}
330
19
100
AcDbDictionary
281
     1
  0
DICTIONARY
  5
1CF
102
{ACAD_REACTORS
330
19
102
}
330
19
100
AcDbDictionary
281
     1
  0
DICTIONARY
  5
1A
102
{ACAD_REACTORS
330
19
102
}
330
19
100
AcDbDictionary
281
     1
  0
RASTERVARIABLES
  5
1C6
102
{ACAD_REACTORS
330
19
102
}
330
19
100
AcDbRasterVariables
 90
        0
 70
     1
 71
     1
 72
     0
  0
DICTIONARY
  5
D60
102
{ACAD_REACTORS
330
19
102
}
330
19
100
AcDbDictionary
281
     1
  3
Model
350
D61
  3
シート 1
350
D62
  0
DICTIONARY
  5
D63
102
{ACAD_REACTORS
330
19
102
}
330
19
100
AcDbDictionary
281
     1
  3
ByBlock
350
D65
  3
ByLayer
350
D64
  3
Global
350
D66
  0
DICTIONARY
  5
D69
102
{ACAD_REACTORS
330
19
102
}
330
19
100
AcDbDictionary
281
     1
  3
Standard
350
D6A
  0
DICTIONARY
  5
1B
102
{ACAD_REACTORS
330
19
102
}
330
19
100
AcDbDictionary
281
     1
  3
STANDARD
350
1C
  0
DICTIONARY
  5
D3B
102
{ACAD_REACTORS
330
19
102
}
330
19
100
AcDbDictionary
281
     1
  0
ACDBDICTIONARYWDFLT
  5
D3C
102
{ACAD_REACTORS
330
19
102
}
330
19
100
AcDbDictionary
281
     1
  3
Normal
350
D3D
100
AcDbDictionaryWithDefault
340
D3D
  0
DICTIONARY
  5
D3E
102
{ACAD_REACTORS
330
19
102
}
330
19
100
AcDbDictionary
281
     1
  3
A0
350
D3F
  3
A1
350
D40
  3
A2
350
D41
  3
A3
350
D42
  3
A4
350
D43
  3
A5
350
D44
  3
A6
350
D45
  3
A7
350
D46
  3
A8
350
D47
  3
A9
350
D48
  3
B0
350
D49
  3
B1
350
D4A
  3
B2
350
D4B
  3
B3
350
D4C
  3
B4
350
D4D
  3
B5
350
D4E
  3
B6
350
D4F
  3
B7
350
D50
  3
B8
350
D51
  3
B9
350
D52
  3
C0
350
D53
  3
C1
350
D54
  3
C2
350
D55
  3
C3
350
D56
  3
C4
350
D57
  3
C5
350
D58
  3
C6
350
D59
  3
C7
350
D5A
  3
C8
350
D5B
  3
C9
350
D5C
  3
D0
350
D5D
  3
D1
350
D5E
  3
D2
350
D5F
  0
DICTIONARY
  5
1D0
102
{ACAD_REACTORS
330
19
102
}
330
19
100
AcDbDictionary
281
     1
  0
DICTIONARY
  5
D67
102
{ACAD_REACTORS
330
19
102
}
330
19
100
AcDbDictionary
281
     1
  3
Standard
350
D68
  0
DICTIONARY
  5
D22
102
{ACAD_REACTORS
330
19
102
}
330
19
100
AcDbDictionary
281
     1
  3
2dWireframe
350
D27
  3
Basic
350
D2A
  3
Brighten
350
D2E
  3
ColorChange
350
D32
  3
Conceptual
350
D2C
  3
Dim
350
D2D
  3
EdgeColorOff
350
D35
  3
Facepattern
350
D31
  3
Flat
350
D23
  3
FlatWithEdges
350
D24
  3
Gouraud
350
D25
  3
GouraudWithEdges
350
D26
  3
Hidden
350
D29
  3
JitterOff
350
D33
  3
Linepattern
350
D30
  3
OverhangOff
350
D34
  3
Realistic
350
D2B
  3
Shaded
350
D3A
  3
Shaded with edges
350
D39
  3
Shades of Gray
350
D36
  3
Sketchy
350
D37
  3
Thicken
350
D2F
  3
Wireframe
350
D28
  3
X-Ray
350
D38
  0
WIPEOUTVARIABLES
  5
23
330
19
100
AcDbWipeoutVariables
 70
     1
  0
XRECORD
  5
4944
102
{ACAD_REACTORS
330
19
102
}
330
19
100
AcDbXrecord
280
     1
 90
        1
330
D68
  0
DICTIONARY
  5
1C7
102
{ACAD_REACTORS
330
19
102
}
330
19
100
AcDbDictionary
281
     1
  3
CANNOSCALE
350
E23
  3
CMLEADERSTYLE
350
E25
  3
CTABLESTYLE
350
E24
  3
HPTRANSPARENCY
350
DCD
  3
MSLTSCALE
350
E26
  0
DICTIONARY
  5
DE2
102
{ACAD_REACTORS
330
19
102
}
330
19
100
AcDbDictionary
281
     1
  0
DICTIONARY
  5
1C4
102
{ACAD_REACTORS
330
19
102
}
330
19
100
AcDbDictionary
281
     1
  0
DICTIONARY
  5
347
102
{ACAD_REACTORS
330
19
102
}
330
19
100
AcDbDictionary
281
     1
  3
CLEXTENSION
350
DE7
  0
DICTIONARY
  5
342
102
{ACAD_REACTORS
330
19
102
}
330
19
100
AcDbDictionary
281
     1
  3
DIMRAILANGLE
350
DE5
  3
DIMRAILFIRSTOFFSET
350
DE3
  3
DIMRAILOFFSET
350
DE4
  3
DIMRAILSENABLED
350
DE6
  0
DICTIONARY
  5
29B
102
{ACAD_REACTORS
330
29A
102
}
330
29A
100
AcDbDictionary
281
     1
  0
XRECORD
  5
50F
102
{ACAD_REACTORS
330
50E
102
}
330
50E
100
AcDbXrecord
280
     1
 90
        1
340
0
  0
LAYOUT
  5
D61
102
{ACAD_REACTORS
330
D60
102
}
330
D60
100
AcDbPlotSettings
  1

  2
none_device
  4
Letter_(8.50_x_11.00_Inches)
  6

 40
6.35
 41
6.35
 42
6.35
 43
6.35
 44
215.9
 45
279.4
 46
0.0
 47
0.0
 48
0.0
 49
0.0
140
0.0
141
0.0
142
1.0
143
94.20939657471693
 70
  1712
 72
     0
 73
     0
 74
     0
  7

 75
     0
 76
     0
 77
     2
 78
   300
147
0.010614652427021
148
-8120.521216095871
149
435.1168314980068
100
AcDbLayout
  1
Model
 70
     1
 71
     0
 10
0.0
 20
0.0
 11
404.680208
 21
287.734375
 12
0.0
 22
0.0
 32
0.0
 14
356.488146
 24
-336.143454320877
 34
0.0
 15
810.0380576611608
 25
304.0872072606362
 35
0.0
146
0.0
 13
0.0
 23
0.0
 33
0.0
 16
1.0
 26
0.0
 36
0.0
 17
0.0
 27
1.0
 37
0.0
 76
     0
330
A
331
15
  0
LAYOUT
  5
D62
102
{ACAD_REACTORS
330
D60
102
}
330
D60
100
AcDbPlotSettings
  1

  2
none_device
  4
ISO_A3_(420.00_x_297.00_MM)
  6

 40
7.5
 41
20.0
 42
7.5
 43
20.0
 44
420.0
 45
297.0
 46
0.0
 47
0.0
 48
0.0
 49
0.0
140
0.0
141
0.0
142
1.0
143
0.8
 70
   688
 72
     1
 73
     0
 74
     1
  7

 75
     0
 76
     0
 77
     2
 78
   300
147
1.25
148
-40.5
149
-25.69999999999999
100
AcDbLayout
  1
シート 1
 70
     0
 71
     1
 10
0.0
 20
0.0
 11
0.0
 21
0.0
 12
0.0
 22
0.0
 32
0.0
 14
40.5
 24
25.69999999999999
 34
0.0
 15
364.5
 25
231.3
 35
0.0
146
0.0
 13
0.0
 23
0.0
 33
0.0
 16
1.0
 26
0.0
 36
0.0
 17
0.0
 27
1.0
 37
0.0
 76
     0
330
B
331
50C
  0
MATERIAL
  5
D65
102
{ACAD_REACTORS
330
D63
102
}
330
D63
100
AcDbMaterial
  1
ByBlock
 72
     1
 94
      127
  0
MATERIAL
  5
D64
102
{ACAD_REACTORS
330
D63
102
}
330
D63
100
AcDbMaterial
  1
ByLayer
 72
     1
 94
      127
  0
MATERIAL
  5
D66
102
{ACAD_REACTORS
330
D63
102
}
330
D63
100
AcDbMaterial
  1
Global
 72
     1
 94
      127
  0
MLEADERSTYLE
  5
D6A
102
{ACAD_REACTORS
330
D69
102
}
330
D69
100
AcDbMLeaderStyle
179
     2
170
     2
171
     1
172
     0
 90
        2
 40
0.0
 41
0.0
173
     1
 91
-1056964608
340
11
 92
       -2
290
     1
 42
2.0
291
     1
 43
8.0
  3
Standard
341
0
 44
4.0
300

342
17
174
     1
178
     1
175
     1
176
     0
 93
-1056964608
 45
4.0
292
     0
297
     0
 46
4.0
343
0
 94
-1056964608
 47
1.0
 49
1.0
140
1.0
293
     1
141
0.0
294
     1
177
     0
142
1.0
295
     0
296
     0
143
3.75
271
     0
272
     9
273
     9
298
     0
  0
MLINESTYLE
  5
1C
102
{ACAD_REACTORS
330
1B
102
}
330
1B
100
AcDbMlineStyle
  2
Standard
 70
     0
  3

 62
     0
 51
90.0
 52
90.0
 71
     2
 49
0.5
 62
   256
  6
BYLAYER
 49
-0.5
 62
   256
  6
BYLAYER
  0
ACDBPLACEHOLDER
  5
D3D
102
{ACAD_REACTORS
330
D3C
102
}
330
D3C
  0
SCALE
  5
D3F
102
{ACAD_REACTORS
330
D3E
102
}
330
D3E
100
AcDbScale
 70
     0
300
1:1
140
1.0
141
1.0
290
     1
  0
SCALE
  5
D40
102
{ACAD_REACTORS
330
D3E
102
}
330
D3E
100
AcDbScale
 70
     0
300
1:2
140
1.0
141
2.0
290
     0
  0
SCALE
  5
D41
102
{ACAD_REACTORS
330
D3E
102
}
330
D3E
100
AcDbScale
 70
     0
300
1:4
140
1.0
141
4.0
290
     0
  0
SCALE
  5
D42
102
{ACAD_REACTORS
330
D3E
102
}
330
D3E
100
AcDbScale
 70
     0
300
1:5
140
1.0
141
5.0
290
     0
  0
SCALE
  5
D43
102
{ACAD_REACTORS
330
D3E
102
}
330
D3E
100
AcDbScale
 70
     0
300
1:8
140
1.0
141
8.0
290
     0
  0
SCALE
  5
D44
102
{ACAD_REACTORS
330
D3E
102
}
330
D3E
100
AcDbScale
 70
     0
300
1:10
140
1.0
141
10.0
290
     0
  0
SCALE
  5
D45
102
{ACAD_REACTORS
330
D3E
102
}
330
D3E
100
AcDbScale
 70
     0
300
1:16
140
1.0
141
16.0
290
     0
  0
SCALE
  5
D46
102
{ACAD_REACTORS
330
D3E
102
}
330
D3E
100
AcDbScale
 70
     0
300
1:20
140
1.0
141
20.0
290
     0
  0
SCALE
  5
D47
102
{ACAD_REACTORS
330
D3E
102
}
330
D3E
100
AcDbScale
 70
     0
300
1:30
140
1.0
141
30.0
290
     0
  0
SCALE
  5
D48
102
{ACAD_REACTORS
330
D3E
102
}
330
D3E
100
AcDbScale
 70
     0
300
1:40
140
1.0
141
40.0
290
     0
  0
SCALE
  5
D49
102
{ACAD_REACTORS
330
D3E
102
}
330
D3E
100
AcDbScale
 70
     0
300
1:50
140
1.0
141
50.0
290
     0
  0
SCALE
  5
D4A
102
{ACAD_REACTORS
330
D3E
102
}
330
D3E
100
AcDbScale
 70
     0
300
1:100
140
1.0
141
100.0
290
     0
  0
SCALE
  5
D4B
102
{ACAD_REACTORS
330
D3E
102
}
330
D3E
100
AcDbScale
 70
     0
300
2:1
140
2.0
141
1.0
290
     0
  0
SCALE
  5
D4C
102
{ACAD_REACTORS
330
D3E
102
}
330
D3E
100
AcDbScale
 70
     0
300
4:1
140
4.0
141
1.0
290
     0
  0
SCALE
  5
D4D
102
{ACAD_REACTORS
330
D3E
102
}
330
D3E
100
AcDbScale
 70
     0
300
8:1
140
8.0
141
1.0
290
     0
  0
SCALE
  5
D4E
102
{ACAD_REACTORS
330
D3E
102
}
330
D3E
100
AcDbScale
 70
     0
300
10:1
140
10.0
141
1.0
290
     0
  0
SCALE
  5
D4F
102
{ACAD_REACTORS
330
D3E
102
}
330
D3E
100
AcDbScale
 70
     0
300
100:1
140
100.0
141
1.0
290
     0
  0
SCALE
  5
D50
102
{ACAD_REACTORS
330
D3E
102
}
330
D3E
100
AcDbScale
 70
     0
300
1/128" = 1'-0"
140
0.0078125
141
12.0
290
     0
  0
SCALE
  5
D51
102
{ACAD_REACTORS
330
D3E
102
}
330
D3E
100
AcDbScale
 70
     0
300
1/64" = 1'-0"
140
0.015625
141
12.0
290
     0
  0
SCALE
  5
D52
102
{ACAD_REACTORS
330
D3E
102
}
330
D3E
100
AcDbScale
 70
     0
300
1/32" = 1'-0"
140
0.03125
141
12.0
290
     0
  0
SCALE
  5
D53
102
{ACAD_REACTORS
330
D3E
102
}
330
D3E
100
AcDbScale
 70
     0
300
1/16" = 1'-0"
140
0.0625
141
12.0
290
     0
  0
SCALE
  5
D54
102
{ACAD_REACTORS
330
D3E
102
}
330
D3E
100
AcDbScale
 70
     0
300
3/32" = 1'-0"
140
0.09375
141
12.0
290
     0
  0
SCALE
  5
D55
102
{ACAD_REACTORS
330
D3E
102
}
330
D3E
100
AcDbScale
 70
     0
300
1/8" = 1'-0"
140
0.125
141
12.0
290
     0
  0
SCALE
  5
D56
102
{ACAD_REACTORS
330
D3E
102
}
330
D3E
100
AcDbScale
 70
     0
300
3/16" = 1'-0"
140
0.1875
141
12.0
290
     0
  0
SCALE
  5
D57
102
{ACAD_REACTORS
330
D3E
102
}
330
D3E
100
AcDbScale
 70
     0
300
1/4" = 1'-0"
140
0.25
141
12.0
290
     0
  0
SCALE
  5
D58
102
{ACAD_REACTORS
330
D3E
102
}
330
D3E
100
AcDbScale
 70
     0
300
3/8" = 1'-0"
140
0.375
141
12.0
290
     0
  0
SCALE
  5
D59
102
{ACAD_REACTORS
330
D3E
102
}
330
D3E
100
AcDbScale
 70
     0
300
1/2" = 1'-0"
140
0.5
141
12.0
290
     0
  0
SCALE
  5
D5A
102
{ACAD_REACTORS
330
D3E
102
}
330
D3E
100
AcDbScale
 70
     0
300
3/4" = 1'-0"
140
0.75
141
12.0
290
     0
  0
SCALE
  5
D5B
102
{ACAD_REACTORS
330
D3E
102
}
330
D3E
100
AcDbScale
 70
     0
300
1" = 1'-0"
140
1.0
141
12.0
290
     0
  0
SCALE
  5
D5C
102
{ACAD_REACTORS
330
D3E
102
}
330
D3E
100
AcDbScale
 70
     0
300
1-1/2" = 1'-0"
140
1.5
141
12.0
290
     0
  0
SCALE
  5
D5D
102
{ACAD_REACTORS
330
D3E
102
}
330
D3E
100
AcDbScale
 70
     0
300
3" = 1'-0"
140
3.0
141
12.0
290
     0
  0
SCALE
  5
D5E
102
{ACAD_REACTORS
330
D3E
102
}
330
D3E
100
AcDbScale
 70
     0
300
6" = 1'-0"
140
6.0
141
12.0
290
     0
  0
SCALE
  5
D5F
102
{ACAD_REACTORS
330
D3E
102
}
330
D3E
100
AcDbScale
 70
     0
300
1'-0" = 1'-0"
140
12.0
141
12.0
290
     0
  0
TABLESTYLE
  5
D68
102
{ACAD_REACTORS
330
D67
102
}
102
{ACAD_XDICTIONARY
360
4942
102
}
330
D67
100
AcDbTableStyle
  3
Standard
 70
     0
 71
     0
 40
1.5
 41
1.5
280
     0
281
     0
  7
STANDARD
140
4.5
170
     2
 62
     0
 63
   257
283
     0
 90
        4
 91
        0
  1

274
    -2
284
     1
 64
     0
275
    -2
285
     1
 65
     0
276
    -2
286
     1
 66
     0
277
    -2
287
     1
 67
     0
278
    -2
288
     1
 68
     0
279
    -2
289
     1
 69
     0
  7
STANDARD
140
6.0
170
     5
 62
     0
 63
   257
283
     0
 90
        4
 91
        0
  1

274
    -2
284
     1
 64
     0
275
    -2
285
     1
 65
     0
276
    -2
286
     1
 66
     0
277
    -2
287
     1
 67
     0
278
    -2
288
     1
 68
     0
279
    -2
289
     1
 69
     0
  7
STANDARD
140
4.5
170
     5
 62
     0
 63
   257
283
     0
 90
        4
 91
        0
  1

274
    -2
284
     1
 64
     0
275
    -2
285
     1
 65
     0
276
    -2
286
     1
 66
     0
277
    -2
287
     1
 67
     0
278
    -2
288
     1
 68
     0
279
    -2
289
     1
 69
     0
  0
VISUALSTYLE
  5
D27
102
{ACAD_REACTORS
330
D22
102
}
330
D22
100
AcDbVisualStyle
  2
2dWireframe
 70
     4
177
     3
291
     0
 70
    58
 90
        0
176
     1
 90
        2
176
     1
 90
        0
176
     1
 90
        0
176
     1
 40
0.6
176
     1
 40
30.0
176
     1
 62
     7
420
 16777215
176
     1
 90
        1
176
     1
 90
        4
176
     1
 62
     7
176
     1
 62
   257
176
     1
 90
        1
176
     1
 90
        1
176
     1
 40
1.0
176
     1
 90
        0
176
     1
 62
   257
176
     1
 40
1.0
176
     1
 90
        1
176
     1
 90
        6
176
     1
 90
        2
176
     1
 62
     7
176
     1
 90
        5
176
     1
 90
        0
176
     1
 90
        0
176
     1
290
     0
176
     1
 90
        1
176
     1
 40
0.0
176
     1
 90
        0
176
     1
290
     1
176
     1
290
     1
176
     1
290
     0
176
     1
290
     0
176
     1
290
     0
176
     1
290
     0
176
     1
290
     0
176
     1
290
     0
176
     1
290
     0
176
     1
 90
       50
176
     1
 40
0.0
176
     1
 40
1.0
176
     1
 90
        0
176
     1
 62
    18
420
        0
176
     1
 90
       50
176
     1
 90
        3
176
     1
 62
     5
420
      255
176
     1
290
     0
176
     1
 90
       50
176
     1
 90
       50
176
     1
 90
       50
176
     1
290
     0
176
     1
 90
       50
176
     1
 62
   256
176
     0
 40
1.0
176
     0
 90
        2
176
     1
  1
strokes_ogs.tif
176
     1
290
     0
176
     1
 40
1.0
176
     1
 40
1.0
176
     1
  0
VISUALSTYLE
  5
D2A
102
{ACAD_REACTORS
330
D22
102
}
330
D22
100
AcDbVisualStyle
  2
Basic
 70
     7
177
     3
291
     1
 70
    58
 90
        1
176
     1
 90
        0
176
     1
 90
        1
176
     1
 90
        0
176
     1
 40
0.6
176
     1
 40
30.0
176
     1
 62
     7
420
 16777215
176
     1
 90
        0
176
     1
 90
        4
176
     1
 62
     7
176
     1
 62
   257
176
     1
 90
        1
176
     1
 90
        1
176
     1
 40
1.0
176
     1
 90
        8
176
     1
 62
     7
176
     1
 40
1.0
176
     1
 90
        1
176
     1
 90
        6
176
     1
 90
        2
176
     1
 62
     7
176
     1
 90
        5
176
     1
 90
        0
176
     1
 90
        0
176
     1
290
     0
176
     1
 90
        1
176
     1
 40
0.0
176
     1
 90
        0
176
     1
290
     0
176
     1
290
     1
176
     1
290
     1
176
     1
290
     0
176
     1
290
     0
176
     1
290
     0
176
     1
290
     0
176
     1
290
     0
176
     1
290
     0
176
     1
 90
       50
176
     1
 40
0.0
176
     1
 40
1.0
176
     1
 90
        0
176
     1
 62
    18
420
        0
176
     1
 90
       50
176
     1
 90
        3
176
     1
 62
     5
420
      255
176
     1
290
     0
176
     1
 90
       50
176
     1
 90
       50
176
     1
 90
       50
176
     1
290
     0
176
     1
 90
       50
176
     1
 62
   256
176
     0
 40
1.0
176
     0
 90
        2
176
     1
  1
strokes_ogs.tif
176
     1
290
     0
176
     1
 40
1.0
176
     1
 40
1.0
176
     1
  0
VISUALSTYLE
  5
D2E
102
{ACAD_REACTORS
330
D22
102
}
330
D22
100
AcDbVisualStyle
  2
Brighten
 70
    12
177
     3
291
     1
 70
    58
 90
        2
176
     1
 90
        2
176
     1
 90
        0
176
     1
 90
        0
176
     1
 40
0.6
176
     1
 40
30.0
176
     1
 62
     7
420
 16777215
176
     1
 90
        1
176
     1
 90
        4
176
     1
 62
     7
176
     1
 62
   257
176
     1
 90
        1
176
     1
 90
        1
176
     1
 40
1.0
176
     1
 90
        8
176
     1
 62
     7
176
     1
 40
1.0
176
     1
 90
        1
176
     1
 90
        6
176
     1
 90
        2
176
     1
 62
     7
176
     1
 90
        5
176
     1
 90
        0
176
     1
 90
        0
176
     1
290
     0
176
     1
 90
        1
176
     1
 40
50.0
176
     1
 90
        0
176
     1
290
     0
176
     1
290
     1
176
     1
290
     1
176
     1
290
     0
176
     1
290
     0
176
     1
290
     0
176
     1
290
     0
176
     1
290
     0
176
     1
290
     0
176
     1
 90
       50
176
     1
 40
0.0
176
     1
 40
1.0
176
     1
 90
        0
176
     1
 62
    18
420
        0
176
     1
 90
       50
176
     1
 90
        3
176
     1
 62
     5
420
      255
176
     1
290
     0
176
     1
 90
       50
176
     1
 90
       50
176
     1
 90
       50
176
     1
290
     0
176
     1
 90
       50
176
     1
 62
   256
176
     0
 40
1.0
176
     0
 90
        2
176
     1
  1
strokes_ogs.tif
176
     1
290
     0
176
     1
 40
1.0
176
     1
 40
1.0
176
     1
  0
VISUALSTYLE
  5
D32
102
{ACAD_REACTORS
330
D22
102
}
330
D22
100
AcDbVisualStyle
  2
ColorChange
 70
    16
177
     3
291
     1
 70
    58
 90
        2
176
     1
 90
        2
176
     1
 90
        3
176
     1
 90
        0
176
     1
 40
0.6
176
     1
 40
30.0
176
     1
 62
     8
420
  8421504
176
     1
 90
        1
176
     1
 90
        4
176
     1
 62
     7
176
     1
 62
   257
176
     1
 90
        1
176
     1
 90
        1
176
     1
 40
1.0
176
     1
 90
        8
176
     1
 62
     8
420
  8421504
176
     1
 40
1.0
176
     1
 90
        1
176
     1
 90
        6
176
     1
 90
        2
176
     1
 62
     7
176
     1
 90
        5
176
     1
 90
        0
176
     1
 90
        0
176
     1
290
     0
176
     1
 90
        1
176
     1
 40
0.0
176
     1
 90
        0
176
     1
290
     0
176
     1
290
     1
176
     1
290
     1
176
     1
290
     0
176
     1
290
     0
176
     1
290
     0
176
     1
290
     0
176
     1
290
     0
176
     1
290
     0
176
     1
 90
       50
176
     1
 40
0.0
176
     1
 40
1.0
176
     1
 90
        0
176
     1
 62
    18
420
        0
176
     1
 90
       50
176
     1
 90
        3
176
     1
 62
     5
420
      255
176
     1
290
     0
176
     1
 90
       50
176
     1
 90
       50
176
     1
 90
       50
176
     1
290
     0
176
     1
 90
       50
176
     1
 62
   256
176
     0
 40
1.0
176
     0
 90
        2
176
     1
  1
strokes_ogs.tif
176
     1
290
     0
176
     1
 40
1.0
176
     1
 40
1.0
176
     1
  0
VISUALSTYLE
  5
D2C
102
{ACAD_REACTORS
330
D22
102
}
330
D22
100
AcDbVisualStyle
  2
Conceptual
 70
     9
177
     3
291
     0
 70
    58
 90
        3
176
     1
 90
        2
176
     1
 90
        0
176
     1
 90
        0
176
     1
 40
0.6
176
     1
 40
30.0
176
     1
 62
     7
420
 16777215
176
     1
 90
        2
176
     1
 90
        2
176
     1
 62
     7
176
     1
 62
   257
176
     1
 90
        1
176
     1
 90
        1
176
     1
 40
179.0
176
     1
 90
        8
176
     1
 62
     7
176
     1
 40
1.0
176
     1
 90
        1
176
     1
 90
        6
176
     1
 90
        2
176
     1
 62
     7
176
     1
 90
        3
176
     1
 90
        0
176
     1
 90
        0
176
     1
290
     0
176
     1
 90
        1
176
     1
 40
0.0
176
     1
 90
        0
176
     1
290
     0
176
     1
290
     1
176
     1
290
     1
176
     1
290
     0
176
     1
290
     0
176
     1
290
     0
176
     1
290
     0
176
     1
290
     0
176
     1
290
     0
176
     1
 90
       50
176
     1
 40
0.0
176
     1
 40
1.0
176
     1
 90
        0
176
     1
 62
    18
420
        0
176
     1
 90
       50
176
     1
 90
        3
176
     1
 62
     5
420
      255
176
     1
290
     0
176
     1
 90
       50
176
     1
 90
       50
176
     1
 90
       50
176
     1
290
     0
176
     1
 90
       50
176
     1
 62
   256
176
     0
 40
1.0
176
     0
 90
        2
176
     1
  1
strokes_ogs.tif
176
     1
290
     0
176
     1
 40
1.0
176
     1
 40
1.0
176
     1
  0
VISUALSTYLE
  5
D2D
102
{ACAD_REACTORS
330
D22
102
}
330
D22
100
AcDbVisualStyle
  2
Dim
 70
    11
177
     3
291
     1
 70
    58
 90
        2
176
     1
 90
        2
176
     1
 90
        0
176
     1
 90
        0
176
     1
 40
0.6
176
     1
 40
30.0
176
     1
 62
     7
420
 16777215
176
     1
 90
        1
176
     1
 90
        4
176
     1
 62
     7
176
     1
 62
   257
176
     1
 90
        1
176
     1
 90
        1
176
     1
 40
1.0
176
     1
 90
        8
176
     1
 62
     7
176
     1
 40
1.0
176
     1
 90
        1
176
     1
 90
        6
176
     1
 90
        2
176
     1
 62
     7
176
     1
 90
        5
176
     1
 90
        0
176
     1
 90
        0
176
     1
290
     0
176
     1
 90
        1
176
     1
 40
-50.0
176
     1
 90
        0
176
     1
290
     0
176
     1
290
     1
176
     1
290
     1
176
     1
290
     0
176
     1
290
     0
176
     1
290
     0
176
     1
290
     0
176
     1
290
     0
176
     1
290
     0
176
     1
 90
       50
176
     1
 40
0.0
176
     1
 40
1.0
176
     1
 90
        0
176
     1
 62
    18
420
        0
176
     1
 90
       50
176
     1
 90
        3
176
     1
 62
     5
420
      255
176
     1
290
     0
176
     1
 90
       50
176
     1
 90
       50
176
     1
 90
       50
176
     1
290
     0
176
     1
 90
       50
176
     1
 62
   256
176
     0
 40
1.0
176
     0
 90
        2
176
     1
  1
strokes_ogs.tif
176
     1
290
     0
176
     1
 40
1.0
176
     1
 40
1.0
176
     1
  0
VISUALSTYLE
  5
D35
102
{ACAD_REACTORS
330
D22
102
}
330
D22
100
AcDbVisualStyle
  2
EdgeColorOff
 70
    22
177
     3
291
     1
 70
    58
 90
        2
176
     0
 90
        2
176
     0
 90
        0
176
     0
 90
        0
176
     0
 40
0.6
176
     0
 40
30.0
176
     0
 62
     7
420
 16777215
176
     0
 90
        1
176
     0
 90
        4
176
     0
 62
     7
176
     0
 62
   257
176
     0
 90
        1
176
     0
 90
        1
176
     0
 40
1.0
176
     0
 90
        8
176
     2
 62
     7
176
     0
 40
1.0
176
     0
 90
        1
176
     0
 90
        6
176
     0
 90
        2
176
     0
 62
     7
176
     0
 90
        5
176
     0
 90
        0
176
     0
 90
        0
176
     0
290
     0
176
     0
 90
        1
176
     0
 40
0.0
176
     0
 90
        0
176
     0
290
     0
176
     0
290
     1
176
     0
290
     1
176
     0
290
     0
176
     0
290
     0
176
     0
290
     0
176
     0
290
     0
176
     0
290
     0
176
     0
290
     0
176
     0
 90
       50
176
     0
 40
0.0
176
     0
 40
1.0
176
     0
 90
        0
176
     0
 62
    18
420
        0
176
     0
 90
       50
176
     0
 90
        3
176
     0
 62
     5
420
      255
176
     0
290
     0
176
     0
 90
       50
176
     0
 90
       50
176
     0
 90
       50
176
     0
290
     0
176
     0
 90
       50
176
     0
 62
   256
176
     0
 40
1.0
176
     0
 90
        2
176
     0
  1
strokes_ogs.tif
176
     0
290
     0
176
     0
 40
1.0
176
     0
 40
1.0
176
     0
  0
VISUALSTYLE
  5
D31
102
{ACAD_REACTORS
330
D22
102
}
330
D22
100
AcDbVisualStyle
  2
Facepattern
 70
    15
177
     3
291
     1
 70
    58
 90
        2
176
     1
 90
        2
176
     1
 90
        0
176
     1
 90
        0
176
     1
 40
0.6
176
     1
 40
30.0
176
     1
 62
     7
420
 16777215
176
     1
 90
        1
176
     1
 90
        4
176
     1
 62
     7
176
     1
 62
   257
176
     1
 90
        1
176
     1
 90
        1
176
     1
 40
1.0
176
     1
 90
        8
176
     1
 62
     7
176
     1
 40
1.0
176
     1
 90
        1
176
     1
 90
        6
176
     1
 90
        2
176
     1
 62
     7
176
     1
 90
        5
176
     1
 90
        0
176
     1
 90
        0
176
     1
290
     0
176
     1
 90
        1
176
     1
 40
0.0
176
     1
 90
        0
176
     1
290
     0
176
     1
290
     1
176
     1
290
     1
176
     1
290
     0
176
     1
290
     0
176
     1
290
     0
176
     1
290
     0
176
     1
290
     0
176
     1
290
     0
176
     1
 90
       50
176
     1
 40
0.0
176
     1
 40
1.0
176
     1
 90
        0
176
     1
 62
    18
420
        0
176
     1
 90
       50
176
     1
 90
        3
176
     1
 62
     5
420
      255
176
     1
290
     0
176
     1
 90
       50
176
     1
 90
       50
176
     1
 90
       50
176
     1
290
     0
176
     1
 90
       50
176
     1
 62
   256
176
     0
 40
1.0
176
     0
 90
        2
176
     1
  1
strokes_ogs.tif
176
     1
290
     0
176
     1
 40
1.0
176
     1
 40
1.0
176
     1
  0
VISUALSTYLE
  5
D23
102
{ACAD_REACTORS
330
D22
102
}
330
D22
100
AcDbVisualStyle
  2
Flat
 70
     0
177
     3
291
     1
 70
    58
 90
        2
176
     1
 90
        1
176
     1
 90
        1
176
     1
 90
        2
176
     1
 40
0.6
176
     1
 40
30.0
176
     1
 62
     7
420
 16777215
176
     1
 90
        0
176
     1
 90
        0
176
     1
 62
     7
176
     1
 62
   257
176
     1
 90
        1
176
     1
 90
        1
176
     1
 40
1.0
176
     1
 90
        8
176
     1
 62
     7
176
     1
 40
1.0
176
     1
 90
        1
176
     1
 90
        6
176
     1
 90
        2
176
     1
 62
     7
176
     1
 90
        5
176
     1
 90
        0
176
     1
 90
        0
176
     1
290
     0
176
     1
 90
       13
176
     1
 40
0.0
176
     1
 90
        0
176
     1
290
     0
176
     1
290
     1
176
     1
290
     1
176
     1
290
     0
176
     1
290
     0
176
     1
290
     0
176
     1
290
     0
176
     1
290
     0
176
     1
290
     0
176
     1
 90
       50
176
     1
 40
0.0
176
     1
 40
1.0
176
     1
 90
        0
176
     1
 62
    18
420
        0
176
     1
 90
       50
176
     1
 90
        3
176
     1
 62
     5
420
      255
176
     1
290
     0
176
     1
 90
       50
176
     1
 90
       50
176
     1
 90
       50
176
     1
290
     0
176
     1
 90
       50
176
     1
 62
   256
176
     0
 40
1.0
176
     0
 90
        2
176
     1
  1
strokes_ogs.tif
176
     1
290
     0
176
     1
 40
1.0
176
     1
 40
1.0
176
     1
  0
VISUALSTYLE
  5
D24
102
{ACAD_REACTORS
330
D22
102
}
330
D22
100
AcDbVisualStyle
  2
FlatWithEdges
 70
     1
177
     3
291
     1
 70
    58
 90
        2
176
     1
 90
        1
176
     1
 90
        1
176
     1
 90
        2
176
     1
 40
0.6
176
     1
 40
30.0
176
     1
 62
     7
420
 16777215
176
     1
 90
        1
176
     1
 90
        0
176
     1
 62
     7
176
     1
 62
   257
176
     1
 90
        1
176
     1
 90
        1
176
     1
 40
1.0
176
     1
 90
        0
176
     1
 62
   257
176
     1
 40
1.0
176
     1
 90
        1
176
     1
 90
        6
176
     1
 90
        2
176
     1
 62
     7
176
     1
 90
        5
176
     1
 90
        0
176
     1
 90
        0
176
     1
290
     0
176
     1
 90
       13
176
     1
 40
0.0
176
     1
 90
        0
176
     1
290
     0
176
     1
290
     1
176
     1
290
     1
176
     1
290
     0
176
     1
290
     0
176
     1
290
     0
176
     1
290
     0
176
     1
290
     0
176
     1
290
     0
176
     1
 90
       50
176
     1
 40
0.0
176
     1
 40
1.0
176
     1
 90
        0
176
     1
 62
    18
420
        0
176
     1
 90
       50
176
     1
 90
        3
176
     1
 62
     5
420
      255
176
     1
290
     0
176
     1
 90
       50
176
     1
 90
       50
176
     1
 90
       50
176
     1
290
     0
176
     1
 90
       50
176
     1
 62
   256
176
     0
 40
1.0
176
     0
 90
        2
176
     1
  1
strokes_ogs.tif
176
     1
290
     0
176
     1
 40
1.0
176
     1
 40
1.0
176
     1
  0
VISUALSTYLE
  5
D25
102
{ACAD_REACTORS
330
D22
102
}
330
D22
100
AcDbVisualStyle
  2
Gouraud
 70
     2
177
     3
291
     1
 70
    58
 90
        2
176
     1
 90
        2
176
     1
 90
        1
176
     1
 90
        2
176
     1
 40
0.6
176
     1
 40
30.0
176
     1
 62
     7
420
 16777215
176
     1
 90
        0
176
     1
 90
        0
176
     1
 62
     7
176
     1
 62
   257
176
     1
 90
        1
176
     1
 90
        1
176
     1
 40
1.0
176
     1
 90
        0
176
     1
 62
     7
176
     1
 40
1.0
176
     1
 90
        1
176
     1
 90
        6
176
     1
 90
        2
176
     1
 62
     7
176
     1
 90
        5
176
     1
 90
        0
176
     1
 90
        0
176
     1
290
     0
176
     1
 90
       13
176
     1
 40
0.0
176
     1
 90
        0
176
     1
290
     0
176
     1
290
     1
176
     1
290
     1
176
     1
290
     0
176
     1
290
     0
176
     1
290
     0
176
     1
290
     0
176
     1
290
     0
176
     1
290
     0
176
     1
 90
       50
176
     1
 40
0.0
176
     1
 40
1.0
176
     1
 90
        0
176
     1
 62
    18
420
        0
176
     1
 90
       50
176
     1
 90
        3
176
     1
 62
     5
420
      255
176
     1
290
     0
176
     1
 90
       50
176
     1
 90
       50
176
     1
 90
       50
176
     1
290
     0
176
     1
 90
       50
176
     1
 62
   256
176
     0
 40
1.0
176
     0
 90
        2
176
     1
  1
strokes_ogs.tif
176
     1
290
     0
176
     1
 40
1.0
176
     1
 40
1.0
176
     1
  0
VISUALSTYLE
  5
D26
102
{ACAD_REACTORS
330
D22
102
}
330
D22
100
AcDbVisualStyle
  2
GouraudWithEdges
 70
     3
177
     3
291
     1
 70
    58
 90
        2
176
     1
 90
        2
176
     1
 90
        1
176
     1
 90
        2
176
     1
 40
0.6
176
     1
 40
30.0
176
     1
 62
     7
420
 16777215
176
     1
 90
        1
176
     1
 90
        0
176
     1
 62
     7
176
     1
 62
   257
176
     1
 90
        1
176
     1
 90
        1
176
     1
 40
1.0
176
     1
 90
        0
176
     1
 62
   257
176
     1
 40
1.0
176
     1
 90
        1
176
     1
 90
        6
176
     1
 90
        2
176
     1
 62
     7
176
     1
 90
        5
176
     1
 90
        0
176
     1
 90
        0
176
     1
290
     0
176
     1
 90
       13
176
     1
 40
0.0
176
     1
 90
        0
176
     1
290
     0
176
     1
290
     1
176
     1
290
     1
176
     1
290
     0
176
     1
290
     0
176
     1
290
     0
176
     1
290
     0
176
     1
290
     0
176
     1
290
     0
176
     1
 90
       50
176
     1
 40
0.0
176
     1
 40
1.0
176
     1
 90
        0
176
     1
 62
    18
420
        0
176
     1
 90
       50
176
     1
 90
        3
176
     1
 62
     5
420
      255
176
     1
290
     0
176
     1
 90
       50
176
     1
 90
       50
176
     1
 90
       50
176
     1
290
     0
176
     1
 90
       50
176
     1
 62
   256
176
     0
 40
1.0
176
     0
 90
        2
176
     1
  1
strokes_ogs.tif
176
     1
290
     0
176
     1
 40
1.0
176
     1
 40
1.0
176
     1
  0
VISUALSTYLE
  5
D29
102
{ACAD_REACTORS
330
D22
102
}
330
D22
100
AcDbVisualStyle
  2
Hidden
 70
     6
177
     3
291
     0
 70
    58
 90
        1
176
     1
 90
        2
176
     1
 90
        2
176
     1
 90
        0
176
     1
 40
0.6
176
     1
 40
30.0
176
     1
 62
     7
420
 16777215
176
     1
 90
        2
176
     1
 90
        2
176
     1
 62
     7
176
     1
 62
   257
176
     1
 90
        2
176
     1
 90
        1
176
     1
 40
40.0
176
     1
 90
        0
176
     1
 62
   257
176
     1
 40
1.0
176
     1
 90
        1
176
     1
 90
        6
176
     1
 90
        2
176
     1
 62
     7
176
     1
 90
        3
176
     1
 90
        0
176
     1
 90
        0
176
     1
290
     0
176
     1
 90
        1
176
     1
 40
0.0
176
     1
 90
        0
176
     1
290
     0
176
     1
290
     1
176
     1
290
     1
176
     1
290
     0
176
     1
290
     0
176
     1
290
     0
176
     1
290
     0
176
     1
290
     0
176
     1
290
     0
176
     1
 90
       50
176
     1
 40
0.0
176
     1
 40
1.0
176
     1
 90
        0
176
     1
 62
    18
420
        0
176
     1
 90
       50
176
     1
 90
        3
176
     1
 62
     5
420
      255
176
     1
290
     0
176
     1
 90
       50
176
     1
 90
       50
176
     1
 90
       50
176
     1
290
     0
176
     1
 90
       50
176
     1
 62
   256
176
     0
 40
1.0
176
     0
 90
        2
176
     1
  1
strokes_ogs.tif
176
     1
290
     0
176
     1
 40
1.0
176
     1
 40
1.0
176
     1
  0
VISUALSTYLE
  5
D33
102
{ACAD_REACTORS
330
D22
102
}
330
D22
100
AcDbVisualStyle
  2
JitterOff
 70
    20
177
     3
291
     1
 70
    58
 90
        2
176
     0
 90
        2
176
     0
 90
        0
176
     0
 90
        0
176
     0
 40
0.6
176
     0
 40
30.0
176
     0
 62
     7
420
 16777215
176
     0
 90
        1
176
     0
 90
        4
176
     0
 62
     7
176
     0
 62
   257
176
     0
 90
        1
176
     0
 90
        1
176
     0
 40
1.0
176
     0
 90
       10
176
     2
 62
     7
176
     0
 40
1.0
176
     0
 90
        1
176
     0
 90
        6
176
     0
 90
        2
176
     0
 62
     7
176
     0
 90
        5
176
     0
 90
        0
176
     0
 90
        0
176
     0
290
     0
176
     0
 90
        1
176
     0
 40
0.0
176
     0
 90
        0
176
     0
290
     0
176
     0
290
     1
176
     0
290
     1
176
     0
290
     0
176
     0
290
     0
176
     0
290
     0
176
     0
290
     0
176
     0
290
     0
176
     0
290
     0
176
     0
 90
       50
176
     0
 40
0.0
176
     0
 40
1.0
176
     0
 90
        0
176
     0
 62
    18
420
        0
176
     0
 90
       50
176
     0
 90
        3
176
     0
 62
     5
420
      255
176
     0
290
     0
176
     0
 90
       50
176
     0
 90
       50
176
     0
 90
       50
176
     0
290
     0
176
     0
 90
       50
176
     0
 62
   256
176
     0
 40
1.0
176
     0
 90
        2
176
     0
  1
strokes_ogs.tif
176
     0
290
     0
176
     0
 40
1.0
176
     0
 40
1.0
176
     0
  0
VISUALSTYLE
  5
D30
102
{ACAD_REACTORS
330
D22
102
}
330
D22
100
AcDbVisualStyle
  2
Linepattern
 70
    14
177
     3
291
     1
 70
    58
 90
        2
176
     1
 90
        2
176
     1
 90
        0
176
     1
 90
        0
176
     1
 40
0.6
176
     1
 40
30.0
176
     1
 62
     7
420
 16777215
176
     1
 90
        1
176
     1
 90
        4
176
     1
 62
     7
176
     1
 62
   257
176
     1
 90
        7
176
     1
 90
        7
176
     1
 40
1.0
176
     1
 90
        8
176
     1
 62
     7
176
     1
 40
1.0
176
     1
 90
        1
176
     1
 90
        6
176
     1
 90
        2
176
     1
 62
     7
176
     1
 90
        5
176
     1
 90
        0
176
     1
 90
        0
176
     1
290
     0
176
     1
 90
        1
176
     1
 40
0.0
176
     1
 90
        0
176
     1
290
     0
176
     1
290
     1
176
     1
290
     1
176
     1
290
     0
176
     1
290
     0
176
     1
290
     0
176
     1
290
     0
176
     1
290
     0
176
     1
290
     0
176
     1
 90
       50
176
     1
 40
0.0
176
     1
 40
1.0
176
     1
 90
        0
176
     1
 62
    18
420
        0
176
     1
 90
       50
176
     1
 90
        3
176
     1
 62
     5
420
      255
176
     1
290
     0
176
     1
 90
       50
176
     1
 90
       50
176
     1
 90
       50
176
     1
290
     0
176
     1
 90
       50
176
     1
 62
   256
176
     0
 40
1.0
176
     0
 90
        2
176
     1
  1
strokes_ogs.tif
176
     1
290
     0
176
     1
 40
1.0
176
     1
 40
1.0
176
     1
  0
VISUALSTYLE
  5
D34
102
{ACAD_REACTORS
330
D22
102
}
330
D22
100
AcDbVisualStyle
  2
OverhangOff
 70
    21
177
     3
291
     1
 70
    58
 90
        2
176
     0
 90
        2
176
     0
 90
        0
176
     0
 90
        0
176
     0
 40
0.6
176
     0
 40
30.0
176
     0
 62
     7
420
 16777215
176
     0
 90
        1
176
     0
 90
        4
176
     0
 62
     7
176
     0
 62
   257
176
     0
 90
        1
176
     0
 90
        1
176
     0
 40
1.0
176
     0
 90
        9
176
     2
 62
     7
176
     0
 40
1.0
176
     0
 90
        1
176
     0
 90
        6
176
     0
 90
        2
176
     0
 62
     7
176
     0
 90
        5
176
     0
 90
        0
176
     0
 90
        0
176
     0
290
     0
176
     0
 90
        1
176
     0
 40
0.0
176
     0
 90
        0
176
     0
290
     0
176
     0
290
     1
176
     0
290
     1
176
     0
290
     0
176
     0
290
     0
176
     0
290
     0
176
     0
290
     0
176
     0
290
     0
176
     0
290
     0
176
     0
 90
       50
176
     0
 40
0.0
176
     0
 40
1.0
176
     0
 90
        0
176
     0
 62
    18
420
        0
176
     0
 90
       50
176
     0
 90
        3
176
     0
 62
     5
420
      255
176
     0
290
     0
176
     0
 90
       50
176
     0
 90
       50
176
     0
 90
       50
176
     0
290
     0
176
     0
 90
       50
176
     0
 62
   256
176
     0
 40
1.0
176
     0
 90
        2
176
     0
  1
strokes_ogs.tif
176
     0
290
     0
176
     0
 40
1.0
176
     0
 40
1.0
176
     0
  0
VISUALSTYLE
  5
D2B
102
{ACAD_REACTORS
330
D22
102
}
330
D22
100
AcDbVisualStyle
  2
Realistic
 70
     8
177
     3
291
     0
 70
    58
 90
        2
176
     1
 90
        3
176
     1
 90
        0
176
     1
 90
        2
176
     1
 40
0.6
176
     1
 40
30.0
176
     1
 62
     7
420
 16777215
176
     1
 90
        0
176
     1
 90
        0
176
     1
 62
     7
176
     1
 62
   257
176
     1
 90
        1
176
     1
 90
        1
176
     1
 40
1.0
176
     1
 90
        8
176
     1
 62
   257
176
     1
 40
1.0
176
     1
 90
        1
176
     1
 90
        6
176
     1
 90
        2
176
     1
 62
     7
176
     1
 90
        3
176
     1
 90
        0
176
     1
 90
        0
176
     1
290
     0
176
     1
 90
       13
176
     1
 40
0.0
176
     1
 90
        0
176
     1
290
     0
176
     1
290
     1
176
     1
290
     1
176
     1
290
     0
176
     1
290
     0
176
     1
290
     0
176
     1
290
     0
176
     1
290
     0
176
     1
290
     0
176
     1
 90
       50
176
     1
 40
0.0
176
     1
 40
1.0
176
     1
 90
        0
176
     1
 62
    18
420
        0
176
     1
 90
       50
176
     1
 90
        3
176
     1
 62
     5
420
      255
176
     1
290
     0
176
     1
 90
       50
176
     1
 90
       50
176
     1
 90
       50
176
     1
290
     0
176
     1
 90
       50
176
     1
 62
   256
176
     0
 40
1.0
176
     0
 90
        2
176
     1
  1
strokes_ogs.tif
176
     1
290
     0
176
     1
 40
1.0
176
     1
 40
1.0
176
     1
  0
VISUALSTYLE
  5
D3A
102
{ACAD_REACTORS
330
D22
102
}
330
D22
100
AcDbVisualStyle
  2
Shaded
 70
    27
177
     3
291
     0
 70
    58
 90
        2
176
     1
 90
        2
176
     1
 90
        1
176
     1
 90
        2
176
     1
 40
0.6
176
     1
 40
30.0
176
     1
 62
     7
420
 16777215
176
     1
 90
        0
176
     1
 90
        4
176
     1
 62
     7
176
     1
 62
   257
176
     1
 90
        1
176
     1
 90
        1
176
     1
 40
1.0
176
     1
 90
        8
176
     1
 62
   257
176
     1
 40
1.0
176
     1
 90
        1
176
     1
 90
        6
176
     1
 90
        2
176
     1
 62
     8
420
  7895160
176
     1
 90
        3
176
     1
 90
        0
176
     1
 90
        0
176
     1
290
     0
176
     1
 90
        5
176
     1
 40
0.0
176
     1
 90
        0
176
     1
290
     0
176
     1
290
     1
176
     1
290
     1
176
     1
290
     0
176
     1
290
     0
176
     1
290
     0
176
     1
290
     0
176
     1
290
     0
176
     1
290
     0
176
     1
 90
       50
176
     1
 40
0.0
176
     1
 40
1.0
176
     1
 90
        0
176
     1
 62
    18
420
        0
176
     1
 90
       50
176
     1
 90
        3
176
     1
 62
     5
420
      255
176
     1
290
     0
176
     1
 90
       50
176
     1
 90
       50
176
     1
 90
       50
176
     1
290
     0
176
     1
 90
       50
176
     1
 62
   256
176
     0
 40
1.0
176
     0
 90
        2
176
     1
  1
strokes_ogs.tif
176
     1
290
     0
176
     1
 40
1.0
176
     1
 40
1.0
176
     1
  0
VISUALSTYLE
  5
D39
102
{ACAD_REACTORS
330
D22
102
}
330
D22
100
AcDbVisualStyle
  2
Shaded with edges
 70
    26
177
     3
291
     0
 70
    58
 90
        2
176
     1
 90
        2
176
     1
 90
        1
176
     1
 90
        2
176
     1
 40
0.6
176
     1
 40
30.0
176
     1
 62
     7
420
 16777215
176
     1
 90
        1
176
     1
 90
       10
176
     1
 62
     7
176
     1
 62
   257
176
     1
 90
        2
176
     1
 90
        1
176
     1
 40
1.0
176
     1
 90
        8
176
     1
 62
   257
176
     1
 40
1.0
176
     1
 90
        1
176
     1
 90
        6
176
     1
 90
        2
176
     1
 62
     7
176
     1
 90
        3
176
     1
 90
        0
176
     1
 90
        0
176
     1
290
     0
176
     1
 90
        5
176
     1
 40
0.0
176
     1
 90
        0
176
     1
290
     0
176
     1
290
     1
176
     1
290
     1
176
     1
290
     0
176
     1
290
     0
176
     1
290
     0
176
     1
290
     0
176
     1
290
     0
176
     1
290
     0
176
     1
 90
       50
176
     1
 40
0.0
176
     1
 40
1.0
176
     1
 90
        0
176
     1
 62
    18
420
        0
176
     1
 90
       50
176
     1
 90
        3
176
     1
 62
     5
420
      255
176
     1
290
     0
176
     1
 90
       50
176
     1
 90
       50
176
     1
 90
       50
176
     1
290
     0
176
     1
 90
       50
176
     1
 62
   256
176
     0
 40
1.0
176
     0
 90
        2
176
     1
  1
strokes_ogs.tif
176
     1
290
     0
176
     1
 40
1.0
176
     1
 40
1.0
176
     1
  0
VISUALSTYLE
  5
D36
102
{ACAD_REACTORS
330
D22
102
}
330
D22
100
AcDbVisualStyle
  2
Shades of Gray
 70
    23
177
     3
291
     0
 70
    58
 90
        2
176
     1
 90
        2
176
     1
 90
        3
176
     1
 90
        0
176
     1
 40
0.6
176
     1
 40
30.0
176
     1
 62
     7
420
 16777215
176
     1
 90
        2
176
     1
 90
        2
176
     1
 62
     7
176
     1
 62
     7
176
     1
 90
        1
176
     1
 90
        1
176
     1
 40
40.0
176
     1
 90
        8
176
     1
 62
     7
176
     1
 40
1.0
176
     1
 90
        1
176
     1
 90
        6
176
     1
 90
        2
176
     1
 62
     7
176
     1
 90
        3
176
     1
 90
        0
176
     1
 90
        0
176
     1
290
     0
176
     1
 90
        1
176
     1
 40
0.0
176
     1
 90
        0
176
     1
290
     0
176
     1
290
     1
176
     1
290
     1
176
     1
290
     0
176
     1
290
     0
176
     1
290
     0
176
     1
290
     0
176
     1
290
     0
176
     1
290
     0
176
     1
 90
       50
176
     1
 40
0.0
176
     1
 40
1.0
176
     1
 90
        0
176
     1
 62
    18
420
        0
176
     1
 90
       50
176
     1
 90
        3
176
     1
 62
     5
420
      255
176
     1
290
     0
176
     1
 90
       50
176
     1
 90
       50
176
     1
 90
       50
176
     1
290
     0
176
     1
 90
       50
176
     1
 62
   256
176
     0
 40
1.0
176
     0
 90
        2
176
     1
  1
strokes_ogs.tif
176
     1
290
     0
176
     1
 40
1.0
176
     1
 40
1.0
176
     1
  0
VISUALSTYLE
  5
D37
102
{ACAD_REACTORS
330
D22
102
}
330
D22
100
AcDbVisualStyle
  2
Sketchy
 70
    24
177
     3
291
     0
 70
    58
 90
        1
176
     1
 90
        2
176
     1
 90
        2
176
     1
 90
        0
176
     1
 40
0.6
176
     1
 40
30.0
176
     1
 62
     7
420
 16777215
176
     1
 90
        2
176
     1
 90
        2
176
     1
 62
     7
176
     1
 62
     7
176
     1
 90
        1
176
     1
 90
        1
176
     1
 40
40.0
176
     1
 90
       11
176
     1
 62
     7
176
     1
 40
1.0
176
     1
 90
        1
176
     1
 90
        6
176
     1
 90
        2
176
     1
 62
     7
176
     1
 90
        6
176
     1
 90
        0
176
     1
 90
        0
176
     1
290
     0
176
     1
 90
        1
176
     1
 40
0.0
176
     1
 90
        0
176
     1
290
     0
176
     1
290
     1
176
     1
290
     1
176
     1
290
     0
176
     1
290
     0
176
     1
290
     0
176
     1
290
     0
176
     1
290
     0
176
     1
290
     0
176
     1
 90
       50
176
     1
 40
0.0
176
     1
 40
1.0
176
     1
 90
        0
176
     1
 62
    18
420
        0
176
     1
 90
       50
176
     1
 90
        3
176
     1
 62
     5
420
      255
176
     1
290
     0
176
     1
 90
       50
176
     1
 90
       50
176
     1
 90
       50
176
     1
290
     0
176
     1
 90
       50
176
     1
 62
   256
176
     0
 40
1.0
176
     0
 90
        2
176
     1
  1
strokes_ogs.tif
176
     1
290
     0
176
     1
 40
1.0
176
     1
 40
1.0
176
     1
  0
VISUALSTYLE
  5
D2F
102
{ACAD_REACTORS
330
D22
102
}
330
D22
100
AcDbVisualStyle
  2
Thicken
 70
    13
177
     3
291
     1
 70
    58
 90
        2
176
     1
 90
        2
176
     1
 90
        0
176
     1
 90
        0
176
     1
 40
0.6
176
     1
 40
30.0
176
     1
 62
     7
420
 16777215
176
     1
 90
        1
176
     1
 90
        4
176
     1
 62
     7
176
     1
 62
   257
176
     1
 90
        1
176
     1
 90
        1
176
     1
 40
1.0
176
     1
 90
       12
176
     1
 62
     7
176
     1
 40
1.0
176
     1
 90
        1
176
     1
 90
        6
176
     1
 90
        2
176
     1
 62
     7
176
     1
 90
        5
176
     1
 90
        0
176
     1
 90
        0
176
     1
290
     0
176
     1
 90
        1
176
     1
 40
0.0
176
     1
 90
        0
176
     1
290
     0
176
     1
290
     1
176
     1
290
     1
176
     1
290
     0
176
     1
290
     0
176
     1
290
     0
176
     1
290
     0
176
     1
290
     0
176
     1
290
     0
176
     1
 90
       50
176
     1
 40
0.0
176
     1
 40
1.0
176
     1
 90
        0
176
     1
 62
    18
420
        0
176
     1
 90
       50
176
     1
 90
        3
176
     1
 62
     5
420
      255
176
     1
290
     0
176
     1
 90
       50
176
     1
 90
       50
176
     1
 90
       50
176
     1
290
     0
176
     1
 90
       50
176
     1
 62
   256
176
     0
 40
1.0
176
     0
 90
        2
176
     1
  1
strokes_ogs.tif
176
     1
290
     0
176
     1
 40
1.0
176
     1
 40
1.0
176
     1
  0
VISUALSTYLE
  5
D28
102
{ACAD_REACTORS
330
D22
102
}
330
D22
100
AcDbVisualStyle
  2
Wireframe
 70
     5
177
     3
291
     0
 70
    58
 90
        0
176
     1
 90
        2
176
     1
 90
        0
176
     1
 90
        0
176
     1
 40
0.6
176
     1
 40
30.0
176
     1
 62
     7
420
 16777215
176
     1
 90
        1
176
     1
 90
        4
176
     1
 62
     7
176
     1
 62
   257
176
     1
 90
        1
176
     1
 90
        1
176
     1
 40
1.0
176
     1
 90
        0
176
     1
 62
   257
176
     1
 40
1.0
176
     1
 90
        1
176
     1
 90
        6
176
     1
 90
        2
176
     1
 62
     7
176
     1
 90
        3
176
     1
 90
        0
176
     1
 90
        0
176
     1
290
     0
176
     1
 90
        1
176
     1
 40
0.0
176
     1
 90
        0
176
     1
290
     0
176
     1
290
     1
176
     1
290
     1
176
     1
290
     0
176
     1
290
     0
176
     1
290
     0
176
     1
290
     0
176
     1
290
     0
176
     1
290
     0
176
     1
 90
       50
176
     1
 40
0.0
176
     1
 40
1.0
176
     1
 90
        0
176
     1
 62
    18
420
        0
176
     1
 90
       50
176
     1
 90
        3
176
     1
 62
     5
420
      255
176
     1
290
     0
176
     1
 90
       50
176
     1
 90
       50
176
     1
 90
       50
176
     1
290
     0
176
     1
 90
       50
176
     1
 62
   256
176
     0
 40
1.0
176
     0
 90
        2
176
     1
  1
strokes_ogs.tif
176
     1
290
     0
176
     1
 40
1.0
176
     1
 40
1.0
176
     1
  0
VISUALSTYLE
  5
D38
102
{ACAD_REACTORS
330
D22
102
}
330
D22
100
AcDbVisualStyle
  2
X-Ray
 70
    25
177
     3
291
     0
 70
    58
 90
        2
176
     1
 90
        2
176
     1
 90
        1
176
     1
 90
        1
176
     1
 40
0.5
176
     1
 40
30.0
176
     1
 62
     7
420
 16777215
176
     1
 90
        1
176
     1
 90
        0
176
     1
 62
     7
176
     1
 62
   257
176
     1
 90
        1
176
     1
 90
        1
176
     1
 40
1.0
176
     1
 90
        8
176
     1
 62
     7
176
     1
 40
1.0
176
     1
 90
        1
176
     1
 90
        6
176
     1
 90
        2
176
     1
 62
     7
176
     1
 90
        3
176
     1
 90
        0
176
     1
 90
        0
176
     1
290
     0
176
     1
 90
       13
176
     1
 40
0.0
176
     1
 90
        0
176
     1
290
     0
176
     1
290
     1
176
     1
290
     1
176
     1
290
     0
176
     1
290
     0
176
     1
290
     0
176
     1
290
     0
176
     1
290
     0
176
     1
290
     0
176
     1
 90
       50
176
     1
 40
0.0
176
     1
 40
1.0
176
     1
 90
        0
176
     1
 62
    18
420
        0
176
     1
 90
       50
176
     1
 90
        3
176
     1
 62
     5
420
      255
176
     1
290
     0
176
     1
 90
       50
176
     1
 90
       50
176
     1
 90
       50
176
     1
290
     0
176
     1
 90
       50
176
     1
 62
   256
176
     0
 40
1.0
176
     0
 90
        2
176
     1
  1
strokes_ogs.tif
176
     1
290
     0
176
     1
 40
1.0
176
     1
 40
1.0
176
     1
  0
DICTIONARYVAR
  5
E23
102
{ACAD_REACTORS
330
1C7
102
}
330
1C7
100
DictionaryVariables
280
     0
  1
1:1
  0
DICTIONARYVAR
  5
E25
102
{ACAD_REACTORS
330
1C7
102
}
330
1C7
100
DictionaryVariables
280
     0
  1
Standard
  0
DICTIONARYVAR
  5
E24
102
{ACAD_REACTORS
330
1C7
102
}
330
1C7
100
DictionaryVariables
280
     0
  1
Standard
  0
DICTIONARYVAR
  5
DCD
102
{ACAD_REACTORS
330
1C7
102
}
330
1C7
100
DictionaryVariables
280
     0
  1
.
  0
DICTIONARYVAR
  5
E26
102
{ACAD_REACTORS
330
1C7
102
}
330
1C7
100
DictionaryVariables
280
     0
  1
0
  0
DICTIONARYVAR
  5
DE7
102
{ACAD_REACTORS
330
347
102
}
330
347
100
DictionaryVariables
280
     0
  1
0.250000
  0
DICTIONARYVAR
  5
DE5
102
{ACAD_REACTORS
330
342
102
}
330
342
100
DictionaryVariables
280
     0
  1
0.261799
  0
DICTIONARYVAR
  5
DE3
102
{ACAD_REACTORS
330
342
102
}
330
342
100
DictionaryVariables
280
     0
  1
0.400000
  0
DICTIONARYVAR
  5
DE4
102
{ACAD_REACTORS
330
342
102
}
330
342
100
DictionaryVariables
280
     0
  1
0.250000
  0
DICTIONARYVAR
  5
DE6
102
{ACAD_REACTORS
330
342
102
}
330
342
100
DictionaryVariables
280
     0
  1
0
  0
DICTIONARY
  5
4942
330
D68
100
AcDbDictionary
280
     1
281
     1
  3
ACAD_ROUNDTRIP_2008_TABLESTYLE_CELLSTYLEMAP
360
4943
  0
CELLSTYLEMAP
  5
4943
102
{ACAD_REACTORS
330
4942
102
}
330
4942
100
AcDbCellStyleMap
 90
        3
300
CELLSTYLE
  1
TABLEFORMAT_BEGIN
 90
        5
170
     1
 91
        0
 92
    32768
 62
   257
 93
        1
300
CONTENTFORMAT
  1
CONTENTFORMAT_BEGIN
 90
        0
 91
        0
 92
        4
 93
        0
300

 40
0.0
140
1.0
 94
        5
 62
     0
340
17
144
6.0
309
CONTENTFORMAT_END
171
     1
301
MARGIN
  1
CELLMARGIN_BEGIN
 40
1.5
 40
1.5
 40
1.5
 40
1.5
 40
1.5
 40
1.5
309
CELLMARGIN_END
 94
        6
 95
        1
302
GRIDFORMAT
  1
GRIDFORMAT_BEGIN
 90
        0
 91
        1
 62
     0
 92
       -2
340
11
 93
        0
 40
0.045
309
GRIDFORMAT_END
 95
        2
302
GRIDFORMAT
  1
GRIDFORMAT_BEGIN
 90
        0
 91
        1
 62
     0
 92
       -2
340
11
 93
        0
 40
0.045
309
GRIDFORMAT_END
 95
        4
302
GRIDFORMAT
  1
GRIDFORMAT_BEGIN
 90
        0
 91
        1
 62
     0
 92
       -2
340
11
 93
        0
 40
0.045
309
GRIDFORMAT_END
 95
        8
302
GRIDFORMAT
  1
GRIDFORMAT_BEGIN
 90
        0
 91
        1
 62
     0
 92
       -2
340
11
 93
        0
 40
0.045
309
GRIDFORMAT_END
 95
       16
302
GRIDFORMAT
  1
GRIDFORMAT_BEGIN
 90
        0
 91
        1
 62
     0
 92
       -2
340
11
 93
        0
 40
0.045
309
GRIDFORMAT_END
 95
       32
302
GRIDFORMAT
  1
GRIDFORMAT_BEGIN
 90
        0
 91
        1
 62
     0
 92
       -2
340
11
 93
        0
 40
0.045
309
GRIDFORMAT_END
309
TABLEFORMAT_END
  1
CELLSTYLE_BEGIN
 90
        1
 91
        1
300
_TITLE
309
CELLSTYLE_END
300
CELLSTYLE
  1
TABLEFORMAT_BEGIN
 90
        5
170
     1
 91
        0
 92
        0
 62
   257
 93
        1
300
CONTENTFORMAT
  1
CONTENTFORMAT_BEGIN
 90
        0
 91
        0
 92
        4
 93
        0
300

 40
0.0
140
1.0
 94
        5
 62
     0
340
17
144
4.5
309
CONTENTFORMAT_END
171
     1
301
MARGIN
  1
CELLMARGIN_BEGIN
 40
1.5
 40
1.5
 40
1.5
 40
1.5
 40
1.5
 40
1.5
309
CELLMARGIN_END
 94
        6
 95
        1
302
GRIDFORMAT
  1
GRIDFORMAT_BEGIN
 90
        0
 91
        1
 62
     0
 92
       -2
340
11
 93
        0
 40
0.045
309
GRIDFORMAT_END
 95
        2
302
GRIDFORMAT
  1
GRIDFORMAT_BEGIN
 90
        0
 91
        1
 62
     0
 92
       -2
340
11
 93
        0
 40
0.045
309
GRIDFORMAT_END
 95
        4
302
GRIDFORMAT
  1
GRIDFORMAT_BEGIN
 90
        0
 91
        1
 62
     0
 92
       -2
340
11
 93
        0
 40
0.045
309
GRIDFORMAT_END
 95
        8
302
GRIDFORMAT
  1
GRIDFORMAT_BEGIN
 90
        0
 91
        1
 62
     0
 92
       -2
340
11
 93
        0
 40
0.045
309
GRIDFORMAT_END
 95
       16
302
GRIDFORMAT
  1
GRIDFORMAT_BEGIN
 90
        0
 91
        1
 62
     0
 92
       -2
340
11
 93
        0
 40
0.045
309
GRIDFORMAT_END
 95
       32
302
GRIDFORMAT
  1
GRIDFORMAT_BEGIN
 90
        0
 91
        1
 62
     0
 92
       -2
340
11
 93
        0
 40
0.045
309
GRIDFORMAT_END
309
TABLEFORMAT_END
  1
CELLSTYLE_BEGIN
 90
        2
 91
        1
300
_HEADER
309
CELLSTYLE_END
300
CELLSTYLE
  1
TABLEFORMAT_BEGIN
 90
        5
170
     1
 91
        0
 92
        0
 62
   257
 93
        1
300
CONTENTFORMAT
  1
CONTENTFORMAT_BEGIN
 90
        0
 91
        0
 92
        4
 93
        0
300

 40
0.0
140
1.0
 94
        2
 62
     0
340
17
144
4.5
309
CONTENTFORMAT_END
171
     1
301
MARGIN
  1
CELLMARGIN_BEGIN
 40
1.5
 40
1.5
 40
1.5
 40
1.5
 40
1.5
 40
1.5
309
CELLMARGIN_END
 94
        6
 95
        1
302
GRIDFORMAT
  1
GRIDFORMAT_BEGIN
 90
        0
 91
        1
 62
     0
 92
       -2
340
11
 93
        0
 40
0.045
309
GRIDFORMAT_END
 95
        2
302
GRIDFORMAT
  1
GRIDFORMAT_BEGIN
 90
        0
 91
        1
 62
     0
 92
       -2
340
11
 93
        0
 40
0.045
309
GRIDFORMAT_END
 95
        4
302
GRIDFORMAT
  1
GRIDFORMAT_BEGIN
 90
        0
 91
        1
 62
     0
 92
       -2
340
11
 93
        0
 40
0.045
309
GRIDFORMAT_END
 95
        8
302
GRIDFORMAT
  1
GRIDFORMAT_BEGIN
 90
        0
 91
        1
 62
     0
 92
       -2
340
11
 93
        0
 40
0.045
309
GRIDFORMAT_END
 95
       16
302
GRIDFORMAT
  1
GRIDFORMAT_BEGIN
 90
        0
 91
        1
 62
     0
 92
       -2
340
11
 93
        0
 40
0.045
309
GRIDFORMAT_END
 95
       32
302
GRIDFORMAT
  1
GRIDFORMAT_BEGIN
 90
        0
 91
        1
 62
     0
 92
       -2
340
11
 93
        0
 40
0.045
309
GRIDFORMAT_END
309
TABLEFORMAT_END
  1
CELLSTYLE_BEGIN
 90
        3
 91
        2
300
_DATA
309
CELLSTYLE_END
  0
ENDSEC
  0
SECTION
  2
ACDSDATA
 70
     2
 71
     2
  0
ACDSSCHEMA
 90
        0
  1
AcDb_Thumbnail_Schema
  2
AcDbDs::ID
280
    10
 91
        8
  2
Thumbnail_Data
280
    15
 91
        0
101
ACDSRECORD
 95
        0
 90
        2
  2
AcDbDs::TreatedAsObjectData
280
     1
291
     1
101
ACDSRECORD
 95
        0
 90
        3
  2
AcDbDs::Legacy
280
     1
291
     1
101
ACDSRECORD
  1
AcDbDs::ID
 90
        4
  2
AcDs:Indexable
280
     1
291
     1
101
ACDSRECORD
  1
AcDbDs::ID
 90
        5
  2
AcDbDs::HandleAttribute
280
     7
282
     1
  0
ACDSSCHEMA
 90
        1
  1
AcDb3DSolid_ASM_Data
  2
AcDbDs::ID
280
    10
 91
        8
  2
ASM_Data
280
    15
 91
        0
101
ACDSRECORD
 95
        1
 90
        2
  2
AcDbDs::TreatedAsObjectData
280
     1
291
     1
101
ACDSRECORD
 95
        1
 90
        3
  2
AcDbDs::Legacy
280
     1
291
     1
101
ACDSRECORD
  1
AcDbDs::ID
 90
        4
  2
AcDs:Indexable
280
     1
291
     1
101
ACDSRECORD
  1
AcDbDs::ID
 90
        5
  2
AcDbDs::HandleAttribute
280
     7
282
     1
  0
ACDSSCHEMA
 90
        2
  1
AcDbDs::TreatedAsObjectDataSchema
  2
AcDbDs::TreatedAsObjectData
280
     1
 91
        0
  0
ACDSSCHEMA
 90
        3
  1
AcDbDs::LegacySchema
  2
AcDbDs::Legacy
280
     1
 91
        0
  0
ACDSSCHEMA
 90
        4
  1
AcDbDs::IndexedPropertySchema
  2
AcDs:Indexable
280
     1
 91
        0
  0
ACDSSCHEMA
 90
        5
  1
AcDbDs::HandleAttributeSchema
  2
AcDbDs::HandleAttribute
280
     7
 91
        1
284
     1
  0
ACDSRECORD
 90
        0
  2
AcDbDs::ID
280
    10
320
D61
  2
Thumbnail_Data
280
    15
 94
     7236
310
89504E470D0A1A0A0000000D4948445200000100000000940802000000F39060D0000000097048597300000EC400000EC401952B0E1B00001BF649444154789CED9D6B4C5BD71DC07DFDC43606636C03C680B18D6D0CC6EF0B843C5853B2746D2155DB64D5D234E9A66D4D952953D7666A2BA16D593F745DD7699B52B5EBD4
310
97A669DDD6B552B7455BDB2DDBA4089A42202181040209497887770C18DF7D38DDEDAD6DCCF1F57DD8707E9FE072EE39C7F83CFF4F91000287C361369B0B0B0B43A15028148279051EA954FAA52F7DA9B4B474686888D99AD745A552B95CAE9191118EDB8D8B46A3B1D96CA3A3A37C7704B10642A1D06AB5E2388EE3787171
310
31B3956BB5DAE6E6E66DDBB6894422666B4E8C50280C04023939395C36BA1652A9D4ED76F3DD8BCD0546EFB5E2E26230076666667A7B7B99EA4D5E5E5E5D5D5D7F7F7F5F5F1F5375C260B7DB575656060606B86C342E52A9B4B2B2F2ECD9B37C77040187C160C071DCE3F130B872ABD5EA3BEEB8A3A6A686A90A61D06AB55E
310
AF57229170D9685CB2B3B383C120DFBD4024834422F1FBFD388E171515315567595959737333E367AD04482412AFD79B9B9BCB598B6B919797575151C1772F10C9535252022E0942A190910AED763B8EE362B19891DA60B0D96C5CCEBAB54073801B68DE01D62510080885C2E1E1E11B376EA45EDBF6EDDB575757FFFBDFFF
310
A65E150C068341A5523178B7A147494949381CBE79F326BFDD40D0C76834E2386EB3D952AF4AA3D13CF8E0830E8723F5AA60C8C9C9F1F97C18C6D6020189C3E148130915823EB9B9B9388EFB7CBED4AB2A2F2FDFB163874AA54ABDAA75118BC58140402E9773D05602D01CD820884422202F4AFD7A100C06ABABAB19E9D5BA
310
B85CAEBCBC3C6EDA5A0B9FCFC7E52D08C122405EE476BB53FC46753ADD3DF7DC535050C054C712505151A1D3E93868682D300CF37ABD1CAB08112C2293C97C3E9FDFEF4FB19EEAEA6A6E44E6E5E5E5E5E5E51C3494001CC7F9ED0082618442218EE329AE6D2A950AC7F1D2D252063B16179D4EE772B9D86E25015959591C2B
310
07115C2091487C3E5F8AE21DB7DBBD7DFB76B60F0972B9BCA6A686C7A3884C2643736063A252A982C1602A0BB95AADBEEFBEFB341A0D83BD8A45A1506CDBB68D29351F0DF2F3F32D160B5FAD23D8A5B0B010C7F1FCFC7CDA35F8FD7E0EC607BF62199BCD960EF61A08B6B0582C353535B447587E7E7E535313ABF27BDEC532
310
7EBF9FC75D08C13A404C64B7DBE9BD2E9148B66EDD6A329918ED54343E9F8FAF3900DC1878691AC11D40856C341AE9BDEE72B9D81E253C5A502B148AAAAA2A5E9A46708AC160080402F4D6DA9C9C9CC6C646994CC678AF00E02CC4D77D40AFD7B3BDCB21D202A150E8F7FBE9391B0885C25DBB76B16A5AECF3F9D46A357BF5
310
27A0BCBC5CABD5F2D234826B4A4A4A3C1E0FBD77038100AB6A2C9BCDC6D71C70B95CBC5BEC2138422A95E2384ECF32C76432B17A25E0710E040201DE2DB711DC417B2803BB09A954CA7897007C2DC60A858233F358445A00EC88E86D055EAF9741DFE5283C1E0F7B132C01454545252525DCB78BE01393C944EF646FB7DBD9
310
33AAF1783CBCC8466B6A6AD8937721D294ACAC2C1CC769F84C555555B16743CA97E9323299DEA4D8ED7683C190EC5B4545452C5D8BA552296D81552A28954AA41DDBA4141717D3F0BECFCECE6E696961C3AE06441962BCDA75413EC49B97DCDC5C1AA11C7272721E7EF86136FAC3576C1F109386FB7611FC23168B83C1200D
310
836A96EC2B799903C8776CB363369BCBCACA927A452814B264E16C341A69DC4F52044945373B7ABD3ED9EBA05028BCFBEEBBB3B3B319EF0C2F73A0AAAA4AA95472DC28228D5028147EBF3FD945DDE974B23107EC763BC76E5C1886A128D39B1D0CC3FC7E7FB291E482C1201BC1E7B877A4D46AB566B399CB1611E948656565
310
B2039AC62BEBC28B1B17F73B0F221DA9ACAC4CD6FEC7E3F1301E638217A110520F2760B344DB9B9898C8CBCB532A95F3F3F330E5D56AF5A38F3E3A3232323F3FBFBCBCCC543742A1904AA5CACACA5A585860AACE75999F9F37994C9393939CB58848538C4623CC02EC70388E1C3902F4CA7BF7EE65FC08C1D23D3B0128BC2E
310
E233D46A758239004CEB1A1B1B1B1A1AC8876C8C1EEE95B5E82084F80CB55A1DD74A071857BBDDEE868606AA3D051B9EEFDC5F884B4B4B0B0B0BB96C1191BE80C041E4AF1886E138AED7EBDD6EB7DD6ED7EBF551E5310CDBB16307B37A62EEE39AA04D00F13962B118EC03A451B4C7E3292E2E5E4B709E959575E79D7732DB
310
07B3D9CC655C13E43989F80262B178EFDEBDA5A5A5128904C771994C965875CA869119C76EC46CE8371019497E7E3E8EE30A85A2B6B6166C0530975D36E600C727137410A2B259F40051389D4EB1587CEEDC390CC38A8B8B43A1904C269B9D9D9D9D9D4DFC62381C0E87C3168B656C6C8CA9CE2C2E2E9694944C4D4D315561
310
5A3587482F944A258EE3400C2F954ADD6EB74020D0E974FBF6ED83AFC46C36339B9EACA2A282CB547C7CB9ED2378C662B1908217AADB2E70AB4F2A18358EE3CC1A1BA383108275140A05F841269381B55F4089E49393939354A6A6C6C6460695591CFBD15BAD56B6B3E920D214EAE82F2A2AA2865F4F6A0E6018C6AC32CB68
310
34B217B12B16B4096C46A8A35F2C16C7E6AF4F6A0E301E86844B1389828282641D4711994D941073AD253029875ABD5E5F5959C940E7FE0F970B33DA043611513946F57A7D0233CFA4C43256AB9541975FAD56CB594262B4096C16F2F3F39355602515E6B6B1B191BC61A74E75753583B525066D021B1FDAAEB1F083432412
310
EDDAB58B46137161FC7A9D00144D7183938A637852E10DD56A758AF9EEA9141616B217BB370AE42EB361493D2C4262079A28AAABAB634DA969C3D9E1442412F9FD7E6EDA42708756AB2D2F2F4FBD9EA4C25AD5D7D7339520834BEB6514456BA3A1D3E91819FD00BBDD0E1972592A95C6EA1638683775D06D78E3C0ECE807C0
310
E7C4A617A87D2D388BEEE67038B8D44323D8828DD10F805F23190CD2CF652821B409643C3A9D8E3D2743954A052FE7617030D188704A0F14462EB3D1EBF56CBBD8969595417A0230E83BC6650889CDB6096C9C3C2266B359A1500C0E0EB2DACAD0D0504949098CBD5A28149A9D9D65442A1A89444C261337BAE170388C7402
310
9987D96CD66AB5DCB49554D8F1D4AD3B4D26138EE36AB59A46F6271AA0A0EA990797A31FA056AB21E53C72B9BCBEBE9E5E2B72B9BCA5A585B4B0108BC5CC5A1CAD85DBED46F9863306EE473FC062B1406622A3E1EF8B6198CFE773B95C4AA572EBD6AD5429506363635255D120AE9B04221D811F856C100C0621CF2449DD2C
310
2B2B2B03810029F6F1FBFD5BB66C21FF9AACDF263D36DB553823E177F40B925929737373613CEE351A0D8EE35181ABC462F1B66DDBA8069B1CC4D2A2FACD6D6C32550A64B158A6A7A7F98D791F0E87474646A82EC56B313333A35028122892E572792010D068346D6D6D73737351AD4C4E4E52E3DA767777B3ED31B3B4B424
310
914850B2E13485F7B59F0AA48984542AA586E3251189443535352E972BF168ABAFAFA7EE362525256C9B2D68341AABD5CA6A13083AA4613C0FC813B3C9648AB2CDAEA8A8F0F97C595959EBBEEB743A1B1A1AA8253938A6A39B40DA9186A35F90CC7A4CAA058A8B8B711CDFBE7D3B7C2B388E5347A45C2E67FB20B41936814C
310
3AE4793C9EA9A9A9340C6A79EDDA35C828123D3D3D3E9FCFEFF72B95CAB6B6B64B972EC1879F181919512A95E415F9F6EDDB3939394CF91EC4656A6A2A0D979B8D404E4E4EB2EA46B7DBCDEA979D2230EBB1502874B95C5411A74020A8ABAB836F256A13E0C0930B8553671EB55A7DFAF4E9919111F81D3CA9000D7C913894
310
83D56A0D0402B1C7FD8282027843378D46B36BD72EAAC11FBA096418797979A74F9F2608626565E5C0810330AF645028E3B86305242248A00C7EE8A187E04F1A519B001BF90AA20804021CD8206D0A727373DBDADA0882585D5D3D74E810CC2B1934FA05313EF8229128180CAEEB952F9148BEFDED6F4336A1D168EEBDF75E
310
EAB1045E214D8FFCFC7C8BC5C25EFD9B85BCBC3C30FAC3E1F0C18307615EC988934F14A42599CBE582B7DFDCBE7D3BFC42CEFD26804E41A902749CE0E4F3C8238FC0BC92959595416B3F8948246A6969C1711C46BA4F8261D8638F3D06A9792D2929B9F3CE3BA9A9B6D91EA0DC67F6DE50E4E5E5B5B7B7130471EBD6AD871F
310
7E98FAA7AAAAAA5FFCE217EFBCF3CEB163C73680C819A49FA1A7A50E0683F012A1BABA3AAA184DA3D1B07A4A414E0229B17FFF7E82200882387DFA3429279148246FBEF92641617979F937BFF94D520B67FA00249229C6183C72E408644987C31195B395ED4D009D8252E289279E00A3FC9D77DE011B3D39FAAF5DBB363A3A
310
4A4E8393274F7216179629AAAAAAFC7E7FEAA6631E8F27AEBD505C6A6B6BA9AB32DB89E0B3B3B3998D02BFB9108944AFBFFE3A18E24F3FFDB4D7EB5D5D5D1D1F1FAFADAD150804595959CF3CF3CCF2F23228F0DA6BAF658ADCADB4B494C1646118861D3E7C18F2B33B1C8EC6C646EA35096D02698D4824FAE0830F8014E82F
310
7FF90B41103FFBD9CFA8051E7CF0C1A5A52530071E7DF451BEFA090938EE33BEE8FA7CBE868606C8C23B77EEA4AECA6C9B8822AD70AAE4E4E4002D18E0DE7BEF8D2A70FFFDF78339C076708754108BC56EB79BBD90E2870F1F863C4DB9DDEE6DDBB6519FB0BA48A3AB3003582C96EBD7AFAF35010402C1ABAFBE4A10442412
310
F9F297BFCC7DF712836198C3E1F07ABDAC6A27EAEBEB212D7C4422D18E1D3BA853916D8B29740A6280AAAAAADBB76FB7B7B7C7D5FF9BCD66701978ECB1C7B8EF5B024A4B4B83C12007A16A93520C4729C5D80E286DB3D9D46A357BF5730F0FE6D0E7CF9FDFBD7B775353535CC3E6F1F1F17038CC7DAF12909D9D8DE3F8F2F2
310
727B7BFBECEC2CDBCDADACAC0C0E0E42C603EDEFEF37180CA48BF0E2E222AB32B4FEFE7E6416C13065656554B9C7AE5DBBC011E88E3BEEE0B15700A150E876BBB917FFC9E5F2AF7FFDEB9085A3360193C9C460928EB8CDB15779A672CF3DF7BCF7DE7BDDDDDDDDDDDDAFBFFE3A4C0404C0B66DDBE6E6E6DE7EFB6D1067AAAE
310
AEEEDAB56B0441747474B0D95F28EC76BBDFEFE72B44D4FDF7DF0F29D2713A9D3B77EEA43E61758C2259D017C030ECC5175F8C4422549D6E381C8689DFA4D56AA7A6A6C8576EDFBE0DEA999999811705B281D168C4719CDF38C93A9DEEAB5FFD2A64E1A6A6266AB020B6A349A34DE0737EF8C31F02F3E68F3FFEF8B9E79EFB
310
D7BFFEB5BABA0A06318C5233180C9E397306BC024E3E030303F0DA50C6118BC5388E3398F43715BEF9CD6F42EE3FC16010A814012A958AD5631B9A009F515656B6B8B80894BBE4C3969616F0F0DFFFFE37643D8D8D8D870E1D3A74E810BFA24F8FC7039F139203AC56EBEEDDBB614A6A349ABBEEBA8BEA73C3EA184569043E
310
032CFF044144C99E9F7AEA298220969696F8EA58B2008B8634F43D78EEB9E7204BD6D7D7535D2BD90E9DB461368194C4A0E46528CA7CE5C48913A15068757535F1EB797979E960F3E3743A979696DADADA969797F9EE4B341D1D1D9062C7D9D9D9ECEC6C52858CE49590A43401060606C00F511E5E8585852291E8C68D1B1F
310
7EF8E1B973E7BABBBB9F7CF2C928D1414141C1A953A74E9C38C1EF1CC0717C686868747494C73E24E0DD77DFA546C64D406F6FAF582C4E3129323CB76EDD4A36E4F50644AD564F4E4E1204B1B8B878D75D7781871886BDFDF6DB440C3D3D3D54D5EFDFFFFE77F0FCF0E1C33C753F3392E3468938D722272767DFBE7D5FFBDA
310
D7C827901179E9C165D6A67441A552C59E92BFF18D6F00194E28147AEBADB75A5B5B81EBE3C2C2426B6B6B4B4BCB238F3CD2D1D101C6FA279F7C429A12D8EDF6AB57AFFEF4A73FE54BD05E5454041F948A476A6A6A122877452291DBEDC671BCB9B9592C1647A59464F5A4BE61AE01506467679F3A75EADD77DF8D9D03DFFA
310
D6B7A2F4000441901B8240205028141F7EF821784E5570F21B752C53BE3F994CB667CF9ED8E7207592DFEF07DF48414141595999E08B9F2BF5044D09C8C49005F4F9DBDFFE0646F0FBEFBF1FFBB12D16CB77BEF39D279E78E297BFFC2541101F7CF04154019BCD06EC9CE165A3ACC2EAF18071A8631A4419C2713CD6DE01D8
310
2AE7E4E4901F8DD5E09E9BCB3AFAE4C993E4EAFEDE7BEFAD756E397EFC384110BFFEF5AF63FF0494BE972E5D62B9A75064D637A7D56AABAAAAC0B84F70CD2593C750177E740A4A0CECFE78E6CC19F2E7E6E6E6DFFDEE77718B010F3DA7D3B9D6CE3B363696640F59211DC4AFF04C4C4CD8EDF6B6B6B6B6B63652F216CBECEC
310
2CB86271904163D3B17BF76EB0FC87422160B3F0E31FFF38B6D8B163C740B1C71F7F9CFA7CFFFEFDE09EF095AF7C85AB2E2722E3962EC803376904417EC0FCFC7CF664A36C7BE2A71172B91C8CECE79F7F9EB4603B7EFC78D4525A5454B4B0B0008CDB5E7BEDB59D3B77D6D6D67EEF7BDF033E2E7FFCE31FF9EA7F14193701
310
E0C58EE0A3513F203A0531C3B973E7088278E9A597FC7E3F10FF130441EAEA85422108E973E0C08158250041107FF8C31FD227D25B267E6D907D46132029C4F0454F9D3A555555B575EBD6A3478F3635359D3C7952ABD57EFFFBDF170A85CF3EFBEC2BAFBC525C5CBC67CF9E37DF7C53A150B4B6B6929B6328147AE38D378E
310
1C39B2B2B2C2CEA7E01FA15068B7DB131BCAAFACAC5CBA74697E7E9E5E13376FDE2C2C2C1C191981290C5CC31617170502C1F0F0B0D1681C1E1EA6D72EE2330E1E3C082C9FC105D7EBF54E4C4C80D5BDBBBB1B1C7BC888E73299ECE0C183C78F1F6F6D6D4DC398870CAE5B797979388E07028175DD442412496565258EE3B4
310
FF2130DD066548B500FC8BF4502A954EA793A5CAD30B93C9140E870982209D5DBC5EEFF8F838E9D10219F3391D30180C30E94D132393C9E88D66900F98C68B30917F5C2E97DD6EC771BCB8B8987C884E416BB1A618B4B6B6362A8CF3E0E020C8CBBB63C70EF064686888CCD42B140AD90B95C338376EDC48D1EBC566B301D1
310
E4E5CB97937D776A6AAAADAD6D727232591BECC4C9C8F2F3F383C1A05C2E9F9999696B6BBB7EFD3AF92764BB9634CF3FFF7CACD0E6F7BFFF3D50840928319FC3E1F0CACA0A2923CA1411BBC3E1A017E3040864988A0EE276BB933209311A8D519B405656563018C4713CB1FD337BEB3499126183A056ABF7EDDBF79FFFFC07
310
DC6BA97F0262FED1D1D1A2A22272F41F387060EFDEBD6464CF175E7881AF9E2785582CA6A69E8604C330BFDFCFEC24B7582CA5A5A5F0E5C9A1ECF7FB711C87CC8EC1DE0490C9646EB79BA5CA3945A954BEF8E28BC3C3C3274F9EECEFEFEFE9E9191B1B7BE59557C86DB7AEAE0E8CF28B172F1204B1BCBCBC7FFF7EF0A7071E
310
780058FB2C2C2C644A18E164C7844824829C331E8F07FF3F30AAA2A41CB88C46E3962D5B701C4FCAF31D5D03D641A954FEE31FFFF8C94F7E026E87AFBEFAEA534F3DA5542A8F1D3B76E1C205909950A15050E33850ADCF0502C1030F3C70EBD6ADA6A6265EFA4F8364972E48E34AAFD74BD57840A657613B0B8B56AB2D2F2F
310
67A9F28D3001DE7FFFFDD6D656F2573001C0CF7BF6ECE9EDEDD56AB50281E0E5975F2608626565256AF40332EEA605FFCD41069CAAA8A800FF84A2A222327D5D20108019DC991BDF3CE32780C562E9EFEFA7AE5B7FFAD39FA871694E9C38F1CC33CF0804020CC35E7EF9E5871E7A88875EB200647221983CD8003014486F1B
310
9FCF070E2AD4B0256B21954A3D1E0F4C2BF4606F98EA743AF6B6172EF8F9CF7FFE831FFC80FAA4ABAB8B14770A04828A8A8AEBD7AF6FA8CBFEFF81D72E41D6565858485E6A491B1EC81AA28E4FCC82AE01B17C76A255ABD5BDBDBD09CA5DB972C560306CC8093037379758899B9D9D9D94FD82C160B871E306F839128924E5
310
93D5D1D1C15E6CA2818101CEBCE63385CFBF1BF23BDB6C5CB87021B1D8CAE974F6F4F470D69F5028C452A6C0898909709143907C3601AE5EBDDADCDC4C3E158BC57ABD9E3A2582C1E03FFFF9CFB9B939AE3BB8F9E8EBEB838C8D8E608CD2D2D2B1B13132CCBC42A1200882BA0EFDF5AF7F8D2BF6D918E8F57A20E78D25A960
310
C8C029D1E7F389C59F9BD9C6DA27AF0B7BE769F252CE38199A46F2F31DE0ADB7DE7AE38D37E2DEC09E7EFA69A552F9E73FFF99DBBE71C7D8D8D85A224E954A05B9EFE974BA4020B09669D0DCDC1CABB95B20B97EFD7AEA568071999F9FCFC4B0E99F2F544F3EF9E4AF7EF5ABB367CFFEE8473FFAF8E38F0502815028ACACAC
310
FCEE77BF6BB3D9EEBEFBEE858505FEFAC93AE170582C16C327A7890D103B3E3EFED1471F090482A87AC03DF8C2850B0A85227669BF78F1626CD699F1F1719D4E373E3E9EF4C7588FD1D151100C8FF19A3394CF2740241279FCF1C7EFBBEFBE679F7DF6B7BFFDAD4020E8EAEA8A44222FBDF4D2D1A347816BC506E6F2E5CB56
310
ABF5E2C58B3085FD7EFFE5CB977B7B7B0D0603699AA6D168F2F3F38542619438A1A3A3A3A1A121140A4522116ABCD4CECECED5D555BBDD8E61D8CCCC0CF595D1D151B3D9CCC6044040B173E7CEB367CFB21753293D897BF28E7D48A69F282E2E361A8DC22FB256E518864595F47ABDE0AA10371954266A6DABAAAA58CD50C6
310
06F1BF3070988B4422DC7686676265F622912836C6357808FCAD868787235F64ADCA41280D2A9D9D9D2E974B2412D17692A447B2AA0978868686D69225A42DF1FF119D9D9D478F1EE5B82BBC13AB10108BC56BF931EBF5FA5BB76EA5D21CF02FE53E50C0A54B975812B3CECFCFB36ACFC706428140A05028A2F423838383E0
310
1EBCA9585858880A16BDB4B414AB93220802C3B0F6F676B3D99C4A3EC69A9A9ABEBEBE502844BB067ACCCCCCA0FC2E2462A552693299CE9F3FCF774F32864F3FFDD4E3F17476769E3B77AEBABA3A76D38F4D3810D767EAECD9B34B4B4B66B339365A9E4C26CBA0FC3A198D188D7E2A5D5D5D3535355D5D5D09CAACAEAE7675
310
75F9FD7EF02B79EE1F181800A9BF711CA74E009BCD363434343D3D2D10089C4E27794D74B95C18865DB97265626222AA099D4E97263124373C6234FAA940DAE1ACAEAE7EF2C9275157C9F2F2728FC7F3D1471F45A914D46A755F5F9FD56AD568343D3D3D548132702D8AADDF6030B4B5B5A5F65112118944300C8BDB748A24
310
AB4EE19D2402636D4EC094887B528F92F9F4F7F74F4F4FAFE55DA0D168581DD349313333A356AB53BCC4C705C4ADB872E50AE335B3C4E692F4C3100A85A8E7757028827C77727232F5DC8C52A994ED747DEC0982C808D599029A00D1F4F6F6F29B3BA3A2A2224DB228D060696929B39C46D004882656F4393434440D33C836
310
4AA572639B5DA5156802ACCFE8E8684141017CF9C5C545DAFA0193C934383848EF5D040DD004880330C6A43EE9EBEBB3D96C90AF5FBC7851AD56039D28D01840BE8861186702D0B9B9B98CD3DAB2019A0071B876ED5A94D1FCF4F4B45C2E8739DD0275724F4F4F6969E9962D5BCE9F3FBFBCBC6CB55A614288FA7CBE4F3FFD
310
947EBF93E1F6EDDB1967B886E00E48CBD058844221A923037709ABD50A132E89E374434AA592A560C672B93C1D5C7F20417A8024E8ECEC5CF748138944CE9C394386C4120804376FDE5C57E2AED168A452E9D5AB5719EBEB7AC41A3E314528148A3A4022320FEA08A6229148188F5DA5D7EB618273314E26BA1C300EBA03C4
310
672DCBDE9595959E9E9E6030C85492F4D2D252B95CDEDFDFCF486D88644113203E0982052D2F2FB7B7B73B9DCEA4629AC7A25028FC7EFFD2D212F2D0E511340168D2D9D9B9BCBC8CE3380DCDBF582C76BBDD66B3B9A3A323CA701AC131E8124C9F919191919111BBDDEE7038A6A7A7FBFAFAD67D45ABD59ACDE670387CFEFC
310
7964F19F0EA009902A20A66A6E6E2E79F39B9F9F8FB2662393204D4C4CA48F4DE8C8C8484141C126DF82D0045813E03A1815B024416172642B954AAACA8C20081A89F438606A6AAAA4A4848D0900BC46D9F0374070077BAAA23401C3B06030C846CD649690F4E77FF5C6C152B97439800000000049454E44AE426082
  0
ACDSRECORD
 90
        0
  2
AcDbDs::ID
280
    10
320
D62
  2
Thumbnail_Data
280
    15
 94
     8677
310
89504E470D0A1A0A0000000D4948445200000100000000940802000000F39060D0000000097048597300000EC400000EC401952B0E1B0000200049444154789CED9DE96F62D7FDFFCFBD176C5603C6C6BB8D770C631BAF4C9B4E46992CED444D13454995A84FAA46695555CA93FC0351FB0754AAFAA0EA83B66A94569A495B
310
B549D3A855B6C964628C6D3603C66C06DB800103665FEFFD3D38FAF1B5D806DB609B705E8FE072B93E58E77DEF399F15A3280AB4004AA552A150D4EB34C43706FCAA0780405C2548008896060900D1D22001205A1A2400444B83048068699000102D0D1200A2A5410240B43448008896060900D1D22001205A1A2400444B83
310
048068699000102D0D1200A2A5410240B43448008896060900D1D22001205A1A2400444B83048068699000102D0D1200A2A5410240B43448008896060900D1D22001205A1A2400444B83048068699000102D0D1200A2A5410240B43448008896060900D1D22001205A1A2400444BD3BA02A028AA453A6422AAD0BA02F0783C
310
FBFBFB573D0AC415D3BA024020001200A2C5410240B43448008896060900D1D2D0AE7A000DC462B144A3D16C360B00A8D1E2198BC5944A2500804EA773B9DCC9C9C9C60E1171D57CA304E0F1785C2E57E1EDC4C4C4C8C8485B5B1B00004EEBC7C2E170140A05002093C944A3D1C2B7300C9B9E9EE6F1780D1835E22A697A01
310
E4F37983C1904C260100BDBDBD70FA5E9CB6B636A15028140AE15B9224CD66F3CECE0E004028148E8E8E120451973F84B85A9A58003B3B3B2727270441C864322693D9D0BF85E3F8CCCC0C7C7D7C7CAC56AB4F4E4E060707A7A7A71BFA77118DA6F904904824F47A3D00402291482492CB1F40E1C9100A85944A657B7BFBE4
310
E4249BCDBEFC91202E4E3309E0E8E8686F6F8FC562ADAEAE621876D5C301028140A150A4D3E9DDDDDD442221168B7B7A7AAE7A5088B3D11C02B0DBED7EBFBFA7A7A75E4BFC3AD2DEDE3E3B3B0B0070381C4AA512C9A0B9B8EE7E80783CAE542AB95CAE42A1108BC5573D9C6A8C8E8E2A148A6432A9542A63B1D8550F075113
310
D7F70990CFE7D56A3583C138DF5D3F97CB79BDDEC3C343F8F6AC7E0000C0E4E4249FCFC7F1B3DD23C462B1582CDEDEDE4E26938B8B8BC85874CDB9A60230180C8944E21C13C8683446A35100004110A7ADA267F50300007677776D361B49920080EEEEEEB1B1B1DA8771E3C68D7C3EBFB5B5D5DDDD7DCD1F5C2DCEB5134022
310
91D8DEDE964AA51C0EA7F6AF389DCE48240200904AA55C2EB72E23999A9A2ABCF6F97C5042D03D4CA7D31FFB7582205656568E8E8E341A8D4C26ABE52B88CBE77A09E0F0F0F0F8F8787979B9C68547C12E343C3C5CB0D3370291482412890000914844AFD767B3D9D1D15178A43A3D3D3D3C1E4FA7D38D8D8D090482C68D10
310
713EAE9100341A8D50289C9B9BABE564BD5E9F48244422D125DB853A3A3A161717010076BBDDE170D4B2346230184B4B4BBBBBBB47474757E2B8405401BB0E79B1A9544AABD5CAE5F2F6F6F6EA67922469341AE3F1F8ECEC2C8BC5AAE5E2E974DAE572ADADAD9D5ED200000281403E9F2F32591A0C86EF7DEF7BBDBDBD353E
310
827C3E9FC3E160B1583299ECB15F0987C376BB5D2E979F75638D681C572F8040207070702097CB1F7BA6DD6E0F04023299ACBADB952449ABD51A0A8562B1582C161B1919E9ECEC1C1A1A2AF29DB9DDEE5C2E373C3C7CFA603A9D3E3A3A3A3A3A72BBDD0080DEDE5E3E9F3F353555DDEF168FC78D46E3F0F0F0633D00D96C56
310
AD56CFCECE363A76035123572C804020100E87272626AA9F06D7FA636363DDDDDD95CEA128EAEBAFBF2608229148F4F6F63E764B505600A56C6E6E66B3D96834DAD3D3537D79B6B7B7E7F3F96666661EBB0BD7E97403030385483BC415729502F0FBFD9148647C7CBCCA39994CC66030F0F9FCD1D1D14AE7B8DD6EBBDD4E92
310
A4542AEDEAEA2AFA942449AFD76BB3D9300C3B6D8A29BB0402000C0D0D952E81288A72B95C56AB95A228A954DADFDF5F76242449EEECECA4D369B95C5EE5A1415194D56AE5F3F955F48CB81CAE4C000E878324C9EAB33F180C3A9D4EA9545A766F4092A4C160F0F97CFDFDFD45F7FB4824623299E06B0CC3FAFAFA0607076B
310
59025114757070E0F57AA1F91FC771B95C7E5A3614456D6D6D2593C9CECE4EA9545A76D8994C46AD56CFCDCD555FE7D8ED760CC3AA081B71095C8D00E0C6B1FA8A7967678720884A395976BBDD64322D2D2DF5F6F6160E8642219BCD96CFE7B95C6EA5D959A09625503E9FD76834B95C8E4EA74BA552068351F8687B7BDB66
310
B3CDCECE56B20269B55A3E9F3F323252E5FA76BB9DC3E1D4624E4534882B10C063673F0C82989898E0F3F9A59F42FBE3ECEC6C61DE64B35983C1904EA7F97CFEC4C4448DCEE31AF700853F61341A53A9544747C7E9A78DC3E1808FA0A1A1A1D26F793C1EBFDF2F93C9AA0C0969E06AB96C01F87CBE582C56C5760E2D2A0B0B
310
0B345AB18F229148E874BA9E9E9EC2B2219FCF6BB55A8AA26432D9E9DB732D9C490005E0E2AAA3A3432291C0351545516AB53A140ADDBC79B3D43C954824542AD5AD5BB7AA983EF57AFDF8F8788D565D447DB95401241209ABD55AC596128BC5F6F6F66EDCB851FA91D3E974381CDFF9CE77A030489254ABD52449CECFCFC3
310
ACDFB3723E01404E4E4ECC663387C3292CB472B9DCC3870FA55269E9BD9C24C98D8D8DEAC11D7ABD7E6C6C0C65D55C3E97270092243737379797972B99472ACDFE5C2EA7542AC7C6C6FAFAFAE01168E62FFB94A89D8B0800128D468D46636F6F6F61A1EF7038DC6EF7EAEA6A69E48FC160181E1EAE622155A954287AF40AA0
310
2E8B8D8D8D6C365BE9538FC7A3D7EB4B8F8742A10F3FFC309148C0B7A9546A6D6D2D10085C7C3C8787874EA7F3E2D771BBDD6B6B6BE9741ABE8DC5621F7FFC7130182C3D737B7B3B128954BA4E369B55A954171F0FE24C5CD213C068340E0E0E76747494FDD4EBF5A652A9D2B061A7D369369B9F7BEE39F8D66C362793C95A
310
7CC6B570F127C069B6B6B6BABABA0A577BF0E0C1FCFC7C691995EACF018FC793C964AA1B8E10F5E53282525C2E179FCFAF34FBA3D1E8F1F171E9EC77BBDD388EC3D90F974F2291A85EB3BFEE2C2E2ED268B4CDCDCD7C3E0F0078F2C9270F0E0EAC566BD1693299CC6C36E772B9B217E9EBEB0B87C3B0C40BE27268B8003299
310
4C2010A8E23A35994C3299ACE8F8EEEE6E3E9F87B6C54422B1B9B939373777CDC389FBFBFBE7E7E7B55A2D74A241C3542125ADC0C2C2825AADAE7491F9F979B8146CEC5811FF9F860BC0603094B5EA403636369697978B0EC2442A38FB7D3E9FCD665B5959698A84121A8D363F3FBFB1B1118FC70100838383B158ECE1C387
310
A7CF2108422A95C2CA2E65914AA50683A1E1634500001A2D00AFD72B10082A9929B7B7B74BA3881F3E7C383C3C0C6FF63E9F0F463E377490F5852088D5D55587C3717474E47038FEFCE73F73389C838383D3E7B0D9ECFEFE7E8BC552F60A1C0EA7A3A3C3E3F15CCA785B9D060A80244997CB55292356AFD77777771759BE0F
310
0F0FC562310C6883598E4D1A2A23954A552AD57BEFBDF7E69B6FCAE57287C3717C7C7CFA04A150C866B32BF5681A1E1E76B95C682174093450007ABDBED2CD1B9A358BA221C2E1B0C7E3191C1C04001C1D1D9124F9D830E96BCBD75F7F2D10080AD1A9B76EDDF2783C45B552FAFBFB61D641592627274BF7D088BAD3280140
310
5346A570C8526DF8FD7EABD50AF703F178DCEFF737E9BD1F0090C964582C168BC57AE9A5976C361BFC57C864328BC592C9644E9FB9B2B2A252A9CA5EA4B3B333180C5EC6705B9B4609C0603094DA76200E87432C169FF607531465369B9796960000B158CCE17054D9375F733299CCF6F6B65C2E5F5858C071FCC68D1B46A3
310
9124490CC3E47279D18618C7F1AEAEAEA3A3A3B29792C964DBDBDB9732EAD6A5210248A552743ABD6C9C423A9D0E87C3458B1F9D4E07432460CA6FF3CEFE743A6D30181617170BF2260862616161636303008061D8FCFC7CD1DE777474746F6FAFECD5381C0EB426211A474304A0D7EB2B4DE2FFFCE73F45DBE2E3E363168B
310
056339CB5A459B854C2663341A4B5D75388E4BA552782F170A85A954AA685A8B44A2FFFEF7BF65AFB9B4B404C5836810F5174026932108A26C50975AADEEEFEFFFD7BFFEA5542AA1C7140060B55A61D68BDBEDAEBD1CC37503A66E56CA84E4703804419C9C9C0000A452A9D16884C7B3D9AC52A9BC7FFFFEE8E8A8D96C2EFD
310
227C8A56F21C232E4EFDEB02A9D5EAB2B57A4E4E4E180CC6A3478F7EF6B39FD168B48D8D0D8220E8747AE159B1BFBF7F0D8B3FD7423A9D86390C55CE999999512A950A85822088E1E16187C3E1F178DADBDB150A855C2EFFE31FFFB8B2B292CD664BFD7DE3E3E3369B0D75E2681075BEDDE672B94A01BD3B3B3BC160F0E6CD
310
9BF0AED6D1D1C164323D1E0FBC2F6E6C6CC04D705360B1583EFCF043F83A9D4E9B4CA65A8294241209CC548E44225AAD562010407F5F7B7BFBC8C8089D4E5F5F5F2FFD9640200887C3751D3EE2FFA8B3002A197F12890493C9DCDADA8265D5602697442279F6D96773B9DCFFFEF73F168B7591E0FECBC462B1FCF8C73F1E1E
310
1E86413BB0D6552D0D3B783C5E201078F4E8515B5BDB4B2FBD343333F3D5575FC18FEEDEBDFBF9E79F57FA0F8844A24A9622C405A9B30052A95459DBBFD1684C24124B4B4B70A23C78F0E0EEDDBBF0A3E1E1E1679F7D16C330954A556426BF9E984C269148F4CB5FFEF217BFF8C5AF7EF5AB1A6B92C270FFA1A1A16F7FFBDB
310
8580E7C5C5C582A173707090CD66C33E7C4554B114212E483D0590C964CA86AC511495CFE7552AD5CD9B3701002449B2D9ECA2FCC0999919381B6C365B1D87D4087EF0831FDCBD7B57A1507CFEF9E7FFF8C73FAA7873212449EAF57ABD5EBFB8B858640183DE31F8FAF9E79F7FF4E8115C109642A7D39BE2EED074D4530095
310
621FD46AF5D0D090502884169EB5B5B5B25E5E82201617173B3A3A944AA5D7EBADE3C0EAC2E79F7FFEFAEBAFAFADAD0100DE78E38D858585B7DF7E5B2814566F1E6CB3D9363636C6C6C62AA53B4A241268FF613018388E0B0482B201427373733A9DAE4E3F05F17FD45300B07E4EE9F16C36FBD1471FBDF8E28BF0ADD3E9AC
310
5211ADBBBB5BA150A452A9F5F5F582A9B411B058ACDA5B10A4D3E9B7DE7AEBEDB7DF7EF3CD375D2E172C58A45028DE7DF7DD4A99ECF97C7E7D7DBDA3A3637575B54AB6FBCCCC4C61D9F3F4D34FEFECEC947DA4D068B486FE375A96BA0920128994CDF48BC562341AEDE8E8C868348642A14020508B454F2C162F2F2F6F6E6E
310
D66B78A5F0F9FCCECECE5ACED4E974B0DBC5EF7FFF7B2E97FBEAABAFFEF5AF7F7DEFBDF75E78E185429E7E29B002402DC50FF97C7E369B75BBDD1E8F47A3D160185676AE434F792D0346D40EF1CE3BEFD4E5421A8DA6AC215CA7D3A5D3E9898989E5E5E5838383870F1F3EF3CC33B5D84C300C3B383880C1A157CB0F7FF8C3
310
F5F5F5DFFEF6B746A3F1D6AD5BAFBEFAEAFDFBF77FFDEB5F5729C772727292C9646A2C77D5D3D373EFDEBD9191911B376E1004914C26B3D96C6991533A9DEEF3F9AE795A5CD3D170CB633E9F4F26937D7D7D388E4F4D4D8542A182AF17568083773B0CC3464646AE6783D1959595DDDDDD37DE78636969E9FEFDFBD96CF677
310
BFFB5DF5AFC4E3F1D2650F6C26005FB3D9EC820790C9644E4D4DC10C380683816158D9ADB0482472381C676A5586782C8D1540369BA5D168028120168B198DC670380C0D4100008FC773707050D81A9224E9743A8BDC0857DE6CD4EBF53E78F0E089279EA028EAFDF7DFCF64321F7EF82141108F8DD7E8EFEF572A95A74B4E
310
68341A1E8F577075C37694333333B056C0C8C888D168CC6432272727030303956C4188BA531F019C9C9C942DFA0027340C748B46A34C26134E1D58FF6365650500F0C1071FC462B1A79F7E7A7474D4E3F1582C16181A140804AEB6408852A9DCDADAD26AB5B76FDF7EFFFDF73FF8E00383C15069A35F0A9BCD8EC562709FAD
310
D16824120983C1F07ABDF7EFDF97C96477EEDC512814269389A2281E8FD7DBDB1B8944C6C6C6E0FFCAEBF5EEEDED9526D3F1F9FC502884564175A43E9B60A7D35976B2A6D3E942C94E2E975BB07EBA5CAED3D5D47A7B7BA1A7B3AFAF2F1A8D66B3590080CD66BBDA8C30A552F9A31FFDE8E6CD9B7EBFDF6432CDCDCDBDFEFA
310
EBB57776999E9E86F64DB7DB2D140AE1FFC1E974AEAEAE169C5FA74D4053535385FF55E11F52844824F2F97C17FC5D88D3D4E709904C266BAFED9A4C26190C462E97FBF7BFFF9DC964BABBBB33998C4AA572B95C8B8B8B72B91C0645D7B2516E288B8B8BEFBCF34E6767676F6FEF392AD7D2E97418C50983FC8C46A3D96C86
310
35746934DAFDFBF7391CCE33CF3C73A66B0A0482DDDDDDB38E04518506EE01F2F97CD9B5723A9D6E6F6F5F5B5B63B158ABABAB5C2E974EA70783C16030B8BEBEFEE28B2F521465B1588A7ADA5D3EABABAB24495214F5E4934F9EEF0A42A1B0900BFFE5975FDEBA754B2010F4F4F4F4F5F5A55229BBDDAED168180C46329944
310
2DC3AE8A060AE0E8E8A8AC558720887C3E2F168B3FFAE82393C9343D3DCD66B3373737994CE6EDDBB7E139E170F86A0380ED763B4110E79EFA908989894287FAC9C9C94F3FFD1400F0D24B2F7DF6D967A150687878F8F6EDDBBBBBBB65677F7B7B7B2A953A6BCD77C45969A0002AC5F773B9DC582C2693C97EFAD39F02007E
310
F39BDFCCCECEAEAEAE7EEB5BDF0200582C96898989AB2D8850DFA6153C1E2F1C0EDFB973E7CE9D3B4AA5F2F0F030140ABDF5D65BD5BF05AB42346F7668B350874DB04EA73B6BED2A3827E06B3E9F9F4824E0B38224C95028441044D9DE3097437D673F8661939393BBBBBBB0C80F83C1080402857632878787958A46B2D9EC
310
B209C1388EA398883A52070194CD63AA8E4422F17ABD30E8E5B9E79E93C964636363D96C766363636E6EAECAB4A823D96CB634BED266B371B9DC3A362CEAEBEBF37ABD7373731B1B1B994C667E7E7E6C6CECCE9D3B00008BC5128944CAF656AAC2D2D2524323445A8D3A2C81F2F9FC39DA3A482492FDFDFDC212F9E8E8884E
310
A7AFACAC6018168BC51EDB6AF7E2F8FDFEA2F2E8369BADA3A3A3BEAD4B070707D7D7D7070606969696B45A2D945C241201004C4E4ED6188C84681C7510004551E7CB641F1A1A3AEBFDAF713462F603000AC65C1CC7AB270D9FF58288BAD0C0120C1E8FA759F2981A34FB2FC2E6E666D90C180CBBCADEE6DF3C1A25805C2EF7
310
C5175F542AFE7AAD301A8D3C1EEF5ACD7E00C0DEDE1EAA087409344A008140E0B4CFFFDAA2D56A8786864A638FAF9CC3C3C3F375BF449C89460980CBE55EB92BF7B168B5DAE9E9E94BD8709F8FE62D92D7449C79136CB55A8B4ADD976D67120A852291C8DEDE5EC1CE533B67ED8F72E3C68DC776D8753A9D4579C69B9B9B03
310
03035AADF6F4C1F1F1F1C73E0D12894495FE2EA59CAFDD8BD3E9ECECECCC6432A5CF81D20B0E0F0F57C94D4354E1CC02989898280DD22CF5F8C662B12FBEF8422C169FAFD85BDD4BC48D8C8C14E24F298AD26AB577EFDE8545DACE7A29168B75D6E19DE3E728954A168B75EBD6AD7A5D105196462D81F2F9BCD56A3D4710E5
310
25006B72B5B7B75FF540AA411044B3D8D09A9A46C502F178BC743A2D954A1B74FD73A356ABA552E9359FFD0000B1589C4824AE7A14DF7C1AE80778F2C927AF555B5F8AA2341A4D53CC7E00C073CF3D57D64B889C00F5A581D1A018863D3646C8EFF7EFEDED9124C9E5721BFDB8B80EB3DF64324522111CC7C5627175CF039D
310
4E2FEBF4A5280A3983EB481D0400E313CF1A0E1489444C26535757D7E2E2228EE3D16814669137C89AA156AB6532D9698B0A93C9BC84B0CA70380C4BC741EB9944229148241445EDEDEDEDEDEDC9E5F2A6E87FFC0DA63E022049F24C02884422070707D094F1E8D1A34824F2C4134FC0BC418AA26031E47A9548C9E5727ABD
310
BE68F603002E27B5DCED760F0E0E5A2C96CECECE898989582CF6F7BFFF7D7C7C5C2E978BC562B55A3D3F3F7FA6B2D89148A46CFD01C4F9A8C31E402693155A9ED488C9642A1455D66834058B87542A85B1D0F58AA148A7D35AAD562A955E9557351A8D621896C96484422100C06030F4F6F6C2AAE8388E9F23B6D96C364B24
310
92868CB525A9C31380C160A452A9D2E36D6D6D30FDB7E8382C228D6198CBE58291CF4C26D3EBF5C23414994C66369BEBB23881AD2B4EB7ACBB128C46A342A188C7E33E9F2F140A89442282202C164B7B7B7B152F84D56A1D1F1FBFCC71B6260DDC04C32E9FB023C6691289048BC552A95446A3716060E0F6EDDB6C365BAFD7
310
EB743A1CC75F78E105D858F782A452A99D9D9DF9F9F92B9CFDD16894CBE546A35100C03FFFF94F0CC3FAFBFBE7E6E6984CA6D56ACD6432E17018D63D2F7D408542A1E6ED94DC4434D00CDAD6D6062BFC9485CBE59E9C9CECEEEE1E1F1F6732199FCFE776BB0BA958176C910B677F8D8D5B1AC7CECE4E21B59F46A3854221AF
310
D79B4824D2E9B4C3E148269302818024C9B2D91467DD5621CEC7157425E2F17866B359A1504C4C4CC4E3F13FFDE94F72B9BCAFAFEFE5975F2608C2EBF5F6F4F45CA4456EE1DE5FDF619F033889DBDADA3299CC2BAFBC4292A44AA532994CEBEBEB3FFFF9CF310C2308C2ED76D7BE098EC5628F8D7A429C89FA3C0160C9BEB2
310
1F953A6E300CA3D168B06C288FC7633299E974BAB3B313CE0397CB0557C64C26F31CAED06B72EF07001C1D1DC107DADCDC9C56ABC5719C46A3E1381E8944E08F858D53CBF6D7A894661D0C06E1661A5137A87A90C9643636364A8FBBDDEEBDBD3D8AA29C4EE7DADADA279F7C52F80826895314B5B3B3B3B9B9090F6E6D6D1D
310
1F1F17CE595B5B3BD33012898446A339C7F81BC1E9C1070201581822954A2995CAFDFD7D8AA242A1904AA52A9C03DB27FBFD7E8AA2D46A752A95AA7E4D445DA8CF12A85006B088BEBE3EA552F9F0E143B95CBEBABAEAF57A0B5544171717B7B6B672B95C7777379FCFD76AB5A9546A7E7EFEDCA5A092C9E4EEEEEEDCDCDC85
310
7E499D88C7E3D4A9479F5028C4304CA95432188CAEAEAE783CAE542A793C5E21E25FA5523DFFFCF3388E7FFCF1C71886090482A688D7F80670197B80B1B1B144228161585F5FDF83070FA000300C838D81E13DAFAFAFEF22E501E1ECBF0EEB7E88DFEF2FAAEDDCD9D9A9502892C964341AA5D3E9A7EBDE5114954AA5E096B7
310
B3B3339FCF975DBF552A3589B8087513406767E7F1F171E90AB5ABABEBF8F8182E84288A4A24125EAFB7B7B7B770C2C59371AFDBEC07000C0C0CE874BAD33F13C264324B750EA3A1944A258EE32E970B3A434AAFB9BDBD8D0AC5D59DBADD51C6C6C6EC767BD9E31445E9743AB95CAE5028BEFBDDEFD6982165B3D90606061E
310
7B9ADFEFB7582CE758F9E472B9B2CBB6BA40A7D3391C4E8D051E552AD5EDDBB7150A854C2683ADE4CBEE8C2BF560465C84BA09802088B22DDCE0D3FCA9A79E82C5F261DDABEA97F27ABD7089FCD806617EBF3F1A8DCECDCD9DC3E6033D0F67FD56ED4C4F4FD36834A552091D6195808B43F8FAD34F3F7DEDB5D7CA466D9024
310
79E576AD6F24F55C535632868E8E8E8AC5E2CF3EFB0CBEBD7DFB76D97EE8000018139A4AA5140AC56373737D3E5F341ABDCE3DB36046A8CBE5AAD2F2756B6BEB85175E80AFED767B2412818D738AB0D96C2832A211D45300D3D3D365DB37884422BFDFCFE170E0BD90CFE7DBED76AAC43FA056AB5D2ED7EAEA6A696BA0527C
310
3E5F2C16BBCEB3BF804C265B5E5EDEDADA2A9B4A4FA7D3A1E14BAFD74BA5529224CBFAC59007A041D4D9AA50A997AD4824BA75EBD6DFFEF637F85626939DAEFAA4D7EB1F3D7A24954A6532592D0FFA269AFD101CC7575656C6C6C63EF9E49342A34800C05FFEF29742F198AFBEFA6A6060A0ACF8D3E934AA11D420EA2C80C9
310
C9498BC5527A7C747434180CE6F379B801181919F1FBFDD96CD6E7F32995CAEEEE6E1A8D56A3E5DBE7F3C5E3F1269AFD05D86C3687C36130189F7CF2493C1E4F26936C361BA625F87C3E3E9F1F8944CA16A646F69FC651673F409526561C0EE7F9E79FBF77EFDE4F7EF21300C0FCFCFC7FFFFB5F9224BFFFFDEF631886E3B8
310
C3E1786CFCE3D1D151229168D23049388FD96C766F6FEFBD7BF72291C86BAFBD063FBA77EFDE2BAFBC5229F4A3F6D69488B3527F47185CEB97965B9B9999D9D8D8805DA0ED767B5B5BDBDDBB77A3D1E8CECECECCCC8C482482CEE02A9EE0A69EFD2727270441C050B6ADADAD975F7E99A2A8EDED6D269399CD66A552A9D3E9
310
2C5BEDC760305CC3E21ADF18EAEF599C999981C6ECE2BF84E3636363C3C3C39F7EFAA94C2693C964388EF378BC5C2E07033F65325915174153CF7E0000D43900C0EFF70B04023A9DDED6D6B6B8B8383030A0D1680000955C1997D32DA165A9BF00701C178944457508215D5D5D0303034F3DF5D4E92DDD8D1B3760E83F8D46
310
EBEBEB73B95CA55F743A9DC964B27967BFC9642AE431DAEDF6D31B988E8E8EA79F7E7A6262A2AC93ABC86B8EA83B0D892D118BC54EA7B3EC471289047AC40A601836313101B7CEFDFDFDE9743A180C9E3EC166B3B5B5B5D5621BBD9EECEFEFF3783CE8DCD5683445211BF97CDEED7657CA8DACD4811C512F1A155CD5DBDBEB
310
F178CA7E549AED25140AB3D96CA17190D7EB85AFBD5EAFD56AE5F178CD5BF935180C269349D8F2CCE3F1080482A24D8E5AAD2ECD1A85D86CB666347635178D12C0C8C848D9C50C0080C3E130994CBFDF7FFA20DC05C2CDC0CCCC8CDD6EB7D96C66B319C3B06B58BCBF4642A190DFEF8796FE68341A0A858A6EE77B7B7B8383
310
8395521F0381C0756BDBF1CDA381E1B585854D29E3E3E30E87A3C86526954ACD66732E97C3306C6464E4DD77DFA528AA79C3E2D3E9F4DEDE5E61F6BB5CAE22634E26930906839596F86AB5FA5A1596FCA6D240010885C29393934A313052A9B4A89A10411072B97C6B6B0B00F0873FFCE1E6CD9B388E37E9ED3F9D4E1B8DC6
310
858505E81A379BCD853A4805AAB8B7C2E1308BC56A5EF137130DCD372349B24A16DFF1F1B1D96C2E3A188FC7EFDFBFFFE8D123F875B55A1D0A851A31B6C3C343A7D3D9882B070281ADAD2D9224E1DBB5B5B5C2EB022693A9CAEF42A98F974663338C300C1B1A1AAAB419E8ECEC64B3D94545E0582C16AC1404BF3E3F3FEFF5
310
7A03814043C759479C4E67301884F7FE5C2EB7BEBE3E3B3B5B14E0B4BFBFCFE572F97C7ED92BD8EDF6E635F8361D0D4FB1EBEFEF8F442295720006060692C96491DDB3BBBB7B727252A954C2FD8044220987C34DD12DC26030B4B5B54D4E4E02004E4E4E341ACDF2F272519790FDFD7D1CC72BE5FAC4E3F1783C5EC756F588
310
EA5C468E697517EFD4D494D3E94CA7D3A70F3299CCD5D5559D4E0723A8272626180C864AA5BA847ACEE723168B9DAE6E7D7272E276BB9796968AB27843A1502291A834FB4992341A8D28EEED32B9A4AECB7EBF3F180C9ECE043F0D45511A8DA6B480334992269369606000AE16F2F9BC5AADEEE9E9A94B7F79B7DB9DCBE576
310
7D2F900000018B49444154CED123AC088AA2767777B3D96C61E21E1E1E462291D25D6F281472381C95ACFE00808D8D0DB95C7EA662D1880B72495506BABBBBB3D96CA5A53C86610B0B0B0683A1682D84E3B84C26F37ABD30838C2088E5E5651CC7954A65D92EEA974F28145A5F5FEFE9E929CCFECDCD4D92244B677F3018F4
310
FBFD5566BFD3E91C181840B3FF92B9A42700C46AB5F2F9FC4A964D8AA2AC566B67676769EA53381C369BCDD3D3D3F0514051D4975F7EC962B16432D9B9F3C42FF80448269346A391C3E14C4D4DC13D6E2010B0D96C8B8B8BA5A1CB2E972B954A55699C7C7C7C1C0A854ADB6F221ACDA50A0000A0D56AA7A6A6AACC5AD84BA2
310
6CFA9FD96C2608A2304B72B99CD1684CA552737373E728A7756E01A4D3699D4ED7D6D62693C9E00D3B9FCF1B8D462693597606BB5C2E1A8D06A321CA5228E778D691202ECE650B0000A0542AABB7B9B5582C994CA66C6D9CE3E363ABD57ABA931249923A9DEEF8F8582E979F296BF61C02080683B0AEFFDCDC5C6177EBF57A
310
0F0E0E666666CA96AD351A8D7C3E1FCDFE6BCBFF0318123D4A2C2FEAF60000000049454E44AE426082
  0
ENDSEC
  0
EOF
