  0
SECTION
  2
HEADER
  9
$ACADVER
  1
AC1027
  9
$ACADMAINTVER
 70
   105
  9
$DWGCODEPAGE
  3
ANSI_932
  9
$REQUIREDVERSIONS
160
                 0
  9
$LASTSAVEDBY
  1
digitec
  9
$INSBASE
 10
0.0
 20
0.0
 30
0.0
  9
$EXTMIN
 10
0.0
 20
0.0
 30
0.0
  9
$EXTMAX
 10
840.0
 20
594.0
 30
0.0
  9
$LIMMIN
 10
0.0
 20
0.0
  9
$LIMMAX
 10
420.0
 20
297.0
  9
$ORTHOMODE
 70
     0
  9
$REGENMODE
 70
     1
  9
$FILLMODE
 70
     1
  9
$QTEXTMODE
 70
     0
  9
$MIRRTEXT
 70
     1
  9
$LTSCALE
 40
1.0
  9
$ATTMODE
 70
     1
  9
$TEXTSIZE
 40
3.5
  9
$TRACEWID
 40
1.0
  9
$TEXTSTYLE
  7
STANDARD
  9
$CLAYER
  8
図枠
  9
$CELTYPE
  6
BYLAYER
  9
$CECOLOR
 62
   256
  9
$CELTSCALE
 40
1.0
  9
$DISPSILH
 70
     0
  9
$DIMSCALE
 40
1.0
  9
$DIMASZ
 40
3.302
  9
$DIMEXO
 40
1.0
  9
$DIMDLI
 40
3.75
  9
$DIMRND
 40
0.0
  9
$DIMDLE
 40
0.0
  9
$DIMEXE
 40
1.0
  9
$DIMTP
 40
0.0
  9
$DIMTM
 40
0.0
  9
$DIMTXT
 40
3.5
  9
$DIMCEN
 40
2.5
  9
$DIMTSZ
 40
0.0
  9
$DIMTOL
 70
     0
  9
$DIMLIM
 70
     0
  9
$DIMTIH
 70
     1
  9
$DIMTOH
 70
     1
  9
$DIMSE1
 70
     0
  9
$DIMSE2
 70
     0
  9
$DIMTAD
 70
     1
  9
$DIMZIN
 70
     0
  9
$DIMBLK
  1

  9
$DIMASO
 70
     1
  9
$DIMSHO
 70
     1
  9
$DIMPOST
  1

  9
$DIMAPOST
  1

  9
$DIMALT
 70
     0
  9
$DIMALTD
 70
     3
  9
$DIMALTF
 40
0.0393700787
  9
$DIMLFAC
 40
1.0
  9
$DIMTOFL
 70
     1
  9
$DIMTVP
 40
0.0
  9
$DIMTIX
 70
     0
  9
$DIMSOXD
 70
     0
  9
$DIMSAH
 70
     0
  9
$DIMBLK1
  1

  9
$DIMBLK2
  1

  9
$DIMSTYLE
  2
ISO-25
  9
$DIMCLRD
 70
     0
  9
$DIMCLRE
 70
     0
  9
$DIMCLRT
 70
     0
  9
$DIMTFAC
 40
1.0
  9
$DIMGAP
 40
1.524
  9
$DIMJUST
 70
     0
  9
$DIMSD1
 70
     0
  9
$DIMSD2
 70
     0
  9
$DIMTOLJ
 70
     0
  9
$DIMTZIN
 70
     0
  9
$DIMALTZ
 70
     0
  9
$DIMALTTZ
 70
     0
  9
$DIMUPT
 70
     0
  9
$DIMDEC
 70
     2
  9
$DIMTDEC
 70
     2
  9
$DIMALTU
 70
     2
  9
$DIMALTTD
 70
     3
  9
$DIMTXSTY
  7
STANDARD
  9
$DIMAUNIT
 70
     0
  9
$DIMADEC
 70
     0
  9
$DIMALTRND
 40
0.0
  9
$DIMAZIN
 70
     0
  9
$DIMDSEP
 70
    46
  9
$DIMATFIT
 70
     3
  9
$DIMFRAC
 70
     0
  9
$DIMLDRBLK
  1

  9
$DIMLUNIT
 70
     2
  9
$DIMLWD
 70
    -2
  9
$DIMLWE
 70
    -2
  9
$DIMTMOVE
 70
     0
  9
$DIMFXL
 40
1.0
  9
$DIMFXLON
 70
     0
  9
$DIMJOGANG
 40
0.7853981633974483
  9
$DIMTFILL
 70
     0
  9
$DIMTFILLCLR
 70
     0
  9
$DIMARCSYM
 70
     0
  9
$DIMLTYPE
  6

  9
$DIMLTEX1
  6

  9
$DIMLTEX2
  6

  9
$DIMTXTDIRECTION
 70
     0
  9
$LUNITS
 70
     2
  9
$LUPREC
 70
     2
  9
$SKETCHINC
 40
1.0
  9
$FILLETRAD
 40
10.0
  9
$AUNITS
 70
     0
  9
$AUPREC
 70
     2
  9
$MENU
  1
.
  9
$ELEVATION
 40
0.0
  9
$PELEVATION
 40
0.0
  9
$THICKNESS
 40
0.0
  9
$LIMCHECK
 70
     0
  9
$CHAMFERA
 40
0.0
  9
$CHAMFERB
 40
0.0
  9
$CHAMFERC
 40
0.0
  9
$CHAMFERD
 40
0.0
  9
$SKPOLY
 70
     0
  9
$TDCREATE
 40
2457711.397066366
  9
$TDUCREATE
 40
2457711.022066366
  9
$TDUPDATE
 40
2458179.466050752
  9
$TDUUPDATE
 40
2458179.091050752
  9
$TDINDWG
 40
0.2374924421
  9
$TDUSRTIMER
 40
2458179.091019873
  9
$USRTIMER
 70
     1
  9
$ANGBASE
 50
0.0
  9
$ANGDIR
 70
     0
  9
$PDMODE
 70
     0
  9
$PDSIZE
 40
-1.0
  9
$PLINEWID
 40
0.0
  9
$SPLFRAME
 70
     0
  9
$SPLINETYPE
 70
     6
  9
$SPLINESEGS
 70
     8
  9
$HANDSEED
  5
EB09
  9
$SURFTAB1
 70
     6
  9
$SURFTAB2
 70
     6
  9
$SURFTYPE
 70
     6
  9
$SURFU
 70
     6
  9
$SURFV
 70
     6
  9
$UCSBASE
  2

  9
$UCSNAME
  2

  9
$UCSORG
 10
0.0
 20
0.0
 30
0.0
  9
$UCSXDIR
 10
1.0
 20
0.0
 30
0.0
  9
$UCSYDIR
 10
0.0
 20
1.0
 30
0.0
  9
$UCSORTHOREF
  2

  9
$UCSORTHOVIEW
 70
     0
  9
$UCSORGTOP
 10
0.0
 20
0.0
 30
0.0
  9
$UCSORGBOTTOM
 10
0.0
 20
0.0
 30
0.0
  9
$UCSORGLEFT
 10
0.0
 20
0.0
 30
0.0
  9
$UCSORGRIGHT
 10
0.0
 20
0.0
 30
0.0
  9
$UCSORGFRONT
 10
0.0
 20
0.0
 30
0.0
  9
$UCSORGBACK
 10
0.0
 20
0.0
 30
0.0
  9
$PUCSBASE
  2

  9
$PUCSNAME
  2

  9
$PUCSORG
 10
0.0
 20
0.0
 30
0.0
  9
$PUCSXDIR
 10
1.0
 20
0.0
 30
0.0
  9
$PUCSYDIR
 10
0.0
 20
1.0
 30
0.0
  9
$PUCSORTHOREF
  2

  9
$PUCSORTHOVIEW
 70
     0
  9
$PUCSORGTOP
 10
0.0
 20
0.0
 30
0.0
  9
$PUCSORGBOTTOM
 10
0.0
 20
0.0
 30
0.0
  9
$PUCSORGLEFT
 10
0.0
 20
0.0
 30
0.0
  9
$PUCSORGRIGHT
 10
0.0
 20
0.0
 30
0.0
  9
$PUCSORGFRONT
 10
0.0
 20
0.0
 30
0.0
  9
$PUCSORGBACK
 10
0.0
 20
0.0
 30
0.0
  9
$USERI1
 70
     0
  9
$USERI2
 70
     0
  9
$USERI3
 70
     0
  9
$USERI4
 70
     0
  9
$USERI5
 70
     0
  9
$USERR1
 40
0.0
  9
$USERR2
 40
0.0
  9
$USERR3
 40
0.0
  9
$USERR4
 40
0.0
  9
$USERR5
 40
0.0
  9
$WORLDVIEW
 70
     1
  9
$SHADEDGE
 70
     3
  9
$SHADEDIF
 70
    70
  9
$TILEMODE
 70
     1
  9
$MAXACTVP
 70
    64
  9
$PINSBASE
 10
0.0
 20
0.0
 30
0.0
  9
$PLIMCHECK
 70
     0
  9
$PEXTMIN
 10
40.5
 20
25.69999999999999
 30
0.0
  9
$PEXTMAX
 10
364.5
 20
231.3
 30
0.0
  9
$PLIMMIN
 10
0.0
 20
0.0
  9
$PLIMMAX
 10
0.0
 20
0.0
  9
$UNITMODE
 70
     0
  9
$VISRETAIN
 70
     1
  9
$PLINEGEN
 70
     0
  9
$PSLTSCALE
 70
     1
  9
$TREEDEPTH
 70
  3020
  9
$CMLSTYLE
  2
STANDARD
  9
$CMLJUST
 70
     0
  9
$CMLSCALE
 40
20.0
  9
$PROXYGRAPHICS
 70
     1
  9
$MEASUREMENT
 70
     1
  9
$CELWEIGHT
370
    -1
  9
$ENDCAPS
280
     0
  9
$JOINSTYLE
280
     0
  9
$LWDISPLAY
290
     0
  9
$INSUNITS
 70
     0
  9
$HYPERLINKBASE
  1

  9
$STYLESHEET
  1

  9
$XEDIT
290
     1
  9
$CEPSNTYPE
380
     0
  9
$PSTYLEMODE
290
     1
  9
$FINGERPRINTGUID
  2
{3041BCE8-1352-4EA5-B6D7-5E72C1FC0D4D}
  9
$VERSIONGUID
  2
{FAEB1C32-E019-11D5-929B-00C0DF256EC4}
  9
$EXTNAMES
290
     1
  9
$PSVPSCALE
 40
0.0
  9
$OLESTARTUP
290
     0
  9
$SORTENTS
280
   127
  9
$INDEXCTL
280
     0
  9
$HIDETEXT
280
     1
  9
$XCLIPFRAME
280
     2
  9
$HALOGAP
280
     0
  9
$OBSCOLOR
 70
   257
  9
$OBSLTYPE
280
     0
  9
$INTERSECTIONDISPLAY
280
     0
  9
$INTERSECTIONCOLOR
 70
   257
  9
$DIMASSOC
280
     2
  9
$PROJECTNAME
  1

  9
$CAMERADISPLAY
290
     0
  9
$LENSLENGTH
 40
50.0
  9
$CAMERAHEIGHT
 40
0.0
  9
$STEPSPERSEC
 40
2.0
  9
$STEPSIZE
 40
6.0
  9
$3DDWFPREC
 40
2.0
  9
$PSOLWIDTH
 40
0.25
  9
$PSOLHEIGHT
 40
4.0
  9
$LOFTANG1
 40
1.570796326794897
  9
$LOFTANG2
 40
1.570796326794897
  9
$LOFTMAG1
 40
0.0
  9
$LOFTMAG2
 40
0.0
  9
$LOFTPARAM
 70
     7
  9
$LOFTNORMALS
280
     1
  9
$LATITUDE
 40
37.795
  9
$LONGITUDE
 40
-122.394
  9
$NORTHDIRECTION
 40
0.0
  9
$TIMEZONE
 70
 -8000
  9
$LIGHTGLYPHDISPLAY
280
     1
  9
$TILEMODELIGHTSYNCH
280
     1
  9
$SOLIDHIST
280
     0
  9
$SHOWHIST
280
     1
  9
$DWFFRAME
280
     2
  9
$DGNFRAME
280
     2
  9
$REALWORLDSCALE
290
     1
  9
$INTERFERECOLOR
 62
   256
  9
$CSHADOW
280
     0
  9
$SHADOWPLANELOCATION
 40
0.0
  0
ENDSEC
  0
SECTION
  2
CLASSES
  0
CLASS
  1
ACDBDICTIONARYWDFLT
  2
AcDbDictionaryWithDefault
  3
ObjectDBX Classes
 90
        0
 91
        5
280
     0
281
     0
  0
CLASS
  1
VISUALSTYLE
  2
AcDbVisualStyle
  3
ObjectDBX Classes
 90
     4095
 91
        5
280
     0
281
     0
  0
CLASS
  1
MATERIAL
  2
AcDbMaterial
  3
ObjectDBX Classes
 90
     1153
 91
        5
280
     0
281
     0
  0
CLASS
  1
SCALE
  2
AcDbScale
  3
ObjectDBX Classes
 90
     1153
 91
        5
280
     0
281
     0
  0
CLASS
  1
TABLESTYLE
  2
AcDbTableStyle
  3
ObjectDBX Classes
 90
     4095
 91
        5
280
     0
281
     0
  0
CLASS
  1
MLEADERSTYLE
  2
AcDbMLeaderStyle
  3
ACDB_MLEADERSTYLE_CLASS
 90
     4095
 91
        5
280
     0
281
     0
  0
CLASS
  1
SUN
  2
AcDbSun
  3
SCENEOE
 90
     1153
 91
        5
280
     0
281
     0
  0
CLASS
  1
ACDBPLACEHOLDER
  2
AcDbPlaceHolder
  3
ObjectDBX Classes
 90
        0
 91
        1
280
     0
281
     0
  0
CLASS
  1
LAYOUT
  2
AcDbLayout
  3
ObjectDBX Classes
 90
        0
 91
        1
280
     0
281
     0
  0
CLASS
  1
RASTERVARIABLES
  2
AcDbRasterVariables
  3
ISM
 90
        0
 91
        5
280
     0
281
     0
  0
CLASS
  1
DIMASSOC
  2
AcDbDimAssoc
  3
"AcDbDimAssoc|Product Desc:     AcDim ARX App For Dimension|Company:          Autodesk, Inc.|WEB Address:      www.autodesk.com"
 90
        0
 91
        5
280
     0
281
     0
  0
CLASS
  1
IMAGE
  2
AcDbRasterImage
  3
ISM
 90
      127
 91
        6
280
     0
281
     1
  0
CLASS
  1
IMAGEDEF
  2
AcDbRasterImageDef
  3
ISM
 90
        0
 91
        5
280
     0
281
     0
  0
CLASS
  1
IMAGEDEF_REACTOR
  2
AcDbRasterImageDefReactor
  3
ISM
 90
        1
 91
        5
280
     0
281
     0
  0
CLASS
  1
DICTIONARYVAR
  2
AcDbDictionaryVar
  3
ObjectDBX Classes
 90
        0
 91
        5
280
     0
281
     0
  0
CLASS
  1
ACDB_ALDIMOBJECTCONTEXTDATA_CLASS
  2
AcDbAlignedDimensionObjectContextData
  3
ObjectDBX Classes
 90
     1153
 91
        5
280
     0
281
     0
  0
CLASS
  1
LARGE_RADIAL_DIMENSION
  2
AcDbRadialDimensionLarge
  3
ObjectDBX Classes
 90
     1025
 91
        5
280
     0
281
     1
  0
CLASS
  1
XRECORD
  2
AcDbXrecord
  3
ObjectDBX Classes
 90
        0
 91
        1
280
     0
281
     0
  0
CLASS
  1
LWPOLYLINE
  2
AcDbPolyline
  3
ObjectDBX Classes
 90
        0
 91
        1
280
     0
281
     1
  0
CLASS
  1
HATCH
  2
AcDbHatch
  3
ObjectDBX Classes
 90
        0
 91
        1
280
     0
281
     1
  0
CLASS
  1
CELLSTYLEMAP
  2
AcDbCellStyleMap
  3
ObjectDBX Classes
 90
     1152
 91
        5
280
     0
281
     0
  0
ENDSEC
  0
SECTION
  2
TABLES
  0
TABLE
  2
VPORT
  5
8
330
0
100
AcDbSymbolTable
 70
     1
  0
VPORT
  5
29
330
8
100
AcDbSymbolTableRecord
100
AcDbViewportTableRecord
  2
*ACTIVE
 70
     0
 10
0.0
 20
0.0
 11
1.0
 21
1.0
 12
337.8718641173028
 22
451.3562251272333
 13
0.0
 23
0.0
 14
10.0
 24
10.0
 15
10.0
 25
10.0
 16
0.0
 26
0.0
 36
1.0
 17
0.0
 27
0.0
 37
0.0
 40
310.8278924507255
 41
2.258992805755396
 42
50.0
 43
0.0
 44
0.0
 50
0.0
 51
0.0
 71
    16
 72
  2000
 73
     1
 74
     3
 75
     0
 76
     0
 77
     0
 78
     0
281
     0
 65
     1
110
0.0
120
0.0
130
0.0
111
1.0
121
0.0
131
0.0
112
0.0
122
1.0
132
0.0
 79
     0
146
0.0
348
E201
 60
     3
 61
     5
292
     1
282
     1
141
0.0
142
0.0
 63
   256
361
E245
  0
ENDTAB
  0
TABLE
  2
LTYPE
  5
5
330
0
100
AcDbSymbolTable
 70
     4
  0
LTYPE
  5
14
330
5
100
AcDbSymbolTableRecord
100
AcDbLinetypeTableRecord
  2
BYBLOCK
 70
     0
  3

 72
    65
 73
     0
 40
0.0
  0
LTYPE
  5
15
330
5
100
AcDbSymbolTableRecord
100
AcDbLinetypeTableRecord
  2
BYLAYER
 70
     0
  3
Solid line
 72
    65
 73
     0
 40
0.0
  0
LTYPE
  5
16
330
5
100
AcDbSymbolTableRecord
100
AcDbLinetypeTableRecord
  2
CONTINUOUS
 70
     0
  3
Solid line
 72
    65
 73
     0
 40
0.0
  0
LTYPE
  5
6E
330
5
100
AcDbSymbolTableRecord
100
AcDbLinetypeTableRecord
  2
HIDDEN
 70
     0
  3
Hidden __ __ __ __ __ __ __ __ __ __ __ __ __ __
 72
    65
 73
     2
 40
1.905
 49
1.27
 74
     0
 49
-0.635
 74
     0
  0
LTYPE
  5
70
330
5
100
AcDbSymbolTableRecord
100
AcDbLinetypeTableRecord
  2
CENTER
 70
     0
  3
Center ____ _ ____ _ ____ _ ____ _ ____ _ ____
 72
    65
 73
     4
 40
10.16
 49
6.35
 74
     0
 49
-1.27
 74
     0
 49
1.27
 74
     0
 49
-1.27
 74
     0
  0
LTYPE
  5
7ECE
330
5
100
AcDbSymbolTableRecord
100
AcDbLinetypeTableRecord
  2
AI-LINETYPE-6
 70
     0
  3
Adobe Illustrator Linetype No. 6
 72
    65
 73
     2
 40
0.4999997194020327
 49
0.2499998597010164
 74
     0
 49
-0.2499998597010164
 74
     0
  0
ENDTAB
  0
TABLE
  2
LAYER
  5
2
102
{ACAD_XDICTIONARY
360
3488
102
}
330
0
100
AcDbSymbolTable
 70
     3
  0
LAYER
  5
10
330
2
100
AcDbSymbolTableRecord
100
AcDbLayerTableRecord
  2
0
 70
     0
 62
     7
  6
CONTINUOUS
370
    -3
390
E217
347
E240
348
0
  0
LAYER
  5
51A
330
2
100
AcDbSymbolTableRecord
100
AcDbLayerTableRecord
  2
DEFPOINTS
 70
     0
 62
     7
  6
CONTINUOUS
290
     0
370
    -3
390
E217
347
E240
348
0
  0
LAYER
  5
EAF4
330
2
100
AcDbSymbolTableRecord
100
AcDbLayerTableRecord
  2
図枠
 70
     0
 62
     7
  6
CONTINUOUS
370
    -3
390
E217
347
E240
348
0
1001
ACAECLAYERSTANDARD
1000

1000

  0
ENDTAB
  0
TABLE
  2
STYLE
  5
3
330
0
100
AcDbSymbolTable
 70
     6
  0
STYLE
  5
11
330
3
100
AcDbSymbolTableRecord
100
AcDbTextStyleTableRecord
  2
STANDARD
 70
     0
 40
0.0
 41
1.0
 50
0.0
 71
     0
 42
3.5
  3
msgothic.ttc
  4

1001
ACAD
1000
MS PGothic
1071
        0
  0
STYLE
  5
33F
330
3
100
AcDbSymbolTableRecord
100
AcDbTextStyleTableRecord
  2
SLDTEXTSTYLE0
 70
     0
 40
0.0
 41
0.75
 50
0.0
 71
     0
 42
3.5
  3
TXT
  4
bigfont
  0
STYLE
  5
35D
330
3
100
AcDbSymbolTableRecord
100
AcDbTextStyleTableRecord
  2
SLDTEXTSTYLE1
 70
     0
 40
0.0
 41
0.7
 50
0.0
 71
     0
 42
3.5
  3
TXT
  4
bigfont
  0
STYLE
  5
35F
330
3
100
AcDbSymbolTableRecord
100
AcDbTextStyleTableRecord
  2
SLDTEXTSTYLE2
 70
     0
 40
0.0
 41
0.605
 50
0.0
 71
     0
 42
3.5
  3
TXT
  4
bigfont
  0
STYLE
  5
7784
330
3
100
AcDbSymbolTableRecord
100
AcDbTextStyleTableRecord
  2
MDRAFSTD
 70
     0
 40
0.0
 41
1.0
 50
0.0
 71
     0
 42
3.5
  3
TXT
  4
BIGFONT
  0
STYLE
  5
DEA0
330
3
100
AcDbSymbolTableRecord
100
AcDbTextStyleTableRecord
  2
ＭＳ_Ｐゴシック
 70
     0
 40
0.0
 41
1.0
 50
0.0
 71
     0
 42
3.5
  3
msgothic.ttc
  4
ＭＳ Ｐゴシック
1001
ACAD
1000
ＭＳ Ｐゴシック
1071
        0
  0
ENDTAB
  0
TABLE
  2
VIEW
  5
6
330
0
100
AcDbSymbolTable
 70
     0
  0
ENDTAB
  0
TABLE
  2
UCS
  5
7
330
0
100
AcDbSymbolTable
 70
     0
  0
ENDTAB
  0
TABLE
  2
APPID
  5
9
330
0
100
AcDbSymbolTable
 70
     7
  0
APPID
  5
12
330
9
100
AcDbSymbolTableRecord
100
AcDbRegAppTableRecord
  2
ACAD
 70
     0
  0
APPID
  5
3289
330
9
100
AcDbSymbolTableRecord
100
AcDbRegAppTableRecord
  2
ACAECLAYERSTANDARD
 70
     0
  0
APPID
  5
36A2
330
9
100
AcDbSymbolTableRecord
100
AcDbRegAppTableRecord
  2
ACADANNOTATIVE
 70
     0
  0
APPID
  5
3793
330
9
100
AcDbSymbolTableRecord
100
AcDbRegAppTableRecord
  2
ACAD_DSTYLE_DIMRADIAL_EXTE
 70
     0
  0
APPID
  5
7C89
330
9
100
AcDbSymbolTableRecord
100
AcDbRegAppTableRecord
  2
ACAD_SPLINE_DATA
 70
     0
  0
APPID
  5
7C8A
330
9
100
AcDbSymbolTableRecord
100
AcDbRegAppTableRecord
  2
ACAD_SPLINE_DATA2
 70
     0
  0
APPID
  5
E2CF
330
9
100
AcDbSymbolTableRecord
100
AcDbRegAppTableRecord
  2
PLOTTRANSPARENCY
 70
     0
  0
ENDTAB
  0
TABLE
  2
DIMSTYLE
  5
A
330
0
100
AcDbSymbolTable
 70
     3
100
AcDbDimStyleTable
  0
DIMSTYLE
105
27
102
{ACAD_REACTORS
330
E3A0
330
E3D7
330
E502
330
E554
330
E558
102
}
330
A
100
AcDbSymbolTableRecord
100
AcDbDimStyleTableRecord
  2
ISO-25
 70
     0
 41
2.5
 42
0.625
 43
3.75
 44
1.25
 73
     0
 74
     0
 77
     1
 78
     8
140
2.5
141
2.5
143
0.0393700787
147
0.625
171
     3
172
     1
178
     0
271
     2
272
     2
274
     3
283
     0
284
     8
340
11
  0
DIMSTYLE
105
935
330
A
100
AcDbSymbolTableRecord
100
AcDbDimStyleTableRecord
  2
STANDARD
 70
     0
178
     0
340
11
  0
DIMSTYLE
105
328C
102
{ACAD_REACTORS
330
DE57
330
DE67
330
DE78
330
DE88
330
DEE6
330
DEF6
330
E612
330
E659
102
}
330
A
100
AcDbSymbolTableRecord
100
AcDbDimStyleTableRecord
  2
JIS-1
 70
     0
 41
2.5
 42
0.625
 43
3.75
 44
1.25
 73
     0
 74
     0
 77
     1
 78
     8
140
2.5
141
2.5
143
0.03937007874016
147
0.625
171
     3
172
     1
178
     0
271
     2
272
     2
274
     3
283
     0
284
     8
340
11
341
328E
342
328E
  0
ENDTAB
  0
TABLE
  2
BLOCK_RECORD
  5
1
330
0
100
AcDbSymbolTable
 70
     9
  0
BLOCK_RECORD
  5
1F
330
1
100
AcDbSymbolTableRecord
100
AcDbBlockTableRecord
  2
*MODEL_SPACE
340
E23B
 70
     0
280
     1
281
     0
  0
BLOCK_RECORD
  5
1B
330
1
100
AcDbSymbolTableRecord
100
AcDbBlockTableRecord
  2
*PAPER_SPACE
340
E23C
 70
     0
280
     1
281
     0
  0
BLOCK_RECORD
  5
328E
330
1
100
AcDbSymbolTableRecord
100
AcDbBlockTableRecord
  2
_OPEN
340
0
102
{BLKREFS
331
DE60
331
DE61
331
DE70
331
DE71
331
DE81
331
DE82
331
DE91
331
DE92
331
DEEF
331
DEF0
331
DEFF
331
DF00
331
E619
331
E61A
331
E660
331
E661
102
}
 70
     0
280
     1
281
     0
  0
BLOCK_RECORD
  5
DE5A
330
1
100
AcDbSymbolTableRecord
100
AcDbBlockTableRecord
  2
*D1
340
0
 70
     0
280
     1
281
     0
  0
BLOCK_RECORD
  5
DE6A
330
1
100
AcDbSymbolTableRecord
100
AcDbBlockTableRecord
  2
*D2
340
0
 70
     0
280
     1
281
     0
  0
BLOCK_RECORD
  5
DE7B
330
1
100
AcDbSymbolTableRecord
100
AcDbBlockTableRecord
  2
*D3
340
0
 70
     0
280
     1
281
     0
  0
BLOCK_RECORD
  5
DE8B
330
1
100
AcDbSymbolTableRecord
100
AcDbBlockTableRecord
  2
*D4
340
0
 70
     0
280
     1
281
     0
  0
BLOCK_RECORD
  5
DEE9
330
1
100
AcDbSymbolTableRecord
100
AcDbBlockTableRecord
  2
*D5
340
0
 70
     0
280
     1
281
     0
  0
BLOCK_RECORD
  5
DEF9
330
1
100
AcDbSymbolTableRecord
100
AcDbBlockTableRecord
  2
*D6
340
0
 70
     0
280
     1
281
     0
  0
BLOCK_RECORD
  5
E613
330
1
100
AcDbSymbolTableRecord
100
AcDbBlockTableRecord
  2
*D7
340
0
 70
     0
280
     1
281
     0
  0
BLOCK_RECORD
  5
E65A
330
1
100
AcDbSymbolTableRecord
100
AcDbBlockTableRecord
  2
*D8
340
0
 70
     0
280
     1
281
     0
  0
ENDTAB
  0
ENDSEC
  0
SECTION
  2
BLOCKS
  0
BLOCK
  5
20
330
1F
100
AcDbEntity
  8
0
100
AcDbBlockBegin
  2
*MODEL_SPACE
 70
     0
 10
0.0
 20
0.0
 30
0.0
  3
*MODEL_SPACE
  1

  0
ENDBLK
  5
21
330
1F
100
AcDbEntity
  8
0
100
AcDbBlockEnd
  0
BLOCK
  5
1C
330
1B
100
AcDbEntity
 67
     1
  8
0
100
AcDbBlockBegin
  2
*PAPER_SPACE
 70
     0
 10
0.0
 20
0.0
 30
0.0
  3
*PAPER_SPACE
  1

  0
ENDBLK
  5
1D
330
1B
100
AcDbEntity
 67
     1
  8
0
100
AcDbBlockEnd
  0
BLOCK
  5
328F
330
328E
100
AcDbEntity
  8
0
100
AcDbBlockBegin
  2
_OPEN
 70
     0
 10
0.0
 20
0.0
 30
0.0
  3
_OPEN
  1

  0
LINE
  5
3290
330
328E
100
AcDbEntity
  8
0
  6
ByBlock
 62
     0
100
AcDbLine
 10
-1.0
 20
0.166667
 30
0.0
 11
0.0
 21
0.0
 31
0.0
  0
LINE
  5
3291
330
328E
100
AcDbEntity
  8
0
  6
ByBlock
 62
     0
100
AcDbLine
 10
-1.0
 20
-0.166667
 30
0.0
 11
0.0
 21
0.0
 31
0.0
  0
LINE
  5
3292
330
328E
100
AcDbEntity
  8
0
  6
ByBlock
 62
     0
100
AcDbLine
 10
0.0
 20
0.0
 30
0.0
 11
-1.0
 21
0.0
 31
0.0
  0
ENDBLK
  5
3293
330
328E
100
AcDbEntity
  8
0
100
AcDbBlockEnd
  0
BLOCK
  5
DE5B
330
DE5A
100
AcDbEntity
  8
0
100
AcDbBlockBegin
  2
*D1
 70
     1
 10
0.0
 20
0.0
 30
0.0
  3
*D1
  1

  0
LINE
  5
DE5D
330
DE5A
100
AcDbEntity
  8
0
 62
     0
370
    -2
100
AcDbLine
 10
565.7725464698315
 20
368.1412548751845
 30
0.0
 11
565.7725464698315
 21
317.7790953420104
 31
0.0
  0
LINE
  5
DE5E
330
DE5A
100
AcDbEntity
  8
0
 62
     0
370
    -2
100
AcDbLine
 10
478.7725464698314
 20
368.1412548751845
 30
0.0
 11
478.7725464698314
 21
317.7790953420104
 31
0.0
  0
LINE
  5
DE5F
330
DE5A
100
AcDbEntity
  8
0
 62
     0
370
    -2
100
AcDbLine
 10
560.7725464698315
 20
319.0290953420104
 30
0.0
 11
483.7725464698314
 21
319.0290953420104
 31
0.0
  0
INSERT
  5
DE60
330
DE5A
100
AcDbEntity
  8
0
 62
     0
370
    -2
100
AcDbBlockReference
  2
_OPEN
 10
565.7725464698315
 20
319.0290953420104
 30
0.0
 41
5.0
 42
5.0
 43
5.0
  0
INSERT
  5
DE61
330
DE5A
100
AcDbEntity
  8
0
 62
     0
370
    -2
100
AcDbBlockReference
  2
_OPEN
 10
478.7725464698314
 20
319.0290953420104
 30
0.0
 41
5.0
 42
5.0
 43
5.0
 50
180.0
  0
MTEXT
  5
DE62
330
DE5A
100
AcDbEntity
  8
0
 62
     0
370
     9
100
AcDbMText
 10
522.2725464698315
 20
322.4418453420104
 30
0.0
 40
4.5
 41
0.0
 46
0.0
 71
     5
 72
     1
  1
(87)
 73
     1
 44
1.0
  0
POINT
  5
DE63
330
DE5A
100
AcDbEntity
  8
DEFPOINTS
 62
     0
100
AcDbPoint
 10
565.7725464698315
 20
368.7662548751845
 30
0.0
  0
POINT
  5
DE64
330
DE5A
100
AcDbEntity
  8
DEFPOINTS
 62
     0
100
AcDbPoint
 10
478.7725464698314
 20
368.7662548751845
 30
0.0
  0
POINT
  5
DE65
330
DE5A
100
AcDbEntity
  8
DEFPOINTS
 62
     0
100
AcDbPoint
 10
478.7725464698314
 20
319.0290953420104
 30
0.0
  0
ENDBLK
  5
DE5C
330
DE5A
100
AcDbEntity
  8
0
100
AcDbBlockEnd
  0
BLOCK
  5
DE6B
330
DE6A
100
AcDbEntity
  8
0
100
AcDbBlockBegin
  2
*D2
 70
     1
 10
0.0
 20
0.0
 30
0.0
  3
*D2
  1

  0
LINE
  5
DE6D
330
DE6A
100
AcDbEntity
  8
0
 62
     0
370
    -2
100
AcDbLine
 10
566.3975464698315
 20
368.7662548751845
 30
0.0
 11
605.8281188208075
 21
368.7662548751845
 31
0.0
  0
LINE
  5
DE6E
330
DE6A
100
AcDbEntity
  8
0
 62
     0
370
    -2
100
AcDbLine
 10
566.3975464698315
 20
455.7662548751845
 30
0.0
 11
605.8281188208075
 21
455.7662548751845
 31
0.0
  0
LINE
  5
DE6F
330
DE6A
100
AcDbEntity
  8
0
 62
     0
370
    -2
100
AcDbLine
 10
604.5781188208075
 20
373.7662548751845
 30
0.0
 11
604.5781188208075
 21
450.7662548751845
 31
0.0
  0
INSERT
  5
DE70
330
DE6A
100
AcDbEntity
  8
0
 62
     0
370
    -2
100
AcDbBlockReference
  2
_OPEN
 10
604.5781188208075
 20
368.7662548751845
 30
0.0
 41
5.0
 42
5.0
 43
5.0
 50
270.0
  0
INSERT
  5
DE71
330
DE6A
100
AcDbEntity
  8
0
 62
     0
370
    -2
100
AcDbBlockReference
  2
_OPEN
 10
604.5781188208075
 20
455.7662548751845
 30
0.0
 41
5.0
 42
5.0
 43
5.0
 50
90.0
  0
MTEXT
  5
DE72
330
DE6A
100
AcDbEntity
  8
0
 62
     0
370
     9
100
AcDbMText
 10
601.1653688208075
 20
412.2662548751845
 30
0.0
 40
4.5
 41
0.0
 46
0.0
 71
     5
 72
     1
  1
(87)
 11
0.0
 21
1.0
 31
0.0
 73
     1
 44
1.0
  0
POINT
  5
DE73
330
DE6A
100
AcDbEntity
  8
DEFPOINTS
 62
     0
100
AcDbPoint
 10
565.7725464698315
 20
368.7662548751845
 30
0.0
  0
POINT
  5
DE74
330
DE6A
100
AcDbEntity
  8
DEFPOINTS
 62
     0
100
AcDbPoint
 10
565.7725464698315
 20
455.7662548751845
 30
0.0
  0
POINT
  5
DE75
330
DE6A
100
AcDbEntity
  8
DEFPOINTS
 62
     0
100
AcDbPoint
 10
604.5781188208075
 20
455.7662548751845
 30
0.0
  0
ENDBLK
  5
DE6C
330
DE6A
100
AcDbEntity
  8
0
100
AcDbBlockEnd
  0
BLOCK
  5
DE7C
330
DE7B
100
AcDbEntity
  8
0
100
AcDbBlockBegin
  2
*D3
 70
     1
 10
0.0
 20
0.0
 30
0.0
  3
*D3
  1

  0
LINE
  5
DE7E
330
DE7B
100
AcDbEntity
  8
0
 62
     0
370
    -2
100
AcDbLine
 10
344.7220612753188
 20
453.2662548751844
 30
0.0
 11
334.7190604332458
 21
453.2662548751844
 31
0.0
  0
LINE
  5
DE7F
330
DE7B
100
AcDbEntity
  8
0
 62
     0
370
    -2
100
AcDbLine
 10
343.723677113029
 20
371.2662548751845
 30
0.0
 11
334.7190604332458
 21
371.2662548751845
 31
0.0
  0
LINE
  5
DE80
330
DE7B
100
AcDbEntity
  8
0
 62
     0
370
    -2
100
AcDbLine
 10
335.9690604332458
 20
450.7662548751844
 30
0.0
 11
335.9690604332458
 21
373.7662548751845
 31
0.0
  0
INSERT
  5
DE81
330
DE7B
100
AcDbEntity
  8
0
 62
     0
370
    -2
100
AcDbBlockReference
  2
_OPEN
 10
335.9690604332458
 20
453.2662548751844
 30
0.0
 41
2.5
 42
2.5
 43
2.5
 50
90.0
  0
INSERT
  5
DE82
330
DE7B
100
AcDbEntity
  8
0
 62
     0
370
    -2
100
AcDbBlockReference
  2
_OPEN
 10
335.9690604332458
 20
371.2662548751845
 30
0.0
 41
2.5
 42
2.5
 43
2.5
 50
270.0
  0
MTEXT
  5
DE83
330
DE7B
100
AcDbEntity
  8
0
 62
     0
370
     9
100
AcDbMText
 10
333.0940604332458
 20
412.2662548751845
 30
0.0
 40
4.5
 41
0.0
 46
0.0
 71
     5
 72
     1
  1
82
 11
0.0
 21
1.0
 31
0.0
 73
     1
 44
1.0
  0
POINT
  5
DE84
330
DE7B
100
AcDbEntity
  8
DEFPOINTS
 62
     0
100
AcDbPoint
 10
345.3470612753188
 20
453.2662548751844
 30
0.0
  0
POINT
  5
DE85
330
DE7B
100
AcDbEntity
  8
DEFPOINTS
 62
     0
100
AcDbPoint
 10
344.348677113029
 20
371.2662548751845
 30
0.0
  0
POINT
  5
DE86
330
DE7B
100
AcDbEntity
  8
DEFPOINTS
 62
     0
100
AcDbPoint
 10
335.9690604332458
 20
371.2662548751845
 30
0.0
  0
ENDBLK
  5
DE7D
330
DE7B
100
AcDbEntity
  8
0
100
AcDbBlockEnd
  0
BLOCK
  5
DE8C
330
DE8B
100
AcDbEntity
  8
0
100
AcDbBlockBegin
  2
*D4
 70
     1
 10
0.0
 20
0.0
 30
0.0
  3
*D4
  1

  0
LINE
  5
DE8E
330
DE8B
100
AcDbEntity
  8
0
 62
     0
370
    -2
100
AcDbLine
 10
344.7220612753188
 20
453.2662548751844
 30
0.0
 11
325.8586537068853
 21
453.2662548751844
 31
0.0
  0
LINE
  5
DE8F
330
DE8B
100
AcDbEntity
  8
0
 62
     0
370
    -2
100
AcDbLine
 10
413.1940655690225
 20
368.0490524562839
 30
0.0
 11
325.8586537068853
 21
368.0490524562839
 31
0.0
  0
LINE
  5
DE90
330
DE8B
100
AcDbEntity
  8
0
 62
     0
370
    -2
100
AcDbLine
 10
327.1086537068853
 20
450.7662548751844
 30
0.0
 11
327.1086537068853
 21
370.5490524562839
 31
0.0
  0
INSERT
  5
DE91
330
DE8B
100
AcDbEntity
  8
0
 62
     0
370
    -2
100
AcDbBlockReference
  2
_OPEN
 10
327.1086537068853
 20
453.2662548751844
 30
0.0
 41
2.5
 42
2.5
 43
2.5
 50
90.0
  0
INSERT
  5
DE92
330
DE8B
100
AcDbEntity
  8
0
 62
     0
370
    -2
100
AcDbBlockReference
  2
_OPEN
 10
327.1086537068853
 20
368.0490524562839
 30
0.0
 41
2.5
 42
2.5
 43
2.5
 50
270.0
  0
MTEXT
  5
DE93
330
DE8B
100
AcDbEntity
  8
0
 62
     0
370
     9
100
AcDbMText
 10
324.2336537068853
 20
410.6576536657342
 30
0.0
 40
4.5
 41
0.0
 46
0.0
 71
     5
 72
     1
  1
85
 11
0.0
 21
1.0
 31
0.0
 73
     1
 44
1.0
  0
POINT
  5
DE94
330
DE8B
100
AcDbEntity
  8
DEFPOINTS
 62
     0
100
AcDbPoint
 10
345.3470612753188
 20
453.2662548751844
 30
0.0
  0
POINT
  5
DE95
330
DE8B
100
AcDbEntity
  8
DEFPOINTS
 62
     0
100
AcDbPoint
 10
413.8190655690225
 20
368.0490524562839
 30
0.0
  0
POINT
  5
DE96
330
DE8B
100
AcDbEntity
  8
DEFPOINTS
 62
     0
100
AcDbPoint
 10
327.1086537068853
 20
368.0490524562839
 30
0.0
  0
ENDBLK
  5
DE8D
330
DE8B
100
AcDbEntity
  8
0
100
AcDbBlockEnd
  0
BLOCK
  5
DEEA
330
DEE9
100
AcDbEntity
  8
0
100
AcDbBlockBegin
  2
*D5
 70
     1
 10
0.0
 20
0.0
 30
0.0
  3
*D5
  1

  0
LINE
  5
DEEC
330
DEE9
100
AcDbEntity
  8
0
 62
     0
370
    -2
100
AcDbLine
 10
343.7242033922095
 20
230.120661158325
 30
0.0
 11
325.8586537068853
 21
230.120661158325
 31
0.0
  0
LINE
  5
DEED
330
DEE9
100
AcDbEntity
  8
0
 62
     0
370
    -2
100
AcDbLine
 10
343.7242033922095
 20
312.120661158325
 30
0.0
 11
325.8586537068853
 21
312.120661158325
 31
0.0
  0
LINE
  5
DEEE
330
DEE9
100
AcDbEntity
  8
0
 62
     0
370
    -2
100
AcDbLine
 10
327.1086537068853
 20
235.120661158325
 30
0.0
 11
327.1086537068853
 21
307.120661158325
 31
0.0
  0
INSERT
  5
DEEF
330
DEE9
100
AcDbEntity
  8
0
 62
     0
370
    -2
100
AcDbBlockReference
  2
_OPEN
 10
327.1086537068853
 20
230.120661158325
 30
0.0
 41
5.0
 42
5.0
 43
5.0
 50
270.0
  0
INSERT
  5
DEF0
330
DEE9
100
AcDbEntity
  8
0
 62
     0
370
    -2
100
AcDbBlockReference
  2
_OPEN
 10
327.1086537068853
 20
312.120661158325
 30
0.0
 41
5.0
 42
5.0
 43
5.0
 50
90.0
  0
MTEXT
  5
DEF1
330
DEE9
100
AcDbEntity
  8
0
 62
     0
370
     9
100
AcDbMText
 10
324.2336537068853
 20
271.120661158325
 30
0.0
 40
4.5
 41
0.0
 46
0.0
 71
     5
 72
     1
  1
82
 11
0.0
 21
1.0
 31
0.0
 73
     1
 44
1.0
  0
POINT
  5
DEF2
330
DEE9
100
AcDbEntity
  8
DEFPOINTS
 62
     0
100
AcDbPoint
 10
344.3492033922095
 20
230.120661158325
 30
0.0
  0
POINT
  5
DEF3
330
DEE9
100
AcDbEntity
  8
DEFPOINTS
 62
     0
100
AcDbPoint
 10
344.3492033922095
 20
312.120661158325
 30
0.0
  0
POINT
  5
DEF4
330
DEE9
100
AcDbEntity
  8
DEFPOINTS
 62
     0
100
AcDbPoint
 10
327.1086537068853
 20
312.120661158325
 30
0.0
  0
ENDBLK
  5
DEEB
330
DEE9
100
AcDbEntity
  8
0
100
AcDbBlockEnd
  0
BLOCK
  5
DEFA
330
DEF9
100
AcDbEntity
  8
0
100
AcDbBlockBegin
  2
*D6
 70
     1
 10
0.0
 20
0.0
 30
0.0
  3
*D6
  1

  0
LINE
  5
DEFC
330
DEF9
100
AcDbEntity
  8
0
 62
     0
370
    -2
100
AcDbLine
 10
344.3492033922095
 20
229.495661158325
 30
0.0
 11
344.3492033922095
 21
215.6388814838844
 31
0.0
  0
LINE
  5
DEFD
330
DEF9
100
AcDbEntity
  8
0
 62
     0
370
    -2
100
AcDbLine
 10
426.3486771130291
 20
226.995661158325
 30
0.0
 11
426.3486771130291
 21
215.6388814838844
 31
0.0
  0
LINE
  5
DEFE
330
DEF9
100
AcDbEntity
  8
0
 62
     0
370
    -2
100
AcDbLine
 10
349.3492033922095
 20
216.8888814838844
 30
0.0
 11
421.3486771130291
 21
216.8888814838844
 31
0.0
  0
INSERT
  5
DEFF
330
DEF9
100
AcDbEntity
  8
0
 62
     0
370
    -2
100
AcDbBlockReference
  2
_OPEN
 10
344.3492033922095
 20
216.8888814838844
 30
0.0
 41
5.0
 42
5.0
 43
5.0
 50
180.0
  0
INSERT
  5
DF00
330
DEF9
100
AcDbEntity
  8
0
 62
     0
370
    -2
100
AcDbBlockReference
  2
_OPEN
 10
426.3486771130291
 20
216.8888814838844
 30
0.0
 41
5.0
 42
5.0
 43
5.0
  0
MTEXT
  5
DF01
330
DEF9
100
AcDbEntity
  8
0
 62
     0
370
     9
100
AcDbMText
 10
385.3489402526193
 20
219.7638814838844
 30
0.0
 40
4.5
 41
0.0
 46
0.0
 71
     5
 72
     1
  1
82
 73
     1
 44
1.0
  0
POINT
  5
DF02
330
DEF9
100
AcDbEntity
  8
DEFPOINTS
 62
     0
100
AcDbPoint
 10
344.3492033922095
 20
230.120661158325
 30
0.0
  0
POINT
  5
DF03
330
DEF9
100
AcDbEntity
  8
DEFPOINTS
 62
     0
100
AcDbPoint
 10
426.3486771130291
 20
227.620661158325
 30
0.0
  0
POINT
  5
DF04
330
DEF9
100
AcDbEntity
  8
DEFPOINTS
 62
     0
100
AcDbPoint
 10
426.3486771130291
 20
216.8888814838844
 30
0.0
  0
ENDBLK
  5
DEFB
330
DEF9
100
AcDbEntity
  8
0
100
AcDbBlockEnd
  0
BLOCK
  5
E614
330
E613
100
AcDbEntity
  8
0
100
AcDbBlockBegin
  2
*D7
 70
     1
 10
0.0
 20
0.0
 30
0.0
  3
*D7
  1

  0
LINE
  5
E616
330
E613
100
AcDbEntity
  8
0
 62
     0
370
    -2
100
AcDbLine
 10
522.2933892975174
 20
364.366979854255
 30
0.0
 11
522.2933892975174
 21
339.6238290144946
 31
0.0
  0
LINE
  5
E617
330
E613
100
AcDbEntity
  8
0
 62
     0
370
    -2
100
AcDbLine
 10
497.2937338070657
 20
406.1742493242996
 30
0.0
 11
497.2937338070657
 21
339.6238290144946
 31
0.0
  0
LINE
  5
E618
330
E613
100
AcDbEntity
  8
0
 62
     0
370
    -2
100
AcDbLine
 10
517.2933892975174
 20
340.8738290144946
 30
0.0
 11
502.2937338070657
 21
340.8738290144946
 31
0.0
  0
INSERT
  5
E619
330
E613
100
AcDbEntity
  8
0
 62
     0
370
    -2
100
AcDbBlockReference
  2
_OPEN
 10
522.2933892975174
 20
340.8738290144946
 30
0.0
 41
5.0
 42
5.0
 43
5.0
  0
INSERT
  5
E61A
330
E613
100
AcDbEntity
  8
0
 62
     0
370
    -2
100
AcDbBlockReference
  2
_OPEN
 10
497.2937338070657
 20
340.8738290144946
 30
0.0
 41
5.0
 42
5.0
 43
5.0
 50
180.0
  0
MTEXT
  5
E61B
330
E613
100
AcDbEntity
  8
0
 62
     0
370
     9
100
AcDbMText
 10
509.7935615522915
 20
343.7488290144946
 30
0.0
 40
4.5
 41
0.0
 46
0.0
 71
     5
 72
     1
  1
25
 73
     1
 44
1.0
  0
POINT
  5
E61C
330
E613
100
AcDbEntity
  8
DEFPOINTS
 62
     0
100
AcDbPoint
 10
522.2933892975174
 20
364.991979854255
 30
0.0
  0
POINT
  5
E61D
330
E613
100
AcDbEntity
  8
DEFPOINTS
 62
     0
100
AcDbPoint
 10
497.2937338070657
 20
406.7992493242996
 30
0.0
  0
POINT
  5
E61E
330
E613
100
AcDbEntity
  8
DEFPOINTS
 62
     0
100
AcDbPoint
 10
497.2937338070657
 20
340.8738290144946
 30
0.0
  0
ENDBLK
  5
E615
330
E613
100
AcDbEntity
  8
0
100
AcDbBlockEnd
  0
BLOCK
  5
E65B
330
E65A
100
AcDbEntity
  8
0
100
AcDbBlockBegin
  2
*D8
 70
     1
 10
0.0
 20
0.0
 30
0.0
  3
*D8
  1

  0
LINE
  5
E65D
330
E65A
100
AcDbEntity
  8
0
 62
     0
370
    -2
100
AcDbLine
 10
547.2937338070657
 20
406.1742493242996
 30
0.0
 11
547.2937338070657
 21
339.6238290144946
 31
0.0
  0
LINE
  5
E65E
330
E65A
100
AcDbEntity
  8
0
 62
     0
370
    -2
100
AcDbLine
 10
522.2933892975174
 20
363.741979854255
 30
0.0
 11
522.2933892975174
 21
339.6238290144946
 31
0.0
  0
LINE
  5
E65F
330
E65A
100
AcDbEntity
  8
0
 62
     0
370
    -2
100
AcDbLine
 10
542.2937338070657
 20
340.8738290144946
 30
0.0
 11
527.2933892975174
 21
340.8738290144946
 31
0.0
  0
INSERT
  5
E660
330
E65A
100
AcDbEntity
  8
0
 62
     0
370
    -2
100
AcDbBlockReference
  2
_OPEN
 10
547.2937338070657
 20
340.8738290144946
 30
0.0
 41
5.0
 42
5.0
 43
5.0
  0
INSERT
  5
E661
330
E65A
100
AcDbEntity
  8
0
 62
     0
370
    -2
100
AcDbBlockReference
  2
_OPEN
 10
522.2933892975174
 20
340.8738290144946
 30
0.0
 41
5.0
 42
5.0
 43
5.0
 50
180.0
  0
MTEXT
  5
E662
330
E65A
100
AcDbEntity
  8
0
 62
     0
370
     9
100
AcDbMText
 10
534.7935615522915
 20
343.7488290144946
 30
0.0
 40
4.5
 41
0.0
 46
0.0
 71
     5
 72
     1
  1
25
 73
     1
 44
1.0
  0
POINT
  5
E663
330
E65A
100
AcDbEntity
  8
DEFPOINTS
 62
     0
100
AcDbPoint
 10
547.2937338070657
 20
406.7992493242996
 30
0.0
  0
POINT
  5
E664
330
E65A
100
AcDbEntity
  8
DEFPOINTS
 62
     0
100
AcDbPoint
 10
522.2933892975174
 20
364.366979854255
 30
0.0
  0
POINT
  5
E665
330
E65A
100
AcDbEntity
  8
DEFPOINTS
 62
     0
100
AcDbPoint
 10
522.2933892975174
 20
340.8738290144946
 30
0.0
  0
ENDBLK
  5
E65C
330
E65A
100
AcDbEntity
  8
0
100
AcDbBlockEnd
  0
ENDSEC
  0
SECTION
  2
ENTITIES
  0
LINE
  5
34AF
330
1F
100
AcDbEntity
  8
図枠
100
AcDbLine
 10
820.0
 20
574.0
 30
0.0
 11
820.0
 21
20.0
 31
0.0
  0
LINE
  5
34B1
330
1F
100
AcDbEntity
  8
図枠
100
AcDbLine
 10
820.0
 20
142.8366078968
 30
0.0
 11
20.0
 21
142.8366078968
 31
0.0
  0
LINE
  5
34B3
330
1F
100
AcDbEntity
  8
図枠
  6
Continuous
100
AcDbLine
 10
840.0
 20
297.0
 30
0.0
 11
810.0
 21
297.0
 31
0.0
  0
LINE
  5
34B4
330
1F
100
AcDbEntity
  8
図枠
100
AcDbLine
 10
20.0
 20
20.0
 30
0.0
 11
820.0
 21
20.0
 31
0.0
  0
LINE
  5
34B6
330
1F
100
AcDbEntity
  8
図枠
  6
Continuous
100
AcDbLine
 10
120.0
 20
574.0
 30
0.0
 11
120.0
 21
594.0
 31
0.0
  0
LINE
  5
34B7
330
1F
100
AcDbEntity
  8
図枠
  6
Continuous
100
AcDbLine
 10
120.0
 20
20.0
 30
0.0
 11
120.0
 21
0.0
 31
0.0
  0
LINE
  5
34B8
330
1F
100
AcDbEntity
  8
図枠
  6
Continuous
100
AcDbLine
 10
220.0
 20
574.0
 30
0.0
 11
220.0
 21
594.0
 31
0.0
  0
LINE
  5
34B9
330
1F
100
AcDbEntity
  8
図枠
  6
Continuous
100
AcDbLine
 10
220.0
 20
20.0
 30
0.0
 11
220.0
 21
0.0
 31
0.0
  0
LINE
  5
34BA
330
1F
100
AcDbEntity
  8
図枠
  6
Continuous
100
AcDbLine
 10
320.0
 20
574.0
 30
0.0
 11
320.0
 21
594.0
 31
0.0
  0
LINE
  5
34BB
330
1F
100
AcDbEntity
  8
図枠
  6
Continuous
100
AcDbLine
 10
320.0
 20
20.0
 30
0.0
 11
320.0
 21
0.0
 31
0.0
  0
LINE
  5
34CA
330
1F
100
AcDbEntity
  8
図枠
100
AcDbLine
 10
820.0
 20
52.9642255048
 30
0.0
 11
520.0
 21
52.9642255048
 31
0.0
  0
LINE
  5
34CB
330
1F
100
AcDbEntity
  8
図枠
100
AcDbLine
 10
666.074393588
 20
20.0
 30
0.0
 11
666.074393588
 21
142.8366078968
 31
0.0
  0
LINE
  5
34D6
330
1F
100
AcDbEntity
  8
図枠
  6
Continuous
100
AcDbLine
 10
420.0
 20
564.0
 30
0.0
 11
420.0
 21
594.0
 31
0.0
  0
LINE
  5
34D7
330
1F
100
AcDbEntity
  8
図枠
  6
Continuous
100
AcDbLine
 10
420.0
 20
20.0
 30
0.0
 11
420.0
 21
0.0
 31
0.0
  0
LINE
  5
34D8
330
1F
100
AcDbEntity
  8
図枠
100
AcDbLine
 10
820.0
 20
574.0
 30
0.0
 11
20.0
 21
574.0
 31
0.0
  0
LINE
  5
34D9
330
1F
100
AcDbEntity
  8
図枠
  6
Continuous
100
AcDbLine
 10
520.0
 20
574.0
 30
0.0
 11
520.0
 21
594.0
 31
0.0
  0
LINE
  5
34DA
330
1F
100
AcDbEntity
  8
図枠
100
AcDbLine
 10
20.0
 20
574.0
 30
0.0
 11
20.0
 21
20.0
 31
0.0
  0
LINE
  5
34DB
330
1F
100
AcDbEntity
  8
図枠
  6
Continuous
100
AcDbLine
 10
520.0
 20
20.0
 30
0.0
 11
520.0
 21
0.0
 31
0.0
  0
LINE
  5
34DC
330
1F
100
AcDbEntity
  8
図枠
  6
Continuous
100
AcDbLine
 10
620.0
 20
574.0
 30
0.0
 11
620.0
 21
594.0
 31
0.0
  0
LINE
  5
34DD
330
1F
100
AcDbEntity
  8
図枠
  6
Continuous
100
AcDbLine
 10
619.9975708898
 20
20.0
 30
0.0
 11
619.9975708898
 21
0.0
 31
0.0
  0
LINE
  5
34DE
330
1F
100
AcDbEntity
  8
図枠
  6
Continuous
100
AcDbLine
 10
720.0
 20
574.0
 30
0.0
 11
720.0
 21
594.0
 31
0.0
  0
LINE
  5
34DF
330
1F
100
AcDbEntity
  8
図枠
  6
Continuous
100
AcDbLine
 10
720.007830357
 20
20.0
 30
0.0
 11
720.007830357
 21
0.0
 31
0.0
  0
LINE
  5
34E0
330
1F
100
AcDbEntity
  8
図枠
  6
Continuous
100
AcDbLine
 10
820.0
 20
497.0
 30
0.0
 11
840.0
 21
497.0
 31
0.0
  0
LINE
  5
34E1
330
1F
100
AcDbEntity
  8
図枠
  6
Continuous
100
AcDbLine
 10
20.0
 20
497.0
 30
0.0
 11
0.0
 21
497.0
 31
0.0
  0
LINE
  5
34E2
330
1F
100
AcDbEntity
  8
図枠
  6
Continuous
100
AcDbLine
 10
820.0
 20
397.0
 30
0.0
 11
840.0
 21
397.0
 31
0.0
  0
LINE
  5
34E3
330
1F
100
AcDbEntity
  8
図枠
  6
Continuous
100
AcDbLine
 10
20.0
 20
397.0
 30
0.0
 11
0.0
 21
397.0
 31
0.0
  0
LINE
  5
34E5
330
1F
100
AcDbEntity
  8
図枠
  6
Continuous
100
AcDbLine
 10
30.0
 20
297.0
 30
0.0
 11
0.0
 21
297.0
 31
0.0
  0
LINE
  5
34E6
330
1F
100
AcDbEntity
  8
図枠
  6
Continuous
100
AcDbLine
 10
820.0
 20
197.0
 30
0.0
 11
840.0
 21
197.0
 31
0.0
  0
LINE
  5
34E7
330
1F
100
AcDbEntity
  8
図枠
  6
Continuous
100
AcDbLine
 10
20.0
 20
197.0
 30
0.0
 11
0.0
 21
197.0
 31
0.0
  0
LINE
  5
34EA
330
1F
100
AcDbEntity
  8
図枠
  6
Continuous
100
AcDbLine
 10
820.0
 20
97.0
 30
0.0
 11
840.0
 21
97.0
 31
0.0
  0
LINE
  5
34EB
330
1F
100
AcDbEntity
  8
図枠
  6
Continuous
100
AcDbLine
 10
20.0
 20
97.0
 30
0.0
 11
0.0
 21
97.0
 31
0.0
  0
LINE
  5
3573
330
1F
100
AcDbEntity
  8
図枠
100
AcDbLine
 10
785.5258498224
 20
20.0
 30
0.0
 11
785.511645079
 21
52.9642255048
 31
0.0
  0
LINE
  5
3574
330
1F
100
AcDbEntity
  8
図枠
100
AcDbLine
 10
666.074393588
 20
128.779440475
 30
0.0
 11
820.0
 21
128.779440475
 31
0.0
  0
LINE
  5
3575
330
1F
100
AcDbEntity
  8
図枠
100
AcDbLine
 10
520.0
 20
20.0
 30
0.0
 11
520.0
 21
142.8366078968
 31
0.0
  0
LINE
  5
3576
330
1F
100
AcDbEntity
  8
図枠
100
AcDbLine
 10
666.074393588
 20
128.779440475
 30
0.0
 11
520.0
 21
128.779440475
 31
0.0
  0
LINE
  5
3578
330
1F
100
AcDbEntity
  8
図枠
100
AcDbLine
 10
666.074393588
 20
38.9315376644
 30
0.0
 11
520.0
 21
38.9315376644
 31
0.0
  0
LINE
  5
3579
330
1F
100
AcDbEntity
  8
図枠
100
AcDbLine
 10
599.1843459266
 20
20.0
 30
0.0
 11
599.1701411832
 21
52.9642255048
 31
0.0
  0
LINE
  5
357A
330
1F
100
AcDbEntity
  8
図枠
100
AcDbLine
 10
420.0
 20
20.0
 30
0.0
 11
420.0
 21
142.8366078968
 31
0.0
  0
LINE
  5
357B
330
1F
100
AcDbEntity
  8
図枠
100
AcDbLine
 10
520.0
 20
128.779440475
 30
0.0
 11
420.0
 21
128.779440475
 31
0.0
  0
LINE
  5
357C
330
1F
100
AcDbEntity
  8
図枠
  6
Continuous
100
AcDbLine
 10
455.3554732566
 20
128.779440475
 30
0.0
 11
455.3554732566
 21
20.0
 31
0.0
  0
LINE
  5
357D
330
1F
100
AcDbEntity
  8
図枠
100
AcDbLine
 10
420.0
 20
47.894261342
 30
0.0
 11
520.0
 21
47.894261342
 31
0.0
  0
LINE
  5
357E
330
1F
100
AcDbEntity
  8
図枠
100
AcDbLine
 10
420.0
 20
101.4267375598
 30
0.0
 11
520.0
 21
101.4267375598
 31
0.0
  0
LINE
  5
357F
330
1F
100
AcDbEntity
  8
図枠
100
AcDbLine
 10
520.0
 20
74.9612436994
 30
0.0
 11
420.0
 21
74.9612436994
 31
0.0
  0
LINE
  5
3580
330
1F
100
AcDbEntity
  8
図枠
100
AcDbLine
 10
520.0
 20
33.912476965
 30
0.0
 11
420.0
 21
33.912476965
 31
0.0
  0
LINE
  5
3581
330
1F
100
AcDbEntity
  8
図枠
100
AcDbLine
 10
420.0
 20
33.912476965
 30
0.0
 11
20.0
 21
33.912476965
 31
0.0
  0
LINE
  5
3582
330
1F
100
AcDbEntity
  8
図枠
100
AcDbLine
 10
420.0
 20
47.894261342
 30
0.0
 11
20.0
 21
47.894261342
 31
0.0
  0
LINE
  5
3583
330
1F
100
AcDbEntity
  8
図枠
100
AcDbLine
 10
420.0
 20
60.9698998614
 30
0.0
 11
20.0
 21
60.9698998614
 31
0.0
  0
LINE
  5
3584
330
1F
100
AcDbEntity
  8
図枠
100
AcDbLine
 10
420.0
 20
74.9612436994
 30
0.0
 11
20.0
 21
74.9612436994
 31
0.0
  0
LINE
  5
3585
330
1F
100
AcDbEntity
  8
図枠
100
AcDbLine
 10
420.0
 20
87.8684728856
 30
0.0
 11
20.0
 21
87.8684728856
 31
0.0
  0
LINE
  5
3586
330
1F
100
AcDbEntity
  8
図枠
100
AcDbLine
 10
420.0
 20
101.4267375598
 30
0.0
 11
20.0
 21
101.4267375598
 31
0.0
  0
LINE
  5
3587
330
1F
100
AcDbEntity
  8
図枠
100
AcDbLine
 10
420.0
 20
115.8624614838
 30
0.0
 11
20.0
 21
115.8624614838
 31
0.0
  0
LINE
  5
3588
330
1F
100
AcDbEntity
  8
図枠
100
AcDbLine
 10
420.0
 20
128.779440475
 30
0.0
 11
20.0
 21
128.779440475
 31
0.0
  0
LINE
  5
3589
330
1F
100
AcDbEntity
  8
図枠
100
AcDbLine
 10
43.5124372312
 20
20.0
 30
0.0
 11
43.5124372312
 21
142.8366078968
 31
0.0
  0
LINE
  5
358A
330
1F
100
AcDbEntity
  8
図枠
100
AcDbLine
 10
340.0554200076
 20
20.0
 30
0.0
 11
340.0554200076
 21
142.8366078968
 31
0.0
  0
LINE
  5
358B
330
1F
100
AcDbEntity
  8
図枠
100
AcDbLine
 10
320.0
 20
20.0
 30
0.0
 11
320.0
 21
142.8366078968
 31
0.0
  0
LINE
  5
3599
330
1F
100
AcDbEntity
  8
図枠
  6
Continuous
100
AcDbLine
 10
562.773528236
 20
33.655869971
 30
0.0
 11
575.9888550861999
 21
35.66189406738297
 31
0.0
  0
LINE
  5
359A
330
1F
100
AcDbEntity
  8
図枠
  6
Continuous
100
AcDbLine
 10
583.0132180066
 20
29.655869971
 30
0.0
 11
537.4540731896
 21
29.655869971
 31
0.0
  0
LINE
  5
359B
330
1F
100
AcDbEntity
  8
図枠
  6
Continuous
100
AcDbLine
 10
547.1261568434
 20
37.398976315
 30
0.0
 11
547.1261568434
 21
21.398976315
 31
0.0
  0
LINE
  5
359C
330
1F
100
AcDbEntity
  8
図枠
  6
Continuous
100
AcDbLine
 10
562.773528236
 20
25.655869971
 30
0.0
 11
575.9888550861999
 21
23.66185799494957
 31
0.0
  0
LINE
  5
359D
330
1F
100
AcDbEntity
  8
図枠
  6
Continuous
100
AcDbLine
 10
562.773528236
 20
33.655869971
 30
0.0
 11
562.773528236
 21
25.655869971
 31
0.0
  0
CIRCLE
  5
359E
330
1F
100
AcDbEntity
  8
図枠
  6
Continuous
100
AcDbCircle
 10
547.1261568434
 20
29.655869971
 30
0.0
 40
5.999999999999928
  0
CIRCLE
  5
359F
330
1F
100
AcDbEntity
  8
図枠
  6
Continuous
100
AcDbCircle
 10
547.1261568434
 20
29.655869971
 30
0.0
 40
3.999999999999988
  0
LINE
  5
365B
330
1F
100
AcDbEntity
  8
図枠
  6
Continuous
100
AcDbLine
 10
575.9888550861999
 20
35.66189406738297
 30
0.0
 11
575.9888550861999
 21
23.66185799494957
 31
0.0
  0
LINE
  5
7723
330
1F
100
AcDbEntity
  8
図枠
100
AcDbLine
 10
666.074393588
 20
68.48069028300002
 30
0.0
 11
520.0
 21
68.48069028300002
 31
0.0
  0
LINE
  5
7724
330
1F
100
AcDbEntity
  8
図枠
100
AcDbLine
 10
666.074393588
 20
68.48069028300002
 30
0.0
 11
820.0
 21
68.48069028300002
 31
0.0
  0
LINE
  5
7729
330
1F
100
AcDbEntity
  8
図枠
100
AcDbLine
 10
520.0
 20
112.8897202375
 30
0.0
 11
820.0
 21
112.8897202375
 31
0.0
  0
LINE
  5
772A
330
1F
100
AcDbEntity
  8
図枠
100
AcDbLine
 10
520.0
 20
82.7403451415
 30
0.0
 11
820.0
 21
82.74034514149997
 31
0.0
  0
LINE
  5
777D
330
1F
100
AcDbEntity
  8
図枠
100
AcDbLine
 10
520.0
 20
98.25680991970002
 30
0.0
 11
820.0
 21
98.25680991969999
 31
0.0
  0
LINE
  5
D840
330
1F
100
AcDbEntity
  8
0
  6
HIDDEN
 48
2.5
370
     9
100
AcDbLine
 10
426.3486771130291
 20
455.7662548751845
 30
0.0
 11
431.3486771130291
 21
455.7662548751845
 31
0.0
  0
LINE
  5
D841
330
1F
100
AcDbEntity
  8
0
  6
HIDDEN
 48
2.5
370
     9
100
AcDbLine
 10
431.3486771130291
 20
455.7662548751845
 30
0.0
 11
431.3486771130291
 21
368.7662548751845
 31
0.0
  0
LINE
  5
D842
330
1F
100
AcDbEntity
  8
0
  6
HIDDEN
 48
2.5
370
     9
100
AcDbLine
 10
431.3486771130291
 20
368.7662548751845
 30
0.0
 11
426.3486771130291
 21
368.7662548751845
 31
0.0
  0
LINE
  5
D843
330
1F
100
AcDbEntity
  8
0
  6
HIDDEN
 48
2.5
370
     9
100
AcDbLine
 10
426.3486771130291
 20
368.7662548751845
 30
0.0
 11
426.3486771130291
 21
455.7662548751845
 31
0.0
  0
LINE
  5
D844
330
1F
100
AcDbEntity
  8
0
370
    13
100
AcDbLine
 10
426.3486771130291
 20
453.2662548751845
 30
0.0
 11
426.3486771130291
 21
371.2662548751845
 31
0.0
  0
LINE
  5
D845
330
1F
100
AcDbEntity
  8
0
370
    13
100
AcDbLine
 10
426.3486771130291
 20
371.2662548751845
 30
0.0
 11
344.348677113029
 21
371.2662548751845
 31
0.0
  0
LINE
  5
D846
330
1F
100
AcDbEntity
  8
0
370
    13
100
AcDbLine
 10
426.358677113029
 20
453.2662548751845
 30
0.0
 11
346.3077920069823
 21
453.2662548751845
 31
0.0
  0
LINE
  5
D847
330
1F
100
AcDbEntity
  8
0
370
    13
100
AcDbLine
 10
345.3470612753188
 20
452.305524143521
 30
0.0
 11
344.348677113029
 21
371.2662548751845
 31
0.0
  0
LINE
  5
D8D9
330
1F
100
AcDbEntity
  8
0
  6
HIDDEN
 48
2.5
370
     9
100
AcDbLine
 10
431.3486771130291
 20
314.620661158325
 30
0.0
 11
431.3486771130291
 21
227.620661158325
 31
0.0
  0
LINE
  5
D8DA
330
1F
100
AcDbEntity
  8
0
  6
HIDDEN
 48
2.5
370
     9
100
AcDbLine
 10
431.3486771130291
 20
227.620661158325
 30
0.0
 11
426.3486771130291
 21
227.620661158325
 31
0.0
  0
LINE
  5
D8DB
330
1F
100
AcDbEntity
  8
0
  6
HIDDEN
 48
2.5
370
     9
100
AcDbLine
 10
426.3486771130291
 20
227.620661158325
 30
0.0
 11
426.3486771130291
 21
314.620661158325
 31
0.0
  0
LINE
  5
D8DC
330
1F
100
AcDbEntity
  8
0
  6
HIDDEN
 48
2.5
370
     9
100
AcDbLine
 10
426.3486771130291
 20
314.620661158325
 30
0.0
 11
431.3486771130291
 21
314.620661158325
 31
0.0
  0
LINE
  5
D8DD
330
1F
100
AcDbEntity
  8
0
  6
HIDDEN
 48
0.5
370
    13
100
AcDbLine
 10
426.3486771130291
 20
312.120661158325
 30
0.0
 11
426.3486771130291
 21
230.120661158325
 31
0.0
  0
LINE
  5
D8ED
330
1F
100
AcDbEntity
  8
0
370
    13
100
AcDbLine
 10
344.3492033922095
 20
311.1084921047585
 30
0.0
 11
344.3492033922095
 21
231.1328302118914
 31
0.0
  0
SPLINE
  5
D910
330
1F
100
AcDbEntity
  8
0
  6
AI-LINETYPE-6
370
    13
100
AcDbSpline
210
0.0
220
0.0
230
1.0
 70
     8
 71
     3
 72
     8
 73
     4
 74
     0
 42
0.000000001
 43
0.0000000001
 40
0.0
 40
0.0
 40
0.0
 40
0.0
 40
1.0
 40
1.0
 40
1.0
 40
1.0
 10
417.7959834292714
 20
304.2046021222762
 30
0.0
 10
416.8664966673509
 20
304.4168200041677
 30
0.0
 10
416.1475052395793
 20
305.1358114319393
 30
0.0
 10
415.9356318672363
 20
306.0656427034082
 30
0.0
  0
SPLINE
  5
D911
330
1F
100
AcDbEntity
  8
0
370
    13
100
AcDbSpline
210
0.0
220
0.0
230
1.0
 70
     8
 71
     3
 72
    20
 73
    16
 74
     0
 42
0.000000001
 43
0.0000000001
 40
0.0
 40
0.0
 40
0.0
 40
0.0
 40
1.0
 40
1.0
 40
1.0
 40
2.0
 40
2.0
 40
2.0
 40
3.0
 40
3.0
 40
3.0
 40
4.0
 40
4.0
 40
4.0
 40
5.0
 40
5.0
 40
5.0
 40
5.0
 10
415.9356318672363
 20
306.0656427034082
 30
0.0
 10
415.8939462118647
 20
306.2489217832235
 30
0.0
 10
415.8718976007593
 20
306.4408136017519
 30
0.0
 10
415.8718976007593
 20
306.6382175730567
 30
0.0
 10
415.8718976007593
 20
307.9928291178569
 30
0.0
 10
416.9726056082966
 20
309.1359117998628
 30
0.0
 10
418.3695918275654
 20
309.1359117998628
 30
0.0
 10
419.7242033723657
 20
309.1359117998628
 30
0.0
 10
420.8672860543714
 20
307.9928291178569
 30
0.0
 10
420.8672860543714
 20
306.6382175730567
 30
0.0
 10
420.8672860543714
 20
305.2415758633364
 30
0.0
 10
419.7242033723657
 20
304.1405233462506
 30
0.0
 10
418.3695918275654
 20
304.1405233462506
 30
0.0
 10
418.1714988371635
 20
304.1405233462506
 30
0.0
 10
417.9796070186351
 20
304.1625719573561
 30
0.0
 10
417.7959834292714
 20
304.2046021222762
 30
0.0
  0
SPLINE
  5
D963
330
1F
100
AcDbEntity
  8
0
  6
AI-LINETYPE-6
370
    13
100
AcDbSpline
210
0.0
220
0.0
230
1.0
 70
     8
 71
     3
 72
     8
 73
     4
 74
     0
 42
0.000000001
 43
0.0000000001
 40
0.0
 40
0.0
 40
0.0
 40
0.0
 40
1.0
 40
1.0
 40
1.0
 40
1.0
 10
417.7959834292714
 20
238.0367201943737
 30
0.0
 10
416.8664966673509
 20
237.8245023124824
 30
0.0
 10
416.1475052395793
 20
237.1055108847107
 30
0.0
 10
415.9356318672363
 20
236.1756796132418
 30
0.0
  0
SPLINE
  5
D964
330
1F
100
AcDbEntity
  8
0
370
    13
100
AcDbSpline
210
0.0
220
0.0
230
1.0
 70
     8
 71
     3
 72
    20
 73
    16
 74
     0
 42
0.000000001
 43
0.0000000001
 40
0.0
 40
0.0
 40
0.0
 40
0.0
 40
1.0
 40
1.0
 40
1.0
 40
2.0
 40
2.0
 40
2.0
 40
3.0
 40
3.0
 40
3.0
 40
4.0
 40
4.0
 40
4.0
 40
5.0
 40
5.0
 40
5.0
 40
5.0
 10
415.9356318672363
 20
236.1756796132418
 30
0.0
 10
415.8939462118647
 20
235.9924005334265
 30
0.0
 10
415.8718976007593
 20
235.8005087148981
 30
0.0
 10
415.8718976007593
 20
235.6031047435932
 30
0.0
 10
415.8718976007593
 20
234.2484931987931
 30
0.0
 10
416.9726056082966
 20
233.1054105167872
 30
0.0
 10
418.3695918275654
 20
233.1054105167872
 30
0.0
 10
419.7242033723657
 20
233.1054105167872
 30
0.0
 10
420.8672860543714
 20
234.2484931987931
 30
0.0
 10
420.8672860543714
 20
235.6031047435932
 30
0.0
 10
420.8672860543714
 20
236.9997464533136
 30
0.0
 10
419.7242033723657
 20
238.1007989703994
 30
0.0
 10
418.3695918275654
 20
238.1007989703994
 30
0.0
 10
418.1714988371635
 20
238.1007989703994
 30
0.0
 10
417.9796070186351
 20
238.0787503592938
 30
0.0
 10
417.7959834292714
 20
238.0367201943737
 30
0.0
  0
LINE
  5
D99F
330
1F
100
AcDbEntity
  8
0
370
    13
100
AcDbLine
 10
562.324176360089
 20
453.2662548751845
 30
0.0
 11
482.2632912540423
 21
453.2662548751845
 31
0.0
  0
LINE
  5
D9A0
330
1F
100
AcDbEntity
  8
0
370
    13
100
AcDbLine
 10
481.3124601316541
 20
452.305524143521
 30
0.0
 11
480.324176360089
 21
371.2662548751845
 31
0.0
  0
LINE
  5
D9A1
330
1F
100
AcDbEntity
  8
0
370
    13
100
AcDbLine
 10
563.2750074824773
 20
452.305524143521
 30
0.0
 11
564.2632912540423
 21
371.2662548751845
 31
0.0
  0
LINE
  5
D9AD
330
1F
100
AcDbEntity
  8
0
370
    13
100
AcDbLine
 10
480.324176360089
 20
371.2662548751845
 30
0.0
 11
564.2632912540423
 21
371.2662548751845
 31
0.0
  0
SPLINE
  5
DA38
330
1F
100
AcDbEntity
  8
0
370
    13
100
AcDbSpline
210
0.0
220
0.0
230
1.0
 70
    11
 71
     3
 72
    17
 73
    13
 74
     0
 42
0.000000001
 43
0.0000000001
 40
0.0
 40
0.0
 40
0.0
 40
0.0
 40
1.0
 40
1.0
 40
1.0
 40
2.0
 40
2.0
 40
2.0
 40
3.0
 40
3.0
 40
3.0
 40
4.0
 40
4.0
 40
4.0
 40
4.0
 10
501.3012682588937
 20
398.2539318806406
 30
0.0
 10
501.3012682588937
 20
400.2012721036781
 30
0.0
 10
502.8677531760368
 20
401.767584766047
 30
0.0
 10
504.8149211442999
 20
401.767584766047
 30
0.0
 10
506.7620891125632
 20
401.767584766047
 30
0.0
 10
508.2861993552377
 20
400.2012721036781
 30
0.0
 10
508.2861993552377
 20
398.2539318806406
 30
0.0
 10
508.2861993552377
 20
396.3489663320718
 30
0.0
 10
506.7620891125632
 20
394.7402789952343
 30
0.0
 10
504.8149211442999
 20
394.7402789952343
 30
0.0
 10
502.8677531760368
 20
394.7402789952343
 30
0.0
 10
501.3012682588937
 20
396.3489663320718
 30
0.0
 10
501.3012682588937
 20
398.2539318806406
 30
0.0
  0
SPLINE
  5
DAE9
330
1F
100
AcDbEntity
  8
0
370
    13
100
AcDbSpline
210
0.0
220
0.0
230
1.0
 70
    11
 71
     3
 72
    17
 73
    13
 74
     0
 42
0.000000001
 43
0.0000000001
 40
0.0
 40
0.0
 40
0.0
 40
0.0
 40
1.0
 40
1.0
 40
1.0
 40
2.0
 40
2.0
 40
2.0
 40
3.0
 40
3.0
 40
3.0
 40
4.0
 40
4.0
 40
4.0
 40
4.0
 10
497.3218384638815
 20
398.2539318806406
 30
0.0
 10
497.3218384638815
 20
402.4026881187527
 30
0.0
 10
500.7087118354308
 20
405.7468423062847
 30
0.0
 10
504.8149211442999
 20
405.7468423062847
 30
0.0
 10
508.9635051276379
 20
405.7468423062847
 30
0.0
 10
512.3080038247184
 20
402.4026881187527
 30
0.0
 10
512.3080038247184
 20
398.2539318806406
 30
0.0
 10
512.3080038247184
 20
394.1475503169971
 30
0.0
 10
508.9635051276379
 20
390.7610214549965
 30
0.0
 10
504.8149211442999
 20
390.7610214549965
 30
0.0
 10
500.7087118354308
 20
390.7610214549965
 30
0.0
 10
497.3218384638815
 20
394.1475503169971
 30
0.0
 10
497.3218384638815
 20
398.2539318806406
 30
0.0
  0
SPLINE
  5
DB24
330
1F
100
AcDbEntity
  8
0
370
    13
100
AcDbSpline
210
0.0
220
0.0
230
1.0
 70
    11
 71
     3
 72
    17
 73
    13
 74
     0
 42
0.000000001
 43
0.0000000001
 40
0.0
 40
0.0
 40
0.0
 40
0.0
 40
1.0
 40
1.0
 40
1.0
 40
2.0
 40
2.0
 40
2.0
 40
3.0
 40
3.0
 40
3.0
 40
4.0
 40
4.0
 40
4.0
 40
4.0
 10
500.2853096002935
 20
398.2539318806406
 30
0.0
 10
500.2853096002935
 20
400.7516261074467
 30
0.0
 10
502.3172269174938
 20
402.744786100438
 30
0.0
 10
504.8149211442999
 20
402.744786100438
 30
0.0
 10
507.3126153711061
 20
402.744786100438
 30
0.0
 10
509.3021580138379
 20
400.7516261074467
 30
0.0
 10
509.3021580138379
 20
398.2539318806406
 30
0.0
 10
509.3021580138379
 20
395.7986123283031
 30
0.0
 10
507.3126153711061
 20
393.7665227563284
 30
0.0
 10
504.8149211442999
 20
393.7665227563284
 30
0.0
 10
502.3172269174938
 20
393.7665227563284
 30
0.0
 10
500.2853096002935
 20
395.7986123283031
 30
0.0
 10
500.2853096002935
 20
398.2539318806406
 30
0.0
  0
SPLINE
  5
DC03
330
1F
100
AcDbEntity
  8
0
370
    13
100
AcDbSpline
210
0.0
220
0.0
230
1.0
 70
    11
 71
     3
 72
    17
 73
    13
 74
     0
 42
0.000000001
 43
0.0000000001
 40
0.0
 40
0.0
 40
0.0
 40
0.0
 40
1.0
 40
1.0
 40
1.0
 40
2.0
 40
2.0
 40
2.0
 40
3.0
 40
3.0
 40
3.0
 40
4.0
 40
4.0
 40
4.0
 40
4.0
 10
543.2861993552376
 20
398.2539318806406
 30
0.0
 10
543.2861993552376
 20
400.2012721036781
 30
0.0
 10
541.7197144380946
 20
401.767584766047
 30
0.0
 10
539.7725464698315
 20
401.767584766047
 30
0.0
 10
537.8253785015681
 20
401.767584766047
 30
0.0
 10
536.3012682588937
 20
400.2012721036781
 30
0.0
 10
536.3012682588937
 20
398.2539318806406
 30
0.0
 10
536.3012682588937
 20
396.3489663320718
 30
0.0
 10
537.8253785015681
 20
394.7402789952343
 30
0.0
 10
539.7725464698315
 20
394.7402789952343
 30
0.0
 10
541.7197144380946
 20
394.7402789952343
 30
0.0
 10
543.2861993552376
 20
396.3489663320718
 30
0.0
 10
543.2861993552376
 20
398.2539318806406
 30
0.0
  0
SPLINE
  5
DCB0
330
1F
100
AcDbEntity
  8
0
370
    13
100
AcDbSpline
210
0.0
220
0.0
230
1.0
 70
    11
 71
     3
 72
    17
 73
    13
 74
     0
 42
0.000000001
 43
0.0000000001
 40
0.0
 40
0.0
 40
0.0
 40
0.0
 40
1.0
 40
1.0
 40
1.0
 40
2.0
 40
2.0
 40
2.0
 40
3.0
 40
3.0
 40
3.0
 40
4.0
 40
4.0
 40
4.0
 40
4.0
 10
547.2656291502499
 20
398.2539318806406
 30
0.0
 10
547.2656291502499
 20
402.4026881187527
 30
0.0
 10
543.8787557787007
 20
405.7468423062847
 30
0.0
 10
539.7725464698315
 20
405.7468423062847
 30
0.0
 10
535.6239624864936
 20
405.7468423062847
 30
0.0
 10
532.2794637894131
 20
402.4026881187527
 30
0.0
 10
532.2794637894131
 20
398.2539318806406
 30
0.0
 10
532.2794637894131
 20
394.1475503169971
 30
0.0
 10
535.6239624864936
 20
390.7610214549965
 30
0.0
 10
539.7725464698315
 20
390.7610214549965
 30
0.0
 10
543.8787557787007
 20
390.7610214549965
 30
0.0
 10
547.2656291502499
 20
394.1475503169971
 30
0.0
 10
547.2656291502499
 20
398.2539318806406
 30
0.0
  0
SPLINE
  5
DCEB
330
1F
100
AcDbEntity
  8
0
370
    13
100
AcDbSpline
210
0.0
220
0.0
230
1.0
 70
    11
 71
     3
 72
    17
 73
    13
 74
     0
 42
0.000000001
 43
0.0000000001
 40
0.0
 40
0.0
 40
0.0
 40
0.0
 40
1.0
 40
1.0
 40
1.0
 40
2.0
 40
2.0
 40
2.0
 40
3.0
 40
3.0
 40
3.0
 40
4.0
 40
4.0
 40
4.0
 40
4.0
 10
544.3021580138379
 20
398.2539318806406
 30
0.0
 10
544.3021580138379
 20
400.7516261074467
 30
0.0
 10
542.2702406966375
 20
402.744786100438
 30
0.0
 10
539.7725464698315
 20
402.744786100438
 30
0.0
 10
537.2748522430254
 20
402.744786100438
 30
0.0
 10
535.2853096002934
 20
400.7516261074467
 30
0.0
 10
535.2853096002934
 20
398.2539318806406
 30
0.0
 10
535.2853096002934
 20
395.7986123283031
 30
0.0
 10
537.2748522430254
 20
393.7665227563284
 30
0.0
 10
539.7725464698315
 20
393.7665227563284
 30
0.0
 10
542.2702406966375
 20
393.7665227563284
 30
0.0
 10
544.3021580138379
 20
395.7986123283031
 30
0.0
 10
544.3021580138379
 20
398.2539318806406
 30
0.0
  0
LINE
  5
DDFE
330
1F
100
AcDbEntity
  8
0
370
    13
100
AcDbLine
 10
518.2931166748193
 20
371.2662548751845
 30
0.0
 11
526.294350939312
 21
371.2662548751845
 31
0.0
  0
ARC
  5
DDFF
330
1F
100
AcDbEntity
  8
0
370
    13
100
AcDbCircle
 10
346.3077920069823
 20
452.305524143521
 30
0.0
 40
0.9607307316634319
100
AcDbArc
 50
90.0
 51
180.0
  0
DIMENSION
  5
DE57
330
1F
100
AcDbEntity
  8
0
370
     9
100
AcDbDimension
280
     0
  2
*D1
 10
478.7725464698314
 20
319.0290953420104
 30
0.0
 11
522.2725464698315
 21
319.0290953420104
 31
0.0
 70
   160
 71
     5
 42
87.00000000000006
 73
     0
 74
     0
 75
     0
  3
JIS-1
100
AcDbAlignedDimension
 13
565.7725464698315
 23
368.7662548751845
 33
0.0
 14
478.7725464698314
 24
368.7662548751845
 34
0.0
100
AcDbRotatedDimension
1001
ACAD
1000
DSTYLE
1002
{
1070
    41
1040
5.0
1070
     3
1000
(<>)
1070
   140
1040
4.5
1002
}
  0
DIMENSION
  5
DE67
330
1F
100
AcDbEntity
  8
0
370
     9
100
AcDbDimension
280
     0
  2
*D2
 10
604.5781188208075
 20
455.7662548751845
 30
0.0
 11
604.5781188208075
 21
412.2662548751845
 31
0.0
 70
   160
 71
     5
 42
87.0
 73
     0
 74
     0
 75
     0
  3
JIS-1
100
AcDbAlignedDimension
 13
565.7725464698315
 23
368.7662548751845
 33
0.0
 14
565.7725464698315
 24
455.7662548751845
 34
0.0
 50
90.0
100
AcDbRotatedDimension
1001
ACAD
1000
DSTYLE
1002
{
1070
    41
1040
5.0
1070
     3
1000
(<>)
1070
   140
1040
4.5
1002
}
  0
DIMENSION
  5
DE78
330
1F
100
AcDbEntity
  8
0
370
     9
100
AcDbDimension
280
     0
  2
*D3
 10
335.9690604332458
 20
371.2662548751845
 30
0.0
 11
333.0940604332458
 21
412.2662548751845
 31
0.0
 70
    32
 71
     5
 42
81.99999999999994
 73
     0
 74
     0
 75
     0
  3
JIS-1
100
AcDbAlignedDimension
 13
345.3470612753188
 23
453.2662548751844
 33
0.0
 14
344.348677113029
 24
371.2662548751845
 34
0.0
 50
90.0
100
AcDbRotatedDimension
1001
ACAD
1000
DSTYLE
1002
{
1070
   140
1040
4.5
1002
}
  0
DIMENSION
  5
DE88
330
1F
100
AcDbEntity
  8
0
370
     9
100
AcDbDimension
280
     0
  2
*D4
 10
327.1086537068853
 20
368.0490524562839
 30
0.0
 11
324.2336537068853
 21
410.6576536657342
 31
0.0
 70
    32
 71
     5
 42
85.21720241890051
 73
     0
 74
     0
 75
     0
  3
JIS-1
100
AcDbAlignedDimension
 13
345.3470612753188
 23
453.2662548751844
 33
0.0
 14
413.8190655690225
 24
368.0490524562839
 34
0.0
 50
90.0
100
AcDbRotatedDimension
1001
ACAD
1000
DSTYLE
1002
{
1070
   271
1070
     0
1070
     3
1000
<>
1070
   140
1040
4.5
1002
}
  0
ARC
  5
DEE0
330
1F
100
AcDbEntity
  8
0
370
    13
100
AcDbCircle
 10
414.3475937469379
 20
376.2944849988841
 30
0.0
 40
8.262354376896518
100
AcDbArc
 50
241.043740987009
 51
266.3323862695878
  0
ARC
  5
DEE1
330
1F
100
AcDbEntity
  8
0
370
    13
100
AcDbCircle
 10
414.3480599807827
 20
376.2960781621442
 30
0.0
 40
8.263974109397605
100
AcDbArc
 50
273.379234943484
 51
298.9537397162215
  0
DIMENSION
  5
DEE6
330
1F
100
AcDbEntity
  8
0
370
     9
100
AcDbDimension
280
     0
  2
*D5
 10
327.1086537068853
 20
312.120661158325
 30
0.0
 11
324.2336537068853
 21
271.120661158325
 31
0.0
 70
    32
 71
     5
 42
82.00000000000006
 73
     0
 74
     0
 75
     0
  3
JIS-1
100
AcDbAlignedDimension
 13
344.3492033922095
 23
230.120661158325
 33
0.0
 14
344.3492033922095
 24
312.120661158325
 34
0.0
 50
90.0
100
AcDbRotatedDimension
1001
ACAD
1000
DSTYLE
1002
{
1070
    41
1040
5.0
1070
   140
1040
4.5
1002
}
  0
DIMENSION
  5
DEF6
330
1F
100
AcDbEntity
  8
0
370
     9
100
AcDbDimension
280
     0
  2
*D6
 10
426.3486771130291
 20
216.8888814838844
 30
0.0
 11
385.3489402526193
 21
219.7638814838844
 31
0.0
 70
    32
 71
     5
 42
81.9994737208196
 73
     0
 74
     0
 75
     0
  3
JIS-1
100
AcDbAlignedDimension
 13
344.3492033922095
 23
230.120661158325
 33
0.0
 14
426.3486771130291
 24
227.620661158325
 34
0.0
100
AcDbRotatedDimension
1001
ACAD
1000
DSTYLE
1002
{
1070
    41
1040
5.0
1070
   140
1040
4.5
1002
}
  0
CIRCLE
  5
E2FD
330
1F
100
AcDbEntity
  8
0
370
     9
100
AcDbCircle
 10
345.9690604332458
 20
483.7579383833146
 30
0.0
 40
10.0
  0
TEXT
  5
E2FE
330
1F
100
AcDbEntity
  8
0
370
     9
100
AcDbText
 10
342.3153354117279
 20
478.7922501964398
 30
0.0
 40
10.0
  1
1
  7
ＭＳ_Ｐゴシック
100
AcDbText
  0
CIRCLE
  5
E333
330
1F
100
AcDbEntity
  8
0
370
     9
100
AcDbCircle
 10
349.9548022118831
 20
343.6618945340467
 30
0.0
 40
10.0
  0
TEXT
  5
E334
330
1F
100
AcDbEntity
  8
0
370
     9
100
AcDbText
 10
346.3010771903652
 20
338.6962063471719
 30
0.0
 40
10.0
  1
2
  7
ＭＳ_Ｐゴシック
100
AcDbText
  0
CIRCLE
  5
E369
330
1F
100
AcDbEntity
  8
0
370
     9
100
AcDbCircle
 10
488.7725464698314
 20
487.3136755368492
 30
0.0
 40
10.0
  0
TEXT
  5
E36A
330
1F
100
AcDbEntity
  8
0
370
     9
100
AcDbText
 10
485.1188214483134
 20
482.3479873499745
 30
0.0
 40
10.0
  1
4
  7
ＭＳ_Ｐゴシック
100
AcDbText
  0
CIRCLE
  5
E39E
330
1F
100
AcDbEntity
  8
0
370
     9
100
AcDbCircle
 10
471.093145951445
 20
283.4864044834463
 30
0.0
 40
10.0
  0
TEXT
  5
E39F
330
1F
100
AcDbEntity
  8
0
370
     9
100
AcDbText
 10
467.4394209299271
 20
278.5207162965715
 30
0.0
 40
10.0
  1
3
  7
ＭＳ_Ｐゴシック
100
AcDbText
  0
LEADER
  5
E3A0
102
{ACAD_XDICTIONARY
360
E3A1
102
}
330
1F
100
AcDbEntity
  8
0
370
     9
100
AcDbLeader
  3
ISO-25
 76
     2
 10
418.4903307202916
 20
271.6575876980206
 30
0.0
 10
461.3367777047242
 20
281.2924859265312
 30
0.0
1001
ACAD
1000
DSTYLE
1002
{
1070
     5
1000
OPEN
1070
   341
1005
328E
1070
    41
1040
5.0
1070
    44
1040
1.0
1070
    42
1040
1.0
1070
   147
1040
1.524
1070
    73
1070
     1
1070
    74
1070
     1
1070
   140
1040
3.5
1070
   284
1070
     0
1070
    78
1070
     0
1002
}
  0
CIRCLE
  5
E3D5
330
1F
100
AcDbEntity
  8
0
370
     9
100
AcDbCircle
 10
461.7017297341728
 20
353.7638994568528
 30
0.0
 40
10.0
  0
TEXT
  5
E3D6
330
1F
100
AcDbEntity
  8
0
370
     9
100
AcDbText
 10
458.0480047126549
 20
348.798211269978
 30
0.0
 40
10.0
  1
5
  7
ＭＳ_Ｐゴシック
100
AcDbText
  0
LEADER
  5
E3D7
102
{ACAD_XDICTIONARY
360
E3D8
102
}
330
1F
100
AcDbEntity
  8
0
370
     9
100
AcDbLeader
  3
ISO-25
 76
     2
 10
431.3486771130291
 20
391.0332884217644
 30
0.0
 10
455.3868256123261
 20
361.5177363091397
 30
0.0
1001
ACAD
1000
DSTYLE
1002
{
1070
     5
1000
OPEN
1070
   341
1005
328E
1070
    41
1040
5.0
1070
    44
1040
1.0
1070
    42
1040
1.0
1070
   147
1040
1.524
1070
    73
1070
     1
1070
    74
1070
     1
1070
   140
1040
3.5
1070
   284
1070
     0
1070
    78
1070
     0
1002
}
  0
LINE
  5
E425
330
1F
100
AcDbEntity
  8
0
370
     9
100
AcDbLine
 10
40.0
 20
574.0
 30
0.0
 11
40.0
 21
413.9999999999999
 31
0.0
  0
LINE
  5
E426
330
1F
100
AcDbEntity
  8
0
370
     9
100
AcDbLine
 10
144.0189222348178
 20
574.0
 30
0.0
 11
144.0189222348178
 21
413.9999999999999
 31
0.0
  0
LINE
  5
E427
330
1F
100
AcDbEntity
  8
0
370
     9
100
AcDbLine
 10
168.0378444696356
 20
574.0
 30
0.0
 11
168.0378444696356
 21
413.9999999999999
 31
0.0
  0
LINE
  5
E428
330
1F
100
AcDbEntity
  8
0
370
     9
100
AcDbLine
 10
244.0189222348178
 20
574.0
 30
0.0
 11
244.0189222348178
 21
413.9999999999999
 31
0.0
  0
LINE
  5
E429
330
1F
100
AcDbEntity
  8
0
370
     9
100
AcDbLine
 10
268.0378444696356
 20
554.0
 30
0.0
 11
20.0
 21
554.0
 31
0.0
  0
LINE
  5
E42A
330
1F
100
AcDbEntity
  8
0
370
     9
100
AcDbLine
 10
268.0378444696356
 20
534.0
 30
0.0
 11
20.0
 21
534.0
 31
0.0
  0
LINE
  5
E42B
330
1F
100
AcDbEntity
  8
0
370
     9
100
AcDbLine
 10
268.0378444696356
 20
514.0
 30
0.0
 11
20.0
 21
514.0
 31
0.0
  0
LINE
  5
E42C
330
1F
100
AcDbEntity
  8
0
370
     9
100
AcDbLine
 10
268.0378444696356
 20
493.9999999999999
 30
0.0
 11
20.0
 21
493.9999999999999
 31
0.0
  0
LINE
  5
E42D
330
1F
100
AcDbEntity
  8
0
370
     9
100
AcDbLine
 10
268.0378444696356
 20
473.9999999999999
 30
0.0
 11
64.01892223481778
 21
473.9999999999999
 31
0.0
  0
LINE
  5
E42E
330
1F
100
AcDbEntity
  8
0
370
     9
100
AcDbLine
 10
268.0378444696356
 20
453.9999999999999
 30
0.0
 11
64.01892223481775
 21
453.9999999999999
 31
0.0
  0
LINE
  5
E470
330
1F
100
AcDbEntity
  8
0
370
     9
100
AcDbLine
 10
374.1601185211438
 20
434.2146304414073
 30
0.0
 11
350.1443469344063
 21
474.6713007965486
 31
0.0
  0
LINE
  5
E49B
330
1F
100
AcDbEntity
  8
0
370
     9
100
AcDbLine
 10
504.9820519943347
 20
435.1467456017835
 30
0.0
 11
491.7398393439933
 21
477.7640591571747
 31
0.0
  0
LINE
  5
E4C6
330
1F
100
AcDbEntity
  8
0
370
     9
100
AcDbLine
 10
366.0481606746286
 20
291.7790167880126
 30
0.0
 11
352.9174133373599
 21
334.1108246819724
 31
0.0
  0
MTEXT
  5
E4FE
330
1F
100
AcDbEntity
  8
0
370
     9
100
AcDbMText
 10
545.1774894445439
 20
475.0388397815918
 30
0.0
 40
3.5
 41
29.27649871556798
 46
3.9375
 71
     1
 72
     5
  1
{電源用穴}
 73
     1
 44
1.0
1001
ACAD
1000
ACAD_MTEXT_DEFINED_HEIGHT_BEGIN
1070
    46
1040
3.9375
1000
ACAD_MTEXT_DEFINED_HEIGHT_END
  0
LEADER
  5
E502
102
{ACAD_XDICTIONARY
360
E504
102
}
330
1F
100
AcDbEntity
  8
0
370
     9
100
AcDbLeader
  3
ISO-25
 76
     3
 10
522.8015408815917
 20
430.7659869940403
 30
0.0
 10
543.9615047975924
 20
469.1160926862926
 30
0.0
 10
565.5865765183203
 20
469.1160926862926
 30
0.0
1001
ACAD
1000
DSTYLE
1002
{
1070
   341
1005
328E
1070
    41
1040
5.0
1070
    44
1040
1.0
1070
    42
1040
1.0
1070
   147
1040
1.524
1070
    73
1070
     1
1070
    74
1070
     1
1070
   140
1040
3.5
1070
   284
1070
     0
1070
    78
1070
     0
1002
}
  0
MTEXT
  5
E52C
330
1F
100
AcDbEntity
  8
0
370
     9
100
AcDbMText
 10
453.4735127441961
 20
430.9274245983502
 30
0.0
 40
3.5
 41
29.27649871556798
 46
3.9375
 71
     1
 72
     5
  1
{取付け穴}
 73
     1
 44
1.0
1001
ACAD
1000
ACAD_MTEXT_DEFINED_HEIGHT_BEGIN
1070
    46
1040
3.9375
1000
ACAD_MTEXT_DEFINED_HEIGHT_END
  0
MTEXT
  5
E553
330
1F
100
AcDbEntity
  8
0
370
     9
100
AcDbMText
 10
573.2648751519193
 20
438.5736817733113
 30
0.0
 40
3.5
 41
29.27649871556798
 46
3.9375
 71
     1
 72
     5
  1
{取付け穴}
 73
     1
 44
1.0
1001
ACAD
1000
ACAD_MTEXT_DEFINED_HEIGHT_BEGIN
1070
    46
1040
3.9375
1000
ACAD_MTEXT_DEFINED_HEIGHT_END
  0
LEADER
  5
E554
102
{ACAD_XDICTIONARY
360
E556
102
}
330
1F
100
AcDbEntity
  8
0
370
     9
100
AcDbLeader
  3
ISO-25
 76
     3
 10
550.5322958179747
 20
416.4054509733249
 30
0.0
 10
572.1306075161365
 20
432.8719598190144
 30
0.0
 10
594.9487866421459
 20
432.8719598190144
 30
0.0
1001
ACAD
1000
DSTYLE
1002
{
1070
   341
1005
328E
1070
    41
1040
5.0
1070
    44
1040
1.0
1070
    42
1040
1.0
1070
   147
1040
1.524
1070
    73
1070
     1
1070
    74
1070
     1
1070
   140
1040
3.5
1070
   284
1070
     0
1070
    78
1070
     0
1002
}
  0
LEADER
  5
E558
102
{ACAD_XDICTIONARY
360
E55A
102
}
330
1F
100
AcDbEntity
  8
0
370
     9
100
AcDbLeader
  3
ISO-25
 76
     3
 10
497.2937338070657
 20
416.4054509733249
 30
0.0
 10
474.1466618573897
 20
425.2659001103444
 30
0.0
 10
452.8198669879822
 20
425.2659001103444
 30
0.0
1001
ACAD
1000
DSTYLE
1002
{
1070
   341
1005
328E
1070
    41
1040
5.0
1070
    44
1040
1.0
1070
    42
1040
1.0
1070
   147
1040
1.524
1070
    73
1070
     1
1070
    74
1070
     1
1070
   140
1040
3.5
1070
   284
1070
     0
1070
    78
1070
     0
1002
}
  0
LWPOLYLINE
  5
E581
330
1F
100
AcDbEntity
  8
0
  6
ByBlock
370
     9
100
AcDbPolyline
 90
        2
 70
     1
 43
0.8255
 10
365.8758257242932
 20
292.1540677544064
 42
1.0
 10
366.220495624964
 20
291.4039658216188
 42
1.0
  0
LINE
  5
E5AC
330
1F
100
AcDbEntity
  8
0
  6
CENTER
370
     9
100
AcDbLine
 10
474.6446645734517
 20
413.1880762996501
 30
0.0
 11
569.9421140215829
 21
413.1880762996501
 31
0.0
  0
LINE
  5
E5AD
330
1F
100
AcDbEntity
  8
0
  6
CENTER
370
     9
100
AcDbLine
 10
522.2933892975174
 20
364.991979854255
 30
0.0
 11
522.2933892975174
 21
459.540529896114
 31
0.0
  0
LINE
  5
E5D7
330
1F
100
AcDbEntity
  8
0
  6
CENTER
370
     9
100
AcDbLine
 10
547.2937338070657
 20
406.7992493242996
 30
0.0
 11
547.2937338070657
 21
419.5769032750006
 31
0.0
  0
LINE
  5
E5D8
330
1F
100
AcDbEntity
  8
0
  6
CENTER
370
     9
100
AcDbLine
 10
497.2937338070657
 20
406.7992493242996
 30
0.0
 11
497.2937338070657
 21
419.5769032750006
 31
0.0
  0
DIMENSION
  5
E612
330
1F
100
AcDbEntity
  8
0
370
     9
100
AcDbDimension
280
     0
  2
*D7
 10
497.2937338070657
 20
340.8738290144946
 30
0.0
 11
509.7935615522915
 21
340.8738290144946
 31
0.0
 70
   160
 71
     5
 42
24.99965549045169
 73
     0
 74
     0
 75
     0
  3
JIS-1
100
AcDbAlignedDimension
 13
522.2933892975174
 23
364.991979854255
 33
0.0
 14
497.2937338070657
 24
406.7992493242996
 34
0.0
100
AcDbRotatedDimension
1001
ACAD
1000
DSTYLE
1002
{
1070
    41
1040
5.0
1070
     3
1000
<>
1070
   140
1040
4.5
1002
}
  0
DIMENSION
  5
E659
330
1F
100
AcDbEntity
  8
0
370
     9
100
AcDbDimension
280
     0
  2
*D8
 10
522.2933892975174
 20
340.8738290144946
 30
0.0
 11
534.7935615522915
 21
340.8738290144946
 31
0.0
 70
   160
 71
     5
 42
25.00034450954831
 73
     0
 74
     0
 75
     0
  3
JIS-1
100
AcDbAlignedDimension
 13
547.2937338070657
 23
406.7992493242996
 33
0.0
 14
522.2933892975174
 24
364.366979854255
 34
0.0
100
AcDbRotatedDimension
1001
ACAD
1000
DSTYLE
1002
{
1070
    41
1040
5.0
1070
     3
1000
<>
1070
   140
1040
4.5
1002
}
  0
LINE
  5
E667
330
1F
100
AcDbEntity
  8
0
370
     9
100
AcDbLine
 10
268.0378444696356
 20
574.0
 30
0.0
 11
268.0378444696356
 21
413.9999999999999
 31
0.0
  0
LINE
  5
E669
330
1F
100
AcDbEntity
  8
0
370
     9
100
AcDbLine
 10
268.0378444696356
 20
433.9999999999999
 30
0.0
 11
64.01892223481775
 21
433.9999999999999
 31
0.0
  0
LINE
  5
E66E
330
1F
100
AcDbEntity
  8
0
370
     9
100
AcDbLine
 10
268.0378444696356
 20
413.9999999999999
 30
0.0
 11
20.0
 21
413.9999999999999
 31
0.0
  0
LINE
  5
E679
330
1F
100
AcDbEntity
  8
0
370
     9
100
AcDbLine
 10
64.01892223481778
 20
493.9999999999999
 30
0.0
 11
64.01892223481778
 21
413.9999999999999
 31
0.0
  0
LINE
  5
E67A
330
1F
100
AcDbEntity
  8
0
370
     9
100
AcDbLine
 10
39.99999999999991
 20
433.9999999999999
 30
0.0
 11
20.0
 21
433.9999999999999
 31
0.0
  0
LINE
  5
E67B
330
1F
100
AcDbEntity
  8
0
370
     9
100
AcDbLine
 10
39.99999999999991
 20
453.9999999999999
 30
0.0
 11
20.0
 21
453.9999999999999
 31
0.0
  0
LINE
  5
E6A5
330
1F
100
AcDbEntity
  8
0
370
     9
100
AcDbLine
 10
39.99999999999991
 20
473.9999999999999
 30
0.0
 11
20.0
 21
473.9999999999999
 31
0.0
  0
LINE
  5
E75B
330
1F
100
AcDbEntity
  8
図枠
100
AcDbLine
 10
0.0
 20
0.0
 30
0.0
 11
0.0
 21
594.0
 31
0.0
  0
LINE
  5
E75C
330
1F
100
AcDbEntity
  8
図枠
100
AcDbLine
 10
0.0
 20
594.0
 30
0.0
 11
840.0
 21
594.0
 31
0.0
  0
LINE
  5
E75D
330
1F
100
AcDbEntity
  8
図枠
100
AcDbLine
 10
840.0
 20
594.0
 30
0.0
 11
840.0
 21
0.0
 31
0.0
  0
LINE
  5
E75E
330
1F
100
AcDbEntity
  8
図枠
100
AcDbLine
 10
840.0
 20
0.0
 30
0.0
 11
0.0
 21
0.0
 31
0.0
  0
TEXT
  5
E75F
330
1F
100
AcDbEntity
  8
図枠
  6
Continuous
100
AcDbText
 10
827.4774127216
 20
44.1060360864
 30
0.0
 40
7.0
  1
F
 41
0.75
  7
SLDTEXTSTYLE0
100
AcDbText
  0
TEXT
  5
E760
330
1F
100
AcDbEntity
  8
図枠
  6
Continuous
100
AcDbText
 10
824.9462378208
 20
542.9306382748
 30
0.0
 40
7.0
  1
A
 41
0.75
  7
SLDTEXTSTYLE0
100
AcDbText
  0
TEXT
  5
E761
330
1F
100
AcDbEntity
  8
図枠
  6
Continuous
100
AcDbText
 10
826.238685669
 20
344.506398843
 30
0.0
 40
7.0
  1
C
 41
0.75
  7
SLDTEXTSTYLE0
100
AcDbText
  0
TEXT
  5
E762
330
1F
100
AcDbEntity
  8
図枠
  6
Continuous
100
AcDbText
 10
827.291116377
 20
144.506398843
 30
0.0
 40
7.0
  1
E
 41
0.75
  7
SLDTEXTSTYLE0
100
AcDbText
  0
TEXT
  5
E763
330
1F
100
AcDbEntity
  8
図枠
  6
Continuous
100
AcDbText
 10
825.144935669
 20
444.506398843
 30
0.0
 40
7.0
  1
B
 41
0.75
  7
SLDTEXTSTYLE0
100
AcDbText
  0
TEXT
  5
E764
330
1F
100
AcDbEntity
  8
図枠
  6
Continuous
100
AcDbText
 10
826.2313938454
 20
244.506398843
 30
0.0
 40
7.0
  1
D
 41
0.75
  7
SLDTEXTSTYLE0
100
AcDbText
  0
TEXT
  5
E765
330
1F
100
AcDbEntity
  8
図枠
  6
Continuous
100
AcDbText
 10
170.829788559
 20
576.9916031708
 30
0.0
 40
7.0
  1
2
 41
0.75
  7
SLDTEXTSTYLE0
100
AcDbText
  0
TEXT
  5
E766
330
1F
100
AcDbEntity
  8
図枠
  6
Continuous
100
AcDbText
 10
62.0237596942
 20
576.9916031708
 30
0.0
 40
7.0
  1
1
 41
0.75
  7
SLDTEXTSTYLE0
100
AcDbText
  0
TEXT
  5
E767
330
1F
100
AcDbEntity
  8
図枠
  6
Continuous
100
AcDbText
 10
671.1336843672
 20
576.9916031708
 30
0.0
 40
7.0
  1
7
 41
0.75
  7
SLDTEXTSTYLE0
100
AcDbText
  0
TEXT
  5
E768
330
1F
100
AcDbEntity
  8
図枠
  6
Continuous
100
AcDbText
 10
470.3923465624
 20
576.9916031708
 30
0.0
 40
7.0
  1
5
 41
0.75
  7
SLDTEXTSTYLE0
100
AcDbText
  0
TEXT
  5
E769
330
1F
100
AcDbEntity
  8
図枠
  6
Continuous
100
AcDbText
 10
271.1617852962
 20
576.9916031708
 30
0.0
 40
7.0
  1
3
 41
0.75
  7
SLDTEXTSTYLE0
100
AcDbText
  0
TEXT
  5
E76A
330
1F
100
AcDbEntity
  8
図枠
  6
Continuous
100
AcDbText
 10
781.0765661208
 20
576.8589640934
 30
0.0
 40
7.0
  1
8
 41
0.75
  7
SLDTEXTSTYLE0
100
AcDbText
  0
TEXT
  5
E76B
330
1F
100
AcDbEntity
  8
図枠
  6
Continuous
100
AcDbText
 10
570.9980651824
 20
576.9916031708
 30
0.0
 40
7.0
  1
6
 41
0.75
  7
SLDTEXTSTYLE0
100
AcDbText
  0
TEXT
  5
E76C
330
1F
100
AcDbEntity
  8
図枠
  6
Continuous
100
AcDbText
 10
370.9634297614
 20
576.9916031708
 30
0.0
 40
7.0
  1
4
 41
0.75
  7
SLDTEXTSTYLE0
100
AcDbText
  0
TEXT
  5
E76D
330
1F
100
AcDbEntity
  8
図枠
  6
Continuous
100
AcDbText
 10
10.6139765688
 20
244.506398843
 30
0.0
 40
7.0
  1
D
 41
0.75
  7
SLDTEXTSTYLE0
100
AcDbText
  0
TEXT
  5
E76E
330
1F
100
AcDbEntity
  8
図枠
  6
Continuous
100
AcDbText
 10
10.6212683924
 20
344.506398843
 30
0.0
 40
7.0
  1
C
 41
0.75
  7
SLDTEXTSTYLE0
100
AcDbText
  0
TEXT
  5
E76F
330
1F
100
AcDbEntity
  8
図枠
  6
Continuous
100
AcDbText
 10
9.5275183924
 20
444.7493201572
 30
0.0
 40
7.0
  1
B
 41
0.75
  7
SLDTEXTSTYLE0
100
AcDbText
  0
TEXT
  5
E770
330
1F
100
AcDbEntity
  8
図枠
  6
Continuous
100
AcDbText
 10
10.7063378346
 20
144.506398843
 30
0.0
 40
7.0
  1
E
 41
0.75
  7
SLDTEXTSTYLE0
100
AcDbText
  0
TEXT
  5
E771
330
1F
100
AcDbEntity
  8
図枠
  6
Continuous
100
AcDbText
 10
778.4879907264
 20
9.664307266800002
 30
0.0
 40
7.0
  1
8
 41
0.75
  7
SLDTEXTSTYLE0
100
AcDbText
  0
TEXT
  5
E772
330
1F
100
AcDbEntity
  8
図枠
  6
Continuous
100
AcDbText
 10
268.4009241058
 20
9.796946344199998
 30
0.0
 40
7.0
  1
3
 41
0.75
  7
SLDTEXTSTYLE0
100
AcDbText
  0
TEXT
  5
E773
330
1F
100
AcDbEntity
  8
図枠
  6
Continuous
100
AcDbText
 10
368.2098958772
 20
9.796946693599999
 30
0.0
 40
7.0
  1
4
 41
0.75
  7
SLDTEXTSTYLE0
100
AcDbText
  0
TEXT
  5
E774
330
1F
100
AcDbEntity
  8
図枠
  6
Continuous
100
AcDbText
 10
468.2287325748
 20
9.796946344199998
 30
0.0
 40
7.0
  1
5
 41
0.75
  7
SLDTEXTSTYLE0
100
AcDbText
  0
TEXT
  5
E775
330
1F
100
AcDbEntity
  8
図枠
  6
Continuous
100
AcDbText
 10
568.244531298
 20
9.796946344199998
 30
0.0
 40
7.0
  1
6
 41
0.75
  7
SLDTEXTSTYLE0
100
AcDbText
  0
TEXT
  5
E776
330
1F
100
AcDbEntity
  8
図枠
  6
Continuous
100
AcDbText
 10
668.2366320528
 20
9.796946344199998
 30
0.0
 40
7.0
  1
7
 41
0.75
  7
SLDTEXTSTYLE0
100
AcDbText
  0
TEXT
  5
E777
330
1F
100
AcDbEntity
  8
図枠
  6
Continuous
100
AcDbText
 10
9.328820544
 20
542.9352389224
 30
0.0
 40
7.0
  1
A
 41
0.75
  7
SLDTEXTSTYLE0
100
AcDbText
  0
TEXT
  5
E778
330
1F
100
AcDbEntity
  8
図枠
  6
Continuous
100
AcDbText
 10
168.2184028104
 20
9.796946344199998
 30
0.0
 40
7.0
  1
2
 41
0.75
  7
SLDTEXTSTYLE0
100
AcDbText
  0
TEXT
  5
E779
330
1F
100
AcDbEntity
  8
図枠
  6
Continuous
100
AcDbText
 10
59.2702258098
 20
9.796946344199998
 30
0.0
 40
7.0
  1
1
 41
0.75
  7
SLDTEXTSTYLE0
100
AcDbText
  0
TEXT
  5
E77A
330
1F
100
AcDbEntity
  8
図枠
  6
Continuous
100
AcDbText
 10
10.6941849728
 20
46.057787942
 30
0.0
 40
7.0
  1
F
 41
0.75
  7
SLDTEXTSTYLE0
100
AcDbText
  0
TEXT
  5
E77B
330
1F
100
AcDbEntity
  8
図枠
  6
Continuous
100
AcDbText
 10
708.240214508
 20
133.0560188790799
 30
0.0
 40
6.0
  1
品番 / PART NO.
100
AcDbText
  0
TEXT
  5
E77C
330
1F
100
AcDbEntity
  8
図枠
  6
Continuous
100
AcDbText
 10
793.1785691548794
 20
29.55432165392451
 30
0.0
 40
10.0
  1
1/1
100
AcDbText
  0
TEXT
  5
E77D
330
1F
100
AcDbEntity
  8
図枠
  6
Continuous
100
AcDbText
 10
526.0527804509522
 20
132.7245237304778
 30
0.0
 40
6.0
  1
消費電力 / POWER CONSUMPTION
100
AcDbText
  0
TEXT
  5
E77E
330
1F
100
AcDbEntity
  8
図枠
  6
Continuous
100
AcDbText
 10
573.9237651598366
 20
102.1420505539518
 30
0.0
 40
6.0
  1
光源 / LIGHT
100
AcDbText
  0
TEXT
  5
E77F
330
1F
100
AcDbEntity
  8
図枠
  6
Continuous
100
AcDbText
 10
610.5810408683185
 20
43.01927434940563
 30
0.0
 40
5.0
  1
尺度 / SCALE
100
AcDbText
  0
TEXT
  5
E780
330
1F
100
AcDbEntity
  8
図枠
  6
Continuous
100
AcDbText
 10
531.346249140547
 20
43.38968955411544
 30
0.0
 40
4.0
  1
投影法 / PROJECTION
100
AcDbText
  0
TEXT
  5
E781
330
1F
100
AcDbEntity
  8
図枠
  6
Continuous
100
AcDbText
 10
445.6145278495488
 20
132.5043881382056
 30
0.0
 40
6.0
  1
名前 / NAME
100
AcDbText
  0
TEXT
  5
E782
330
1F
100
AcDbEntity
  8
図枠
  6
Continuous
100
AcDbText
 10
429.1631810010282
 20
111.2830089558056
 30
0.0
 40
6.0
  1
検認
100
AcDbText
  0
TEXT
  5
E783
330
1F
100
AcDbEntity
  8
図枠
  6
Continuous
100
AcDbText
 10
429.1478695924282
 20
84.81492582800563
 30
0.0
 40
6.0
  1
検認
100
AcDbText
  0
TEXT
  5
E784
330
1F
100
AcDbEntity
  8
図枠
  6
Continuous
100
AcDbText
 10
429.9675823396113
 20
57.50639042060563
 30
0.0
 40
6.0
  1
設計
100
AcDbText
  0
TEXT
  5
E785
330
1F
100
AcDbEntity
  8
図枠
  6
Continuous
100
AcDbText
 10
430.1534785550404
 20
23.88230892764248
 30
0.0
 40
6.0
  1
日付
100
AcDbText
  0
TEXT
  5
E786
330
1F
100
AcDbEntity
  8
図枠
  6
Continuous
100
AcDbText
 10
429.9640728466272
 20
37.48777453500563
 30
0.0
 40
6.0
  1
製図
100
AcDbText
  0
TEXT
  5
E787
330
1F
100
AcDbEntity
  8
図枠
  6
Continuous
100
AcDbText
 10
25.62318339842114
 20
23.8465225320141
 30
0.0
 40
6.0
  1
NO.
100
AcDbText
  0
TEXT
  5
E788
330
1F
100
AcDbEntity
  8
図枠
  6
Continuous
100
AcDbText
 10
115.7655558078
 20
23.614646566
 30
0.0
 40
6.0
  1
改定履歴 / REVISION HISTORY
100
AcDbText
  0
TEXT
  5
E789
330
1F
100
AcDbEntity
  8
図枠
  6
Continuous
100
AcDbText
 10
321.3047818384139
 20
23.69922570715623
 30
0.0
 40
6.0
  1
日付
100
AcDbText
  0
TEXT
  5
E78A
330
1F
100
AcDbEntity
  8
図枠
  6
Continuous
100
AcDbText
 10
355.1985547506634
 20
23.17258454900703
 30
0.0
 40
6.0
  1
名前 / NAME
100
AcDbText
  0
TEXT
  5
E78B
330
1F
100
AcDbEntity
  8
図枠
  6
Continuous
100
AcDbText
 10
696.4869432423465
 20
102.1273634286112
 30
0.0
 40
6.0
  1
品名 / DRAWING NAME
100
AcDbText
  0
TEXT
  5
E78C
330
1F
100
AcDbEntity
  8
図枠
  6
Continuous
100
AcDbText
 10
568.6418757245317
 20
72.96314645204608
 30
0.0
 40
6.0
  1
重量 / WEIGHT
100
AcDbText
  0
TEXT
  5
E78D
330
1F
100
AcDbEntity
  8
図枠
  6
Continuous
100
AcDbText
 10
697.2718758385711
 20
72.95651482472417
 30
0.0
 40
6.0
  1
コード番号 / CODE NO.
100
AcDbText
  0
TEXT
  5
E78E
330
1F
100
AcDbEntity
  8
図枠
  6
Continuous
100
AcDbText
 10
725.331422032731
 20
117.9553230446248
 30
0.0
 40
6.0
  1
HBG-D01
100
AcDbText
  0
TEXT
  5
E78F
330
1F
100
AcDbEntity
  8
図枠
  6
Continuous
100
AcDbText
 10
729.2118586409166
 20
86.41114155954936
 30
0.0
 40
6.0
  1
PDL2型
100
AcDbText
  0
TEXT
  5
E790
330
1F
100
AcDbEntity
  8
図枠
  6
Continuous
100
AcDbText
 10
583.5692257414172
 20
118.6158698110887
 30
0.0
 40
6.0
  1
4.5W
100
AcDbText
  0
TEXT
  5
E791
330
1F
100
AcDbEntity
  8
図枠
  6
Continuous
100
AcDbText
 10
559.5932960364688
 20
86.15255687878474
 30
0.0
 40
6.0
  1
モジュール：電球色
100
AcDbText
  0
TEXT
  5
E792
330
1F
100
AcDbEntity
  8
図枠
  6
Continuous
100
AcDbText
 10
581.0832002816965
 20
57.47678749072699
 30
0.0
 40
6.0
  1
約0.4㎏
100
AcDbText
  0
TEXT
  5
E793
330
1F
100
AcDbEntity
  8
図枠
  6
Continuous
100
AcDbText
 10
624.6184980706388
 20
26.39653477890063
 30
0.0
 40
6.0
  1
1 : 2
100
AcDbText
  0
TEXT
  5
E794
330
1F
100
AcDbEntity
  8
図枠
  6
Continuous
100
AcDbText
 10
479.2187968953685
 20
36.88956893086591
 30
0.0
 40
6.0
  1
岩下
100
AcDbText
  0
TEXT
  5
E795
330
1F
100
AcDbEntity
  8
図枠
  6
Continuous
100
AcDbText
 10
477.9123393016337
 20
57.43458520399881
 30
0.0
 40
6.0
  1
小林
100
AcDbText
  0
LINE
  5
E796
330
1F
100
AcDbEntity
  8
0
370
    13
100
AcDbLine
 10
414.8351765381889
 20
368.0464729873316
 30
0.0
 11
414.7502748786856
 21
369.0650111148841
 31
0.0
  0
LINE
  5
E797
330
1F
100
AcDbEntity
  8
0
370
    13
100
AcDbLine
 10
418.3486771130291
 20
371.2662548751845
 30
0.0
 11
418.3486771130291
 21
369.0650111148841
 31
0.0
  0
LINE
  5
E798
330
1F
100
AcDbEntity
  8
0
370
    13
100
AcDbLine
 10
414.3268726435483
 20
369.0650111148841
 30
0.0
 11
418.3486771130291
 21
369.0650111148841
 31
0.0
  0
LINE
  5
E799
330
1F
100
AcDbEntity
  8
0
370
    13
100
AcDbLine
 10
414.8350242276226
 20
368.0912548759783
 30
0.0
 11
414.7502748786856
 21
369.0650111148841
 31
0.0
  0
LINE
  5
E79A
330
1F
100
AcDbEntity
  8
0
370
    13
100
AcDbLine
 10
417.8405255289545
 20
371.2662548751845
 30
0.0
 11
417.8405255289545
 21
369.0650111148841
 31
0.0
  0
LINE
  5
E79B
330
1F
100
AcDbEntity
  8
0
370
    13
100
AcDbLine
 10
417.3327184544289
 20
371.2662548751845
 30
0.0
 11
417.3327184544289
 21
369.0650111148841
 31
0.0
  0
LINE
  5
E79C
330
1F
100
AcDbEntity
  8
0
370
    13
100
AcDbLine
 10
416.8245668703545
 20
371.2662548751845
 30
0.0
 11
416.8245668703545
 21
369.0650111148841
 31
0.0
  0
LINE
  5
E79D
330
1F
100
AcDbEntity
  8
0
370
    13
100
AcDbLine
 10
416.3587899607488
 20
371.2662548751845
 30
0.0
 11
416.3587899607488
 21
369.0650111148841
 31
0.0
  0
LINE
  5
E79E
330
1F
100
AcDbEntity
  8
0
370
    13
100
AcDbLine
 10
415.8509828862229
 20
371.2662548751845
 30
0.0
 11
415.8509828862229
 21
369.0650111148841
 31
0.0
  0
LINE
  5
E79F
330
1F
100
AcDbEntity
  8
0
370
    13
100
AcDbLine
 10
415.3428313021485
 20
371.2662548751845
 30
0.0
 11
415.3428313021485
 21
369.0650111148841
 31
0.0
  0
LINE
  5
E7A0
330
1F
100
AcDbEntity
  8
0
370
    13
100
AcDbLine
 10
414.8350242276226
 20
371.2662548751845
 30
0.0
 11
414.8350242276226
 21
369.0650111148841
 31
0.0
  0
LINE
  5
E7A1
330
1F
100
AcDbEntity
  8
0
370
    13
100
AcDbLine
 10
413.8190655690225
 20
368.0490524562839
 30
0.0
 11
413.9458450828797
 21
369.0650111148841
 31
0.0
  0
LINE
  5
E7A2
330
1F
100
AcDbEntity
  8
0
370
    13
100
AcDbLine
 10
410.3474428485363
 20
371.2662548751845
 30
0.0
 11
410.3474428485363
 21
369.0650111148841
 31
0.0
  0
LINE
  5
E7A3
330
1F
100
AcDbEntity
  8
0
370
    13
100
AcDbLine
 10
414.3268726435483
 20
369.0650111148841
 30
0.0
 11
410.3474428485363
 21
369.0650111148841
 31
0.0
  0
LINE
  5
E7A4
330
1F
100
AcDbEntity
  8
0
370
    13
100
AcDbLine
 10
413.8190655690225
 20
368.0912548759783
 30
0.0
 11
413.9458450828797
 21
369.0650111148841
 31
0.0
  0
LINE
  5
E7A5
330
1F
100
AcDbEntity
  8
0
370
    13
100
AcDbLine
 10
410.8555944326106
 20
371.2662548751845
 30
0.0
 11
410.8555944326106
 21
369.0650111148841
 31
0.0
  0
LINE
  5
E7A6
330
1F
100
AcDbEntity
  8
0
370
    13
100
AcDbLine
 10
411.3213713422164
 20
371.2662548751845
 30
0.0
 11
411.3213713422164
 21
369.0650111148841
 31
0.0
  0
LINE
  5
E7A7
330
1F
100
AcDbEntity
  8
0
370
    13
100
AcDbLine
 10
411.8291784167423
 20
371.2662548751845
 30
0.0
 11
411.8291784167423
 21
369.0650111148841
 31
0.0
  0
LINE
  5
E7A8
330
1F
100
AcDbEntity
  8
0
370
    13
100
AcDbLine
 10
412.3373300008165
 20
371.2662548751845
 30
0.0
 11
412.3373300008165
 21
369.0650111148841
 31
0.0
  0
LINE
  5
E7A9
330
1F
100
AcDbEntity
  8
0
370
    13
100
AcDbLine
 10
412.8451370753423
 20
371.2662548751845
 30
0.0
 11
412.8451370753423
 21
369.0650111148841
 31
0.0
  0
LINE
  5
E7AA
330
1F
100
AcDbEntity
  8
0
370
    13
100
AcDbLine
 10
413.3532886594166
 20
371.2662548751845
 30
0.0
 11
413.3532886594166
 21
369.0650111148841
 31
0.0
  0
LINE
  5
E7AB
330
1F
100
AcDbEntity
  8
0
370
    13
100
AcDbLine
 10
413.8190655690225
 20
371.2662548751845
 30
0.0
 11
413.8190655690225
 21
369.0650111148841
 31
0.0
  0
LINE
  5
E7AC
330
1F
100
AcDbEntity
  8
0
370
    13
100
AcDbLine
 10
414.3268726435483
 20
371.2662548751845
 30
0.0
 11
414.3268726435483
 21
369.0650111148841
 31
0.0
  0
LINE
  5
E7AD
330
1F
100
AcDbEntity
  8
0
370
    13
100
AcDbLine
 10
345.3227873763411
 20
312.120661158325
 30
0.0
 11
426.3486771130291
 21
312.120661158325
 31
0.0
  0
LINE
  5
E7AE
330
1F
100
AcDbEntity
  8
0
370
    13
100
AcDbLine
 10
345.3227873763411
 20
312.120661158325
 30
0.0
 11
345.1532886784668
 21
312.120661158325
 31
0.0
  0
LINE
  5
E7AF
330
1F
100
AcDbEntity
  8
0
370
    13
100
AcDbLine
 10
345.1532886784668
 20
312.120661158325
 30
0.0
 11
344.9417598156724
 21
312.0393569048731
 31
0.0
  0
LINE
  5
E7B0
330
1F
100
AcDbEntity
  8
0
370
    13
100
AcDbLine
 10
344.9417598156724
 20
312.0393569048731
 30
0.0
 11
344.7722611177982
 21
311.955296575033
 31
0.0
  0
LINE
  5
E7B1
330
1F
100
AcDbEntity
  8
0
370
    13
100
AcDbLine
 10
344.7722611177982
 20
311.955296575033
 30
0.0
 11
344.645481603941
 21
311.8278280420787
 31
0.0
  0
LINE
  5
E7B2
330
1F
100
AcDbEntity
  8
0
370
    13
100
AcDbLine
 10
344.645481603941
 20
311.8278280420787
 30
0.0
 11
344.5183575805353
 21
311.6590183633015
 31
0.0
  0
LINE
  5
E7B3
330
1F
100
AcDbEntity
  8
0
370
    13
100
AcDbLine
 10
344.5183575805353
 20
311.6590183633015
 30
0.0
 11
344.4336082315981
 21
311.4895196654272
 31
0.0
  0
LINE
  5
E7B4
330
1F
100
AcDbEntity
  8
0
370
    13
100
AcDbLine
 10
344.4336082315981
 20
311.4895196654272
 30
0.0
 11
344.3492033922095
 21
311.320020967553
 31
0.0
  0
LINE
  5
E7B5
330
1F
100
AcDbEntity
  8
0
370
    13
100
AcDbLine
 10
344.3492033922095
 20
311.320020967553
 30
0.0
 11
344.3492033922095
 21
311.1084921047585
 31
0.0
  0
LINE
  5
E7B6
330
1F
100
AcDbEntity
  8
0
370
    13
100
AcDbLine
 10
345.3227873763411
 20
230.120661158325
 30
0.0
 11
345.1532886784668
 21
230.120661158325
 31
0.0
  0
LINE
  5
E7B7
330
1F
100
AcDbEntity
  8
0
370
    13
100
AcDbLine
 10
345.1532886784668
 20
230.120661158325
 30
0.0
 11
344.9417598156724
 21
230.2019654117769
 31
0.0
  0
LINE
  5
E7B8
330
1F
100
AcDbEntity
  8
0
370
    13
100
AcDbLine
 10
344.9417598156724
 20
230.2019654117769
 30
0.0
 11
344.7722611177982
 21
230.286025741617
 31
0.0
  0
LINE
  5
E7B9
330
1F
100
AcDbEntity
  8
0
370
    13
100
AcDbLine
 10
344.7722611177982
 20
230.286025741617
 30
0.0
 11
344.645481603941
 21
230.4134942745712
 31
0.0
  0
LINE
  5
E7BA
330
1F
100
AcDbEntity
  8
0
370
    13
100
AcDbLine
 10
344.645481603941
 20
230.4134942745712
 30
0.0
 11
344.5183575805353
 21
230.5823039533485
 31
0.0
  0
LINE
  5
E7BB
330
1F
100
AcDbEntity
  8
0
370
    13
100
AcDbLine
 10
344.5183575805353
 20
230.5823039533485
 30
0.0
 11
344.4336082315981
 21
230.7518026512228
 31
0.0
  0
LINE
  5
E7BC
330
1F
100
AcDbEntity
  8
0
370
    13
100
AcDbLine
 10
344.4336082315981
 20
230.7518026512228
 30
0.0
 11
344.3492033922095
 21
230.9213013490971
 31
0.0
  0
LINE
  5
E7BD
330
1F
100
AcDbEntity
  8
0
370
    13
100
AcDbLine
 10
344.3492033922095
 20
230.9213013490971
 30
0.0
 11
344.3492033922095
 21
231.1328302118914
 31
0.0
  0
LINE
  5
E7BE
330
1F
100
AcDbEntity
  8
0
370
    13
100
AcDbLine
 10
346.8687020884962
 20
310.6600220425373
 30
0.0
 11
421.3750931288974
 21
310.6600220425373
 31
0.0
  0
LINE
  5
E7BF
330
1F
100
AcDbEntity
  8
0
370
    13
100
AcDbLine
 10
345.8523989203475
 20
271.120661158325
 30
0.0
 11
345.8523989203475
 21
309.6437188743886
 31
0.0
  0
LINE
  5
E7C0
330
1F
100
AcDbEntity
  8
0
370
    13
100
AcDbLine
 10
422.3486771130291
 20
309.6437188743886
 30
0.0
 11
422.3486771130291
 21
271.120661158325
 31
0.0
  0
LINE
  5
E7C1
330
1F
100
AcDbEntity
  8
0
370
    13
100
AcDbLine
 10
346.8687020884962
 20
310.6600220425373
 30
0.0
 11
346.6568287161533
 21
310.6179918776173
 31
0.0
  0
LINE
  5
E7C2
330
1F
100
AcDbEntity
  8
0
370
    13
100
AcDbLine
 10
346.6568287161533
 20
310.6179918776173
 30
0.0
 11
346.4876745278276
 21
310.5752726936003
 31
0.0
  0
LINE
  5
E7C3
330
1F
100
AcDbEntity
  8
0
370
    13
100
AcDbLine
 10
346.4876745278276
 20
310.5752726936003
 30
0.0
 11
346.3181758299532
 21
310.4905233446631
 31
0.0
  0
LINE
  5
E7C4
330
1F
100
AcDbEntity
  8
0
370
    13
100
AcDbLine
 10
346.3181758299532
 20
310.4905233446631
 30
0.0
 11
346.1486771320789
 21
310.3637438308058
 31
0.0
  0
LINE
  5
E7C5
330
1F
100
AcDbEntity
  8
0
370
    13
100
AcDbLine
 10
346.1486771320789
 20
310.3637438308058
 30
0.0
 11
346.0218976182218
 21
310.1942451329315
 31
0.0
  0
LINE
  5
E7C6
330
1F
100
AcDbEntity
  8
0
370
    13
100
AcDbLine
 10
346.0218976182218
 20
310.1942451329315
 30
0.0
 11
345.9371482692846
 21
310.021301339572
 31
0.0
  0
LINE
  5
E7C7
330
1F
100
AcDbEntity
  8
0
370
    13
100
AcDbLine
 10
345.9371482692846
 20
310.021301339572
 30
0.0
 11
345.8947735948161
 21
309.85593675628
 31
0.0
  0
LINE
  5
E7C8
330
1F
100
AcDbEntity
  8
0
370
    13
100
AcDbLine
 10
345.8947735948161
 20
309.85593675628
 30
0.0
 11
345.8523989203475
 21
309.6437188743886
 31
0.0
  0
LINE
  5
E7C9
330
1F
100
AcDbEntity
  8
0
370
    13
100
AcDbLine
 10
422.3486771130291
 20
309.6437188743886
 30
0.0
 11
422.3486771130291
 21
309.85593675628
 31
0.0
  0
LINE
  5
E7CA
330
1F
100
AcDbEntity
  8
0
370
    13
100
AcDbLine
 10
422.3486771130291
 20
309.85593675628
 30
0.0
 11
422.2642722736404
 21
310.021301339572
 31
0.0
  0
LINE
  5
E7CB
330
1F
100
AcDbEntity
  8
0
370
    13
100
AcDbLine
 10
422.2642722736404
 20
310.021301339572
 30
0.0
 11
422.1795229247032
 21
310.1942451329315
 31
0.0
  0
LINE
  5
E7CC
330
1F
100
AcDbEntity
  8
0
370
    13
100
AcDbLine
 10
422.1795229247032
 20
310.1942451329315
 30
0.0
 11
422.0523989012976
 21
310.3637438308058
 31
0.0
  0
LINE
  5
E7CD
330
1F
100
AcDbEntity
  8
0
370
    13
100
AcDbLine
 10
422.0523989012976
 20
310.3637438308058
 30
0.0
 11
421.9256193874403
 21
310.4905233446631
 31
0.0
  0
LINE
  5
E7CE
330
1F
100
AcDbEntity
  8
0
370
    13
100
AcDbLine
 10
421.9256193874403
 20
310.4905233446631
 30
0.0
 11
421.756120689566
 21
310.5752726936003
 31
0.0
  0
LINE
  5
E7CF
330
1F
100
AcDbEntity
  8
0
370
    13
100
AcDbLine
 10
421.756120689566
 20
310.5752726936003
 30
0.0
 11
421.5445918267718
 21
310.6179918776173
 31
0.0
  0
LINE
  5
E7D0
330
1F
100
AcDbEntity
  8
0
370
    13
100
AcDbLine
 10
421.5445918267718
 20
310.6179918776173
 30
0.0
 11
421.3750931288974
 21
310.6600220425373
 31
0.0
  0
LINE
  5
E7D1
330
1F
100
AcDbEntity
  8
0
370
    13
100
AcDbLine
 10
347.376509163022
 20
310.1522149680115
 30
0.0
 11
411.8500931312786
 21
310.1522149680115
 31
0.0
  0
LINE
  5
E7D2
330
1F
100
AcDbEntity
  8
0
370
    13
100
AcDbLine
 10
347.376509163022
 20
310.1522149680115
 30
0.0
 11
346.3605505044218
 21
309.1359117998628
 31
0.0
  0
LINE
  5
E7D3
330
1F
100
AcDbEntity
  8
0
370
    13
100
AcDbLine
 10
421.8408700385031
 20
300.1614380607871
 30
0.0
 11
421.8408700385031
 21
271.120661158325
 31
0.0
  0
LINE
  5
E7D4
330
1F
100
AcDbEntity
  8
0
370
    13
100
AcDbLine
 10
421.8408700385031
 20
300.1614380607871
 30
0.0
 11
411.8500931312786
 21
310.1522149680115
 31
0.0
  0
LINE
  5
E7D5
330
1F
100
AcDbEntity
  8
0
370
    13
100
AcDbLine
 10
346.3605505044218
 20
271.120661158325
 30
0.0
 11
346.3605505044218
 21
309.1359117998628
 31
0.0
  0
LINE
  5
E7D6
330
1F
100
AcDbEntity
  8
0
370
    13
100
AcDbLine
 10
418.3695918275654
 20
271.120661158325
 30
0.0
 11
418.2848424786283
 21
271.9213013490971
 31
0.0
  0
LINE
  5
E7D7
330
1F
100
AcDbEntity
  8
0
370
    13
100
AcDbLine
 10
418.2848424786283
 20
271.9213013490971
 30
0.0
 11
418.0733136158339
 21
272.6868015659196
 31
0.0
  0
LINE
  5
E7D8
330
1F
100
AcDbEntity
  8
0
370
    13
100
AcDbLine
 10
418.0733136158339
 20
272.6868015659196
 30
0.0
 11
417.6922860551653
 21
273.3641073383196
 31
0.0
  0
LINE
  5
E7D9
330
1F
100
AcDbEntity
  8
0
370
    13
100
AcDbLine
 10
417.6922860551653
 20
273.3641073383196
 30
0.0
 11
417.1841344710909
 21
273.9566637617826
 31
0.0
  0
LINE
  5
E7DA
330
1F
100
AcDbEntity
  8
0
370
    13
100
AcDbLine
 10
417.1841344710909
 20
273.9566637617826
 30
0.0
 11
416.591578047628
 21
274.4651598554055
 31
0.0
  0
LINE
  5
E7DB
330
1F
100
AcDbEntity
  8
0
370
    13
100
AcDbLine
 10
416.591578047628
 20
274.4651598554055
 30
0.0
 11
415.8718976007593
 21
274.8461874160741
 31
0.0
  0
LINE
  5
E7DC
330
1F
100
AcDbEntity
  8
0
370
    13
100
AcDbLine
 10
415.8718976007593
 20
274.8461874160741
 30
0.0
 11
415.1522171538905
 21
275.0577162788686
 31
0.0
  0
LINE
  5
E7DD
330
1F
100
AcDbEntity
  8
0
370
    13
100
AcDbLine
 10
415.1522171538905
 20
275.0577162788686
 30
0.0
 11
414.3477873580848
 21
275.1424656278056
 31
0.0
  0
LINE
  5
E7DE
330
1F
100
AcDbEntity
  8
0
370
    13
100
AcDbLine
 10
414.3477873580848
 20
275.1424656278056
 30
0.0
 11
413.5857322367476
 21
275.0577162788686
 31
0.0
  0
LINE
  5
E7DF
330
1F
100
AcDbEntity
  8
0
370
    13
100
AcDbLine
 10
413.5857322367476
 20
275.0577162788686
 30
0.0
 11
412.8236771154102
 21
274.8461874160741
 31
0.0
  0
LINE
  5
E7E0
330
1F
100
AcDbEntity
  8
0
370
    13
100
AcDbLine
 10
412.8236771154102
 20
274.8461874160741
 30
0.0
 11
412.1463713430101
 21
274.4651598554055
 31
0.0
  0
LINE
  5
E7E1
330
1F
100
AcDbEntity
  8
0
370
    13
100
AcDbLine
 10
412.1463713430101
 20
274.4651598554055
 30
0.0
 11
411.5114402450785
 21
273.9566637617826
 31
0.0
  0
LINE
  5
E7E2
330
1F
100
AcDbEntity
  8
0
370
    13
100
AcDbLine
 10
411.5114402450785
 20
273.9566637617826
 30
0.0
 11
411.0456633354729
 21
273.3641073383196
 31
0.0
  0
LINE
  5
E7E3
330
1F
100
AcDbEntity
  8
0
370
    13
100
AcDbLine
 10
411.0456633354729
 20
273.3641073383196
 30
0.0
 11
410.6649802843527
 21
272.6868015659196
 31
0.0
  0
LINE
  5
E7E4
330
1F
100
AcDbEntity
  8
0
370
    13
100
AcDbLine
 10
410.6649802843527
 20
272.6868015659196
 30
0.0
 11
410.4531069120098
 21
271.9213013490971
 31
0.0
  0
LINE
  5
E7E5
330
1F
100
AcDbEntity
  8
0
370
    13
100
AcDbLine
 10
410.4531069120098
 20
271.9213013490971
 30
0.0
 11
410.3683575630727
 21
271.120661158325
 31
0.0
  0
LINE
  5
E7E6
330
1F
100
AcDbEntity
  8
0
370
    13
100
AcDbLine
 10
413.8399802835589
 20
275.0963013483033
 30
0.0
 11
413.8399802835589
 21
271.120661158325
 31
0.0
  0
LINE
  5
E7E7
330
1F
100
AcDbEntity
  8
0
370
    13
100
AcDbLine
 10
414.8559389421591
 20
275.0963013483033
 30
0.0
 11
414.8559389421591
 21
271.120661158325
 31
0.0
  0
LINE
  5
E7E8
330
1F
100
AcDbEntity
  8
0
370
    13
100
AcDbLine
 10
346.8687020884962
 20
231.5813002741127
 30
0.0
 11
421.3750931288974
 21
231.5813002741127
 31
0.0
  0
LINE
  5
E7E9
330
1F
100
AcDbEntity
  8
0
370
    13
100
AcDbLine
 10
345.8523989203475
 20
271.120661158325
 30
0.0
 11
345.8523989203475
 21
232.5976034422613
 31
0.0
  0
LINE
  5
E7EA
330
1F
100
AcDbEntity
  8
0
370
    13
100
AcDbLine
 10
422.3486771130291
 20
232.5976034422613
 30
0.0
 11
422.3486771130291
 21
271.120661158325
 31
0.0
  0
LINE
  5
E7EB
330
1F
100
AcDbEntity
  8
0
370
    13
100
AcDbLine
 10
346.8687020884962
 20
231.5813002741127
 30
0.0
 11
346.6568287161533
 21
231.6233304390327
 31
0.0
  0
LINE
  5
E7EC
330
1F
100
AcDbEntity
  8
0
370
    13
100
AcDbLine
 10
346.6568287161533
 20
231.6233304390327
 30
0.0
 11
346.4876745278276
 21
231.6660496230497
 31
0.0
  0
LINE
  5
E7ED
330
1F
100
AcDbEntity
  8
0
370
    13
100
AcDbLine
 10
346.4876745278276
 20
231.6660496230497
 30
0.0
 11
346.3181758299532
 21
231.7507989719869
 31
0.0
  0
LINE
  5
E7EE
330
1F
100
AcDbEntity
  8
0
370
    13
100
AcDbLine
 10
346.3181758299532
 20
231.7507989719869
 30
0.0
 11
346.1486771320789
 21
231.8775784858441
 31
0.0
  0
LINE
  5
E7EF
330
1F
100
AcDbEntity
  8
0
370
    13
100
AcDbLine
 10
346.1486771320789
 20
231.8775784858441
 30
0.0
 11
346.0218976182218
 21
232.0470771837184
 31
0.0
  0
LINE
  5
E7F0
330
1F
100
AcDbEntity
  8
0
370
    13
100
AcDbLine
 10
346.0218976182218
 20
232.0470771837184
 30
0.0
 11
345.9371482692846
 21
232.220020977078
 31
0.0
  0
LINE
  5
E7F1
330
1F
100
AcDbEntity
  8
0
370
    13
100
AcDbLine
 10
345.9371482692846
 20
232.220020977078
 30
0.0
 11
345.8947735948161
 21
232.38538556037
 31
0.0
  0
LINE
  5
E7F2
330
1F
100
AcDbEntity
  8
0
370
    13
100
AcDbLine
 10
345.8947735948161
 20
232.38538556037
 30
0.0
 11
345.8523989203475
 21
232.5976034422613
 31
0.0
  0
LINE
  5
E7F3
330
1F
100
AcDbEntity
  8
0
370
    13
100
AcDbLine
 10
422.3486771130291
 20
232.5976034422613
 30
0.0
 11
422.3486771130291
 21
232.38538556037
 31
0.0
  0
LINE
  5
E7F4
330
1F
100
AcDbEntity
  8
0
370
    13
100
AcDbLine
 10
422.3486771130291
 20
232.38538556037
 30
0.0
 11
422.2642722736404
 21
232.220020977078
 31
0.0
  0
LINE
  5
E7F5
330
1F
100
AcDbEntity
  8
0
370
    13
100
AcDbLine
 10
422.2642722736404
 20
232.220020977078
 30
0.0
 11
422.1795229247032
 21
232.0470771837184
 31
0.0
  0
LINE
  5
E7F6
330
1F
100
AcDbEntity
  8
0
370
    13
100
AcDbLine
 10
422.1795229247032
 20
232.0470771837184
 30
0.0
 11
422.0523989012976
 21
231.8775784858441
 31
0.0
  0
LINE
  5
E7F7
330
1F
100
AcDbEntity
  8
0
370
    13
100
AcDbLine
 10
422.0523989012976
 20
231.8775784858441
 30
0.0
 11
421.9256193874403
 21
231.7507989719869
 31
0.0
  0
LINE
  5
E7F8
330
1F
100
AcDbEntity
  8
0
370
    13
100
AcDbLine
 10
421.9256193874403
 20
231.7507989719869
 30
0.0
 11
421.756120689566
 21
231.6660496230497
 31
0.0
  0
LINE
  5
E7F9
330
1F
100
AcDbEntity
  8
0
370
    13
100
AcDbLine
 10
421.756120689566
 20
231.6660496230497
 30
0.0
 11
421.5445918267718
 21
231.6233304390327
 31
0.0
  0
LINE
  5
E7FA
330
1F
100
AcDbEntity
  8
0
370
    13
100
AcDbLine
 10
421.5445918267718
 20
231.6233304390327
 30
0.0
 11
421.3750931288974
 21
231.5813002741127
 31
0.0
  0
LINE
  5
E7FB
330
1F
100
AcDbEntity
  8
0
370
    13
100
AcDbLine
 10
347.376509163022
 20
232.0891073486384
 30
0.0
 11
411.8500931312786
 21
232.0891073486384
 31
0.0
  0
LINE
  5
E7FC
330
1F
100
AcDbEntity
  8
0
370
    13
100
AcDbLine
 10
347.376509163022
 20
232.0891073486384
 30
0.0
 11
346.3605505044218
 21
233.1054105167872
 31
0.0
  0
LINE
  5
E7FD
330
1F
100
AcDbEntity
  8
0
370
    13
100
AcDbLine
 10
421.8408700385031
 20
242.079884255863
 30
0.0
 11
421.8408700385031
 21
271.120661158325
 31
0.0
  0
LINE
  5
E7FE
330
1F
100
AcDbEntity
  8
0
370
    13
100
AcDbLine
 10
421.8408700385031
 20
242.079884255863
 30
0.0
 11
411.8500931312786
 21
232.0891073486384
 31
0.0
  0
LINE
  5
E7FF
330
1F
100
AcDbEntity
  8
0
370
    13
100
AcDbLine
 10
346.3605505044218
 20
271.120661158325
 30
0.0
 11
346.3605505044218
 21
233.1054105167872
 31
0.0
  0
LINE
  5
E800
330
1F
100
AcDbEntity
  8
0
370
    13
100
AcDbLine
 10
418.3695918275654
 20
271.120661158325
 30
0.0
 11
418.2848424786283
 21
270.3200209675529
 31
0.0
  0
LINE
  5
E801
330
1F
100
AcDbEntity
  8
0
370
    13
100
AcDbLine
 10
418.2848424786283
 20
270.3200209675529
 30
0.0
 11
418.0733136158339
 21
269.5545207507304
 31
0.0
  0
LINE
  5
E802
330
1F
100
AcDbEntity
  8
0
370
    13
100
AcDbLine
 10
418.0733136158339
 20
269.5545207507304
 30
0.0
 11
417.6922860551653
 21
268.8772149783303
 31
0.0
  0
LINE
  5
E803
330
1F
100
AcDbEntity
  8
0
370
    13
100
AcDbLine
 10
417.6922860551653
 20
268.8772149783303
 30
0.0
 11
417.1841344710909
 21
268.2846585548673
 31
0.0
  0
LINE
  5
E804
330
1F
100
AcDbEntity
  8
0
370
    13
100
AcDbLine
 10
417.1841344710909
 20
268.2846585548673
 30
0.0
 11
416.591578047628
 21
267.7761624612445
 31
0.0
  0
LINE
  5
E805
330
1F
100
AcDbEntity
  8
0
370
    13
100
AcDbLine
 10
416.591578047628
 20
267.7761624612445
 30
0.0
 11
415.8718976007593
 21
267.3951349005758
 31
0.0
  0
LINE
  5
E806
330
1F
100
AcDbEntity
  8
0
370
    13
100
AcDbLine
 10
415.8718976007593
 20
267.3951349005758
 30
0.0
 11
415.1522171538905
 21
267.1836060377815
 31
0.0
  0
LINE
  5
E807
330
1F
100
AcDbEntity
  8
0
370
    13
100
AcDbLine
 10
415.1522171538905
 20
267.1836060377815
 30
0.0
 11
414.3477873580848
 21
267.0988566888444
 31
0.0
  0
LINE
  5
E808
330
1F
100
AcDbEntity
  8
0
370
    13
100
AcDbLine
 10
414.3477873580848
 20
267.0988566888444
 30
0.0
 11
413.5857322367476
 21
267.1836060377815
 31
0.0
  0
LINE
  5
E809
330
1F
100
AcDbEntity
  8
0
370
    13
100
AcDbLine
 10
413.5857322367476
 20
267.1836060377815
 30
0.0
 11
412.8236771154102
 21
267.3951349005758
 31
0.0
  0
LINE
  5
E80A
330
1F
100
AcDbEntity
  8
0
370
    13
100
AcDbLine
 10
412.8236771154102
 20
267.3951349005758
 30
0.0
 11
412.1463713430101
 21
267.7761624612445
 31
0.0
  0
LINE
  5
E80B
330
1F
100
AcDbEntity
  8
0
370
    13
100
AcDbLine
 10
412.1463713430101
 20
267.7761624612445
 30
0.0
 11
411.5114402450785
 21
268.2846585548673
 31
0.0
  0
LINE
  5
E80C
330
1F
100
AcDbEntity
  8
0
370
    13
100
AcDbLine
 10
411.5114402450785
 20
268.2846585548673
 30
0.0
 11
411.0456633354729
 21
268.8772149783303
 31
0.0
  0
LINE
  5
E80D
330
1F
100
AcDbEntity
  8
0
370
    13
100
AcDbLine
 10
411.0456633354729
 20
268.8772149783303
 30
0.0
 11
410.6649802843527
 21
269.5545207507304
 31
0.0
  0
LINE
  5
E80E
330
1F
100
AcDbEntity
  8
0
370
    13
100
AcDbLine
 10
410.6649802843527
 20
269.5545207507304
 30
0.0
 11
410.4531069120098
 21
270.3200209675529
 31
0.0
  0
LINE
  5
E80F
330
1F
100
AcDbEntity
  8
0
370
    13
100
AcDbLine
 10
410.4531069120098
 20
270.3200209675529
 30
0.0
 11
410.3683575630727
 21
271.120661158325
 31
0.0
  0
LINE
  5
E810
330
1F
100
AcDbEntity
  8
0
370
    13
100
AcDbLine
 10
413.8399802835589
 20
267.1450209683467
 30
0.0
 11
413.8399802835589
 21
271.120661158325
 31
0.0
  0
LINE
  5
E811
330
1F
100
AcDbEntity
  8
0
370
    13
100
AcDbLine
 10
414.8559389421591
 20
267.1450209683467
 30
0.0
 11
414.8559389421591
 21
271.120661158325
 31
0.0
  0
LINE
  5
E812
330
1F
100
AcDbEntity
  8
0
370
    13
100
AcDbLine
 10
481.3124601316541
 20
452.305524143521
 30
0.0
 11
481.3544902965742
 21
452.4748505866211
 31
0.0
  0
LINE
  5
E813
330
1F
100
AcDbEntity
  8
0
370
    13
100
AcDbLine
 10
481.3544902965742
 20
452.4748505866211
 30
0.0
 11
481.3972094805912
 21
452.6865517041896
 31
0.0
  0
LINE
  5
E814
330
1F
100
AcDbEntity
  8
0
370
    13
100
AcDbLine
 10
481.3972094805912
 20
452.6865517041896
 30
0.0
 11
481.4816143199799
 21
452.8558781472897
 31
0.0
  0
LINE
  5
E815
330
1F
100
AcDbEntity
  8
0
370
    13
100
AcDbLine
 10
481.4816143199799
 20
452.8558781472897
 30
0.0
 11
481.6087383433857
 21
452.9828299159211
 31
0.0
  0
LINE
  5
E816
330
1F
100
AcDbEntity
  8
0
370
    13
100
AcDbLine
 10
481.6087383433857
 20
452.9828299159211
 30
0.0
 11
481.7782370412599
 21
453.1097816845526
 31
0.0
  0
LINE
  5
E817
330
1F
100
AcDbEntity
  8
0
370
    13
100
AcDbLine
 10
481.7782370412599
 20
453.1097816845526
 30
0.0
 11
481.9473912295857
 21
453.1945310334897
 31
0.0
  0
LINE
  5
E818
330
1F
100
AcDbEntity
  8
0
370
    13
100
AcDbLine
 10
481.9473912295857
 20
453.1945310334897
 30
0.0
 11
482.1165454179114
 21
453.2369057079584
 31
0.0
  0
LINE
  5
E819
330
1F
100
AcDbEntity
  8
0
370
    13
100
AcDbLine
 10
482.1165454179114
 20
453.2369057079584
 30
0.0
 11
482.3284187902543
 21
453.2792803824268
 31
0.0
  0
LINE
  5
E81A
330
1F
100
AcDbEntity
  8
0
370
    13
100
AcDbLine
 10
563.2750074824773
 20
452.305524143521
 30
0.0
 11
563.2329773175572
 21
452.4748505866211
 31
0.0
  0
LINE
  5
E81B
330
1F
100
AcDbEntity
  8
0
370
    13
100
AcDbLine
 10
563.2329773175572
 20
452.4748505866211
 30
0.0
 11
563.1902581335403
 21
452.6865517041896
 31
0.0
  0
LINE
  5
E81C
330
1F
100
AcDbEntity
  8
0
370
    13
100
AcDbLine
 10
563.1902581335403
 20
452.6865517041896
 30
0.0
 11
563.1058532941515
 21
452.8558781472897
 31
0.0
  0
LINE
  5
E81D
330
1F
100
AcDbEntity
  8
0
370
    13
100
AcDbLine
 10
563.1058532941515
 20
452.8558781472897
 30
0.0
 11
562.9787292707458
 21
452.9828299159211
 31
0.0
  0
LINE
  5
E81E
330
1F
100
AcDbEntity
  8
0
370
    13
100
AcDbLine
 10
562.9787292707458
 20
452.9828299159211
 30
0.0
 11
562.8092305728717
 21
453.1097816845526
 31
0.0
  0
LINE
  5
E81F
330
1F
100
AcDbEntity
  8
0
370
    13
100
AcDbLine
 10
562.8092305728717
 20
453.1097816845526
 30
0.0
 11
562.6400763845459
 21
453.1945310334897
 31
0.0
  0
LINE
  5
E820
330
1F
100
AcDbEntity
  8
0
370
    13
100
AcDbLine
 10
562.6400763845459
 20
453.1945310334897
 30
0.0
 11
562.47092219622
 21
453.2369057079584
 31
0.0
  0
LINE
  5
E821
330
1F
100
AcDbEntity
  8
0
370
    13
100
AcDbLine
 10
562.47092219622
 20
453.2369057079584
 30
0.0
 11
562.2590488238773
 21
453.2792803824268
 31
0.0
  0
LINE
  5
E822
330
1F
100
AcDbEntity
  8
0
370
    13
100
AcDbLine
 10
532.28451071429
 20
410.742230759897
 30
0.0
 11
532.28451071429
 21
410.2766261050655
 31
0.0
  0
LINE
  5
E823
330
1F
100
AcDbEntity
  8
0
370
    13
100
AcDbLine
 10
532.28451071429
 20
410.2766261050655
 30
0.0
 11
532.2421360398216
 21
409.7686467757654
 31
0.0
  0
LINE
  5
E824
330
1F
100
AcDbEntity
  8
0
370
    13
100
AcDbLine
 10
532.2421360398216
 20
409.7686467757654
 30
0.0
 11
532.199761365353
 21
409.3028698661597
 31
0.0
  0
LINE
  5
E825
330
1F
100
AcDbEntity
  8
0
370
    13
100
AcDbLine
 10
532.199761365353
 20
409.3028698661597
 30
0.0
 11
532.1153565259642
 21
408.7948905368595
 31
0.0
  0
LINE
  5
E826
330
1F
100
AcDbEntity
  8
0
370
    13
100
AcDbLine
 10
532.1153565259642
 20
408.7948905368595
 30
0.0
 11
531.9882325025587
 21
408.329285882028
 31
0.0
  0
LINE
  5
E827
330
1F
100
AcDbEntity
  8
0
370
    13
100
AcDbLine
 10
531.9882325025587
 20
408.329285882028
 30
0.0
 11
531.861108479153
 21
407.8635089724222
 31
0.0
  0
LINE
  5
E828
330
1F
100
AcDbEntity
  8
0
370
    13
100
AcDbLine
 10
531.861108479153
 20
407.8635089724222
 30
0.0
 11
531.6919542908272
 21
407.3979043175907
 31
0.0
  0
LINE
  5
E829
330
1F
100
AcDbEntity
  8
0
370
    13
100
AcDbLine
 10
531.6919542908272
 20
407.3979043175907
 30
0.0
 11
531.5224555929528
 21
406.9322996627592
 31
0.0
  0
LINE
  5
E82A
330
1F
100
AcDbEntity
  8
0
370
    13
100
AcDbLine
 10
531.5224555929528
 20
406.9322996627592
 30
0.0
 11
531.3109267301586
 21
406.4665227531534
 31
0.0
  0
LINE
  5
E82B
330
1F
100
AcDbEntity
  8
0
370
    13
100
AcDbLine
 10
531.3109267301586
 20
406.4665227531534
 30
0.0
 11
531.0993978673641
 21
406.0432927727906
 31
0.0
  0
LINE
  5
E82C
330
1F
100
AcDbEntity
  8
0
370
    13
100
AcDbLine
 10
531.0993978673641
 20
406.0432927727906
 30
0.0
 11
530.8875244950215
 21
405.6198905376533
 31
0.0
  0
LINE
  5
E82D
330
1F
100
AcDbEntity
  8
0
370
    13
100
AcDbLine
 10
530.8875244950215
 20
405.6198905376533
 30
0.0
 11
530.5912462832898
 21
405.1966605572903
 31
0.0
  0
LINE
  5
E82E
330
1F
100
AcDbEntity
  8
0
370
    13
100
AcDbLine
 10
530.5912462832898
 20
405.1966605572903
 30
0.0
 11
530.3373427460269
 21
404.8156329966217
 31
0.0
  0
LINE
  5
E82F
330
1F
100
AcDbEntity
  8
0
370
    13
100
AcDbLine
 10
530.3373427460269
 20
404.8156329966217
 30
0.0
 11
530.0410645342954
 21
404.4346054359531
 31
0.0
  0
LINE
  5
E830
330
1F
100
AcDbEntity
  8
0
370
    13
100
AcDbLine
 10
530.0410645342954
 20
404.4346054359531
 30
0.0
 11
529.7024116480952
 21
404.0535778752844
 31
0.0
  0
LINE
  5
E831
330
1F
100
AcDbEntity
  8
0
370
    13
100
AcDbLine
 10
529.7024116480952
 20
404.0535778752844
 30
0.0
 11
529.3637587618953
 21
403.6725503146158
 31
0.0
  0
LINE
  5
E832
330
1F
100
AcDbEntity
  8
0
370
    13
100
AcDbLine
 10
529.3637587618953
 20
403.6725503146158
 30
0.0
 11
529.0247613661468
 21
403.3338974284158
 31
0.0
  0
LINE
  5
E833
330
1F
100
AcDbEntity
  8
0
370
    13
100
AcDbLine
 10
529.0247613661468
 20
403.3338974284158
 30
0.0
 11
528.6440783150267
 21
403.0376192166843
 31
0.0
  0
LINE
  5
E834
330
1F
100
AcDbEntity
  8
0
370
    13
100
AcDbLine
 10
528.6440783150267
 20
403.0376192166843
 30
0.0
 11
528.2630507543579
 21
402.744786100438
 31
0.0
  0
LINE
  5
E835
330
1F
100
AcDbEntity
  8
0
370
    13
100
AcDbLine
 10
528.2630507543579
 20
402.744786100438
 30
0.0
 11
527.8396485192209
 21
402.444890538447
 31
0.0
  0
LINE
  5
E836
330
1F
100
AcDbEntity
  8
0
370
    13
100
AcDbLine
 10
527.8396485192209
 20
402.444890538447
 30
0.0
 11
527.4162462840836
 21
402.1909870011841
 31
0.0
  0
LINE
  5
E837
330
1F
100
AcDbEntity
  8
0
370
    13
100
AcDbLine
 10
527.4162462840836
 20
402.1909870011841
 30
0.0
 11
526.9928440489464
 21
401.936911209147
 31
0.0
  0
LINE
  5
E838
330
1F
100
AcDbEntity
  8
0
370
    13
100
AcDbLine
 10
526.9928440489464
 20
401.936911209147
 30
0.0
 11
526.5694418138091
 21
401.7252100915783
 31
0.0
  0
LINE
  5
E839
330
1F
100
AcDbEntity
  8
0
370
    13
100
AcDbLine
 10
526.5694418138091
 20
401.7252100915783
 30
0.0
 11
526.104009413752
 21
401.5135089740097
 31
0.0
  0
LINE
  5
E83A
330
1F
100
AcDbEntity
  8
0
370
    13
100
AcDbLine
 10
526.104009413752
 20
401.5135089740097
 30
0.0
 11
525.6806071786149
 21
401.344354785684
 31
0.0
  0
LINE
  5
E83B
330
1F
100
AcDbEntity
  8
0
370
    13
100
AcDbLine
 10
525.6806071786149
 20
401.344354785684
 30
0.0
 11
525.1724555945402
 21
401.1748560878098
 31
0.0
  0
LINE
  5
E83C
330
1F
100
AcDbEntity
  8
0
370
    13
100
AcDbLine
 10
525.1724555945402
 20
401.1748560878098
 30
0.0
 11
524.7070231944831
 21
401.0479043191782
 31
0.0
  0
LINE
  5
E83D
330
1F
100
AcDbEntity
  8
0
370
    13
100
AcDbLine
 10
524.7070231944831
 20
401.0479043191782
 30
0.0
 11
524.2412462848774
 21
400.9633272250153
 31
0.0
  0
LINE
  5
E83E
330
1F
100
AcDbEntity
  8
0
370
    13
100
AcDbLine
 10
524.2412462848774
 20
400.9633272250153
 30
0.0
 11
523.7754693752715
 21
400.8785778760782
 31
0.0
  0
LINE
  5
E83F
330
1F
100
AcDbEntity
  8
0
370
    13
100
AcDbLine
 10
523.7754693752715
 20
400.8785778760782
 30
0.0
 11
523.2676623007458
 21
400.793828527141
 31
0.0
  0
LINE
  5
E840
330
1F
100
AcDbEntity
  8
0
370
    13
100
AcDbLine
 10
523.2676623007458
 20
400.793828527141
 30
0.0
 11
522.8018853911399
 21
400.7516261074467
 31
0.0
  0
LINE
  5
E841
330
1F
100
AcDbEntity
  8
0
370
    13
100
AcDbLine
 10
522.8018853911399
 20
400.7516261074467
 30
0.0
 11
522.2940783166141
 21
400.7516261074467
 31
0.0
  0
LINE
  5
E842
330
1F
100
AcDbEntity
  8
0
370
    13
100
AcDbLine
 10
522.2940783166141
 20
400.7516261074467
 30
0.0
 11
521.7859267325398
 21
400.7516261074467
 31
0.0
  0
LINE
  5
E843
330
1F
100
AcDbEntity
  8
0
370
    13
100
AcDbLine
 10
521.7859267325398
 20
400.7516261074467
 30
0.0
 11
521.3201498229341
 21
400.793828527141
 31
0.0
  0
LINE
  5
E844
330
1F
100
AcDbEntity
  8
0
370
    13
100
AcDbLine
 10
521.3201498229341
 20
400.793828527141
 30
0.0
 11
520.8123427484081
 21
400.8785778760782
 31
0.0
  0
LINE
  5
E845
330
1F
100
AcDbEntity
  8
0
370
    13
100
AcDbLine
 10
520.8123427484081
 20
400.8785778760782
 30
0.0
 11
520.3465658388022
 21
400.9633272250153
 31
0.0
  0
LINE
  5
E846
330
1F
100
AcDbEntity
  8
0
370
    13
100
AcDbLine
 10
520.3465658388022
 20
400.9633272250153
 30
0.0
 11
519.8807889291966
 21
401.0479043191782
 31
0.0
  0
LINE
  5
E847
330
1F
100
AcDbEntity
  8
0
370
    13
100
AcDbLine
 10
519.8807889291966
 20
401.0479043191782
 30
0.0
 11
519.3729818546708
 21
401.1748560878098
 31
0.0
  0
LINE
  5
E848
330
1F
100
AcDbEntity
  8
0
370
    13
100
AcDbLine
 10
519.3729818546708
 20
401.1748560878098
 30
0.0
 11
518.9072049450651
 21
401.344354785684
 31
0.0
  0
LINE
  5
E849
330
1F
100
AcDbEntity
  8
0
370
    13
100
AcDbLine
 10
518.9072049450651
 20
401.344354785684
 30
0.0
 11
518.4838027099279
 21
401.5135089740097
 31
0.0
  0
LINE
  5
E84A
330
1F
100
AcDbEntity
  8
0
370
    13
100
AcDbLine
 10
518.4838027099279
 20
401.5135089740097
 30
0.0
 11
518.0183703098705
 21
401.7252100915783
 31
0.0
  0
LINE
  5
E84B
330
1F
100
AcDbEntity
  8
0
370
    13
100
AcDbLine
 10
518.0183703098705
 20
401.7252100915783
 30
0.0
 11
517.5949680747333
 21
401.936911209147
 31
0.0
  0
LINE
  5
E84C
330
1F
100
AcDbEntity
  8
0
370
    13
100
AcDbLine
 10
517.5949680747333
 20
401.936911209147
 30
0.0
 11
517.1291911651276
 21
402.1909870011841
 31
0.0
  0
LINE
  5
E84D
330
1F
100
AcDbEntity
  8
0
370
    13
100
AcDbLine
 10
517.1291911651276
 20
402.1909870011841
 30
0.0
 11
516.748163604459
 21
402.444890538447
 31
0.0
  0
LINE
  5
E84E
330
1F
100
AcDbEntity
  8
0
370
    13
100
AcDbLine
 10
516.748163604459
 20
402.444890538447
 30
0.0
 11
516.3247613693218
 21
402.744786100438
 31
0.0
  0
LINE
  5
E84F
330
1F
100
AcDbEntity
  8
0
370
    13
100
AcDbLine
 10
516.3247613693218
 20
402.744786100438
 30
0.0
 11
515.9440783182017
 21
403.0376192166843
 31
0.0
  0
LINE
  5
E850
330
1F
100
AcDbEntity
  8
0
370
    13
100
AcDbLine
 10
515.9440783182017
 20
403.0376192166843
 30
0.0
 11
515.5630507575329
 21
403.3338974284158
 31
0.0
  0
LINE
  5
E851
330
1F
100
AcDbEntity
  8
0
370
    13
100
AcDbLine
 10
515.5630507575329
 20
403.3338974284158
 30
0.0
 11
515.2243978713329
 21
403.6725503146158
 31
0.0
  0
LINE
  5
E852
330
1F
100
AcDbEntity
  8
0
370
    13
100
AcDbLine
 10
515.2243978713329
 20
403.6725503146158
 30
0.0
 11
514.885744985133
 21
404.0535778752844
 31
0.0
  0
LINE
  5
E853
330
1F
100
AcDbEntity
  8
0
370
    13
100
AcDbLine
 10
514.885744985133
 20
404.0535778752844
 30
0.0
 11
514.5470920989328
 21
404.4346054359531
 31
0.0
  0
LINE
  5
E854
330
1F
100
AcDbEntity
  8
0
370
    13
100
AcDbLine
 10
514.5470920989328
 20
404.4346054359531
 30
0.0
 11
514.2504693776527
 21
404.8156329966217
 31
0.0
  0
LINE
  5
E855
330
1F
100
AcDbEntity
  8
0
370
    13
100
AcDbLine
 10
514.2504693776527
 20
404.8156329966217
 30
0.0
 11
513.99656584039
 21
405.1966605572903
 31
0.0
  0
LINE
  5
E856
330
1F
100
AcDbEntity
  8
0
370
    13
100
AcDbLine
 10
513.99656584039
 20
405.1966605572903
 30
0.0
 11
513.7002876286583
 21
405.6198905376533
 31
0.0
  0
LINE
  5
E857
330
1F
100
AcDbEntity
  8
0
370
    13
100
AcDbLine
 10
513.7002876286583
 20
405.6198905376533
 30
0.0
 11
513.4887587658642
 21
406.0432927727906
 31
0.0
  0
LINE
  5
E858
330
1F
100
AcDbEntity
  8
0
370
    13
100
AcDbLine
 10
513.4887587658642
 20
406.0432927727906
 30
0.0
 11
513.2345107190528
 21
406.4665227531534
 31
0.0
  0
LINE
  5
E859
330
1F
100
AcDbEntity
  8
0
370
    13
100
AcDbLine
 10
513.2345107190528
 20
406.4665227531534
 30
0.0
 11
513.0653565307268
 21
406.9322996627592
 31
0.0
  0
LINE
  5
E85A
330
1F
100
AcDbEntity
  8
0
370
    13
100
AcDbLine
 10
513.0653565307268
 20
406.9322996627592
 30
0.0
 11
512.8958578328526
 21
407.3979043175907
 31
0.0
  0
LINE
  5
E85B
330
1F
100
AcDbEntity
  8
0
370
    13
100
AcDbLine
 10
512.8958578328526
 20
407.3979043175907
 30
0.0
 11
512.726703644527
 21
407.8635089724222
 31
0.0
  0
LINE
  5
E85C
330
1F
100
AcDbEntity
  8
0
370
    13
100
AcDbLine
 10
512.726703644527
 20
407.8635089724222
 30
0.0
 11
512.5995796211213
 21
408.329285882028
 31
0.0
  0
LINE
  5
E85D
330
1F
100
AcDbEntity
  8
0
370
    13
100
AcDbLine
 10
512.5995796211213
 20
408.329285882028
 30
0.0
 11
512.4724555977152
 21
408.7948905368595
 31
0.0
  0
LINE
  5
E85E
330
1F
100
AcDbEntity
  8
0
370
    13
100
AcDbLine
 10
512.4724555977152
 20
408.7948905368595
 30
0.0
 11
512.3880507583267
 21
409.3028698661597
 31
0.0
  0
LINE
  5
E85F
330
1F
100
AcDbEntity
  8
0
370
    13
100
AcDbLine
 10
512.3880507583267
 20
409.3028698661597
 30
0.0
 11
512.3456760838584
 21
409.7686467757654
 31
0.0
  0
LINE
  5
E860
330
1F
100
AcDbEntity
  8
0
370
    13
100
AcDbLine
 10
512.3456760838584
 20
409.7686467757654
 30
0.0
 11
512.3033014093896
 21
410.2766261050655
 31
0.0
  0
LINE
  5
E861
330
1F
100
AcDbEntity
  8
0
370
    13
100
AcDbLine
 10
512.3033014093896
 20
410.2766261050655
 30
0.0
 11
512.3033014093896
 21
410.742230759897
 31
0.0
  0
LINE
  5
E862
330
1F
100
AcDbEntity
  8
0
370
    13
100
AcDbLine
 10
512.3033014093896
 20
420.7752100868158
 30
0.0
 11
512.3033014093896
 21
421.2409869964216
 31
0.0
  0
LINE
  5
E863
330
1F
100
AcDbEntity
  8
0
370
    13
100
AcDbLine
 10
512.3033014093896
 20
421.2409869964216
 30
0.0
 11
512.3456760838584
 21
421.7489663257218
 31
0.0
  0
LINE
  5
E864
330
1F
100
AcDbEntity
  8
0
370
    13
100
AcDbLine
 10
512.3456760838584
 20
421.7489663257218
 30
0.0
 11
512.3880507583267
 21
422.2145709805533
 31
0.0
  0
LINE
  5
E865
330
1F
100
AcDbEntity
  8
0
370
    13
100
AcDbLine
 10
512.3880507583267
 20
422.2145709805533
 30
0.0
 11
512.4724555977152
 21
422.7225503098533
 31
0.0
  0
LINE
  5
E866
330
1F
100
AcDbEntity
  8
0
370
    13
100
AcDbLine
 10
512.4724555977152
 20
422.7225503098533
 30
0.0
 11
512.5995796211213
 21
423.1883272194591
 31
0.0
  0
LINE
  5
E867
330
1F
100
AcDbEntity
  8
0
370
    13
100
AcDbLine
 10
512.5995796211213
 20
423.1883272194591
 30
0.0
 11
512.726703644527
 21
423.6539318742906
 31
0.0
  0
LINE
  5
E868
330
1F
100
AcDbEntity
  8
0
370
    13
100
AcDbLine
 10
512.726703644527
 20
423.6539318742906
 30
0.0
 11
512.8958578328526
 21
424.1195365291221
 31
0.0
  0
LINE
  5
E869
330
1F
100
AcDbEntity
  8
0
370
    13
100
AcDbLine
 10
512.8958578328526
 20
424.1195365291221
 30
0.0
 11
513.0653565307268
 21
424.585313438728
 31
0.0
  0
LINE
  5
E86A
330
1F
100
AcDbEntity
  8
0
370
    13
100
AcDbLine
 10
513.0653565307268
 20
424.585313438728
 30
0.0
 11
513.2345107190528
 21
425.0509180935594
 31
0.0
  0
LINE
  5
E86B
330
1F
100
AcDbEntity
  8
0
370
    13
100
AcDbLine
 10
513.2345107190528
 20
425.0509180935594
 30
0.0
 11
513.4887587658642
 21
425.4743203286966
 31
0.0
  0
LINE
  5
E86C
330
1F
100
AcDbEntity
  8
0
370
    13
100
AcDbLine
 10
513.4887587658642
 20
425.4743203286966
 30
0.0
 11
513.7002876286583
 21
425.8975503090596
 31
0.0
  0
LINE
  5
E86D
330
1F
100
AcDbEntity
  8
0
370
    13
100
AcDbLine
 10
513.7002876286583
 20
425.8975503090596
 30
0.0
 11
513.99656584039
 21
426.3209525441969
 31
0.0
  0
LINE
  5
E86E
330
1F
100
AcDbEntity
  8
0
370
    13
100
AcDbLine
 10
513.99656584039
 20
426.3209525441969
 30
0.0
 11
514.2504693776527
 21
426.7019801048655
 31
0.0
  0
LINE
  5
E86F
330
1F
100
AcDbEntity
  8
0
370
    13
100
AcDbLine
 10
514.2504693776527
 20
426.7019801048655
 30
0.0
 11
514.5470920989328
 21
427.0864527610194
 31
0.0
  0
LINE
  5
E870
330
1F
100
AcDbEntity
  8
0
370
    13
100
AcDbLine
 10
514.5470920989328
 20
427.0864527610194
 30
0.0
 11
514.885744985133
 21
427.4638629714284
 31
0.0
  0
LINE
  5
E871
330
1F
100
AcDbEntity
  8
0
370
    13
100
AcDbLine
 10
514.885744985133
 20
427.4638629714284
 30
0.0
 11
515.2243978713329
 21
427.844890532097
 31
0.0
  0
LINE
  5
E872
330
1F
100
AcDbEntity
  8
0
370
    13
100
AcDbLine
 10
515.2243978713329
 20
427.844890532097
 30
0.0
 11
515.5630507575329
 21
428.1835434182972
 31
0.0
  0
LINE
  5
E873
330
1F
100
AcDbEntity
  8
0
370
    13
100
AcDbLine
 10
515.5630507575329
 20
428.1835434182972
 30
0.0
 11
515.9440783182017
 21
428.4799938848029
 31
0.0
  0
LINE
  5
E874
330
1F
100
AcDbEntity
  8
0
370
    13
100
AcDbLine
 10
515.9440783182017
 20
428.4799938848029
 30
0.0
 11
516.3247613693218
 21
428.7762720965343
 31
0.0
  0
LINE
  5
E875
330
1F
100
AcDbEntity
  8
0
370
    13
100
AcDbLine
 10
516.3247613693218
 20
428.7762720965343
 30
0.0
 11
516.748163604459
 21
429.0725503082658
 31
0.0
  0
LINE
  5
E876
330
1F
100
AcDbEntity
  8
0
370
    13
100
AcDbLine
 10
516.748163604459
 20
429.0725503082658
 30
0.0
 11
517.1291911651276
 21
429.3266261003031
 31
0.0
  0
LINE
  5
E877
330
1F
100
AcDbEntity
  8
0
370
    13
100
AcDbLine
 10
517.1291911651276
 20
429.3266261003031
 30
0.0
 11
517.5949680747333
 21
429.580529637566
 31
0.0
  0
LINE
  5
E878
330
1F
100
AcDbEntity
  8
0
370
    13
100
AcDbLine
 10
517.5949680747333
 20
429.580529637566
 30
0.0
 11
518.0183703098705
 21
429.7922307551345
 31
0.0
  0
LINE
  5
E879
330
1F
100
AcDbEntity
  8
0
370
    13
100
AcDbLine
 10
518.0183703098705
 20
429.7922307551345
 30
0.0
 11
518.4838027099279
 21
430.0039318727031
 31
0.0
  0
LINE
  5
E87A
330
1F
100
AcDbEntity
  8
0
370
    13
100
AcDbLine
 10
518.4838027099279
 20
430.0039318727031
 30
0.0
 11
518.9072049450651
 21
430.1732583158031
 31
0.0
  0
LINE
  5
E87B
330
1F
100
AcDbEntity
  8
0
370
    13
100
AcDbLine
 10
518.9072049450651
 20
430.1732583158031
 30
0.0
 11
519.3729818546708
 21
430.3425847589033
 31
0.0
  0
LINE
  5
E87C
330
1F
100
AcDbEntity
  8
0
370
    13
100
AcDbLine
 10
519.3729818546708
 20
430.3425847589033
 30
0.0
 11
519.8807889291966
 21
430.4695365275346
 31
0.0
  0
LINE
  5
E87D
330
1F
100
AcDbEntity
  8
0
370
    13
100
AcDbLine
 10
519.8807889291966
 20
430.4695365275346
 30
0.0
 11
520.3465658388022
 21
430.5542858764718
 31
0.0
  0
LINE
  5
E87E
330
1F
100
AcDbEntity
  8
0
370
    13
100
AcDbLine
 10
520.3465658388022
 20
430.5542858764718
 30
0.0
 11
520.8123427484081
 21
430.6388629706346
 31
0.0
  0
LINE
  5
E87F
330
1F
100
AcDbEntity
  8
0
370
    13
100
AcDbLine
 10
520.8123427484081
 20
430.6388629706346
 30
0.0
 11
521.3201498229341
 21
430.7236123195719
 31
0.0
  0
LINE
  5
E880
330
1F
100
AcDbEntity
  8
0
370
    13
100
AcDbLine
 10
521.3201498229341
 20
430.7236123195719
 30
0.0
 11
521.7859267325398
 21
430.7659869940403
 31
0.0
  0
LINE
  5
E881
330
1F
100
AcDbEntity
  8
0
370
    13
100
AcDbLine
 10
521.7859267325398
 20
430.7659869940403
 30
0.0
 11
522.2940783166141
 21
430.7659869940403
 31
0.0
  0
LINE
  5
E882
330
1F
100
AcDbEntity
  8
0
370
    13
100
AcDbLine
 10
522.2940783166141
 20
430.7659869940403
 30
0.0
 11
522.8018853911399
 21
430.7659869940403
 31
0.0
  0
LINE
  5
E883
330
1F
100
AcDbEntity
  8
0
370
    13
100
AcDbLine
 10
522.8018853911399
 20
430.7659869940403
 30
0.0
 11
523.2676623007458
 21
430.7236123195719
 31
0.0
  0
LINE
  5
E884
330
1F
100
AcDbEntity
  8
0
370
    13
100
AcDbLine
 10
523.2676623007458
 20
430.7236123195719
 30
0.0
 11
523.7754693752715
 21
430.6388629706346
 31
0.0
  0
LINE
  5
E885
330
1F
100
AcDbEntity
  8
0
370
    13
100
AcDbLine
 10
523.7754693752715
 20
430.6388629706346
 30
0.0
 11
524.2412462848774
 21
430.5542858764718
 31
0.0
  0
LINE
  5
E886
330
1F
100
AcDbEntity
  8
0
370
    13
100
AcDbLine
 10
524.2412462848774
 20
430.5542858764718
 30
0.0
 11
524.7070231944831
 21
430.4695365275346
 31
0.0
  0
LINE
  5
E887
330
1F
100
AcDbEntity
  8
0
370
    13
100
AcDbLine
 10
524.7070231944831
 20
430.4695365275346
 30
0.0
 11
525.1724555945402
 21
430.3425847589033
 31
0.0
  0
LINE
  5
E888
330
1F
100
AcDbEntity
  8
0
370
    13
100
AcDbLine
 10
525.1724555945402
 20
430.3425847589033
 30
0.0
 11
525.6806071786149
 21
430.1732583158031
 31
0.0
  0
LINE
  5
E889
330
1F
100
AcDbEntity
  8
0
370
    13
100
AcDbLine
 10
525.6806071786149
 20
430.1732583158031
 30
0.0
 11
526.104009413752
 21
430.0039318727031
 31
0.0
  0
LINE
  5
E88A
330
1F
100
AcDbEntity
  8
0
370
    13
100
AcDbLine
 10
526.104009413752
 20
430.0039318727031
 30
0.0
 11
526.5694418138091
 21
429.7922307551345
 31
0.0
  0
LINE
  5
E88B
330
1F
100
AcDbEntity
  8
0
370
    13
100
AcDbLine
 10
526.5694418138091
 20
429.7922307551345
 30
0.0
 11
526.9928440489464
 21
429.580529637566
 31
0.0
  0
LINE
  5
E88C
330
1F
100
AcDbEntity
  8
0
370
    13
100
AcDbLine
 10
526.9928440489464
 20
429.580529637566
 30
0.0
 11
527.4162462840836
 21
429.3266261003031
 31
0.0
  0
LINE
  5
E88D
330
1F
100
AcDbEntity
  8
0
370
    13
100
AcDbLine
 10
527.4162462840836
 20
429.3266261003031
 30
0.0
 11
527.8396485192209
 21
429.0725503082658
 31
0.0
  0
LINE
  5
E88E
330
1F
100
AcDbEntity
  8
0
370
    13
100
AcDbLine
 10
527.8396485192209
 20
429.0725503082658
 30
0.0
 11
528.2630507543579
 21
428.7762720965343
 31
0.0
  0
LINE
  5
E88F
330
1F
100
AcDbEntity
  8
0
370
    13
100
AcDbLine
 10
528.2630507543579
 20
428.7762720965343
 30
0.0
 11
528.6440783150267
 21
428.4799938848029
 31
0.0
  0
LINE
  5
E890
330
1F
100
AcDbEntity
  8
0
370
    13
100
AcDbLine
 10
528.6440783150267
 20
428.4799938848029
 30
0.0
 11
529.0247613661468
 21
428.1835434182972
 31
0.0
  0
LINE
  5
E891
330
1F
100
AcDbEntity
  8
0
370
    13
100
AcDbLine
 10
529.0247613661468
 20
428.1835434182972
 30
0.0
 11
529.3637587618953
 21
427.844890532097
 31
0.0
  0
LINE
  5
E892
330
1F
100
AcDbEntity
  8
0
370
    13
100
AcDbLine
 10
529.3637587618953
 20
427.844890532097
 30
0.0
 11
529.7024116480952
 21
427.4638629714284
 31
0.0
  0
LINE
  5
E893
330
1F
100
AcDbEntity
  8
0
370
    13
100
AcDbLine
 10
529.7024116480952
 20
427.4638629714284
 30
0.0
 11
530.0410645342954
 21
427.0864527610194
 31
0.0
  0
LINE
  5
E894
330
1F
100
AcDbEntity
  8
0
370
    13
100
AcDbLine
 10
530.0410645342954
 20
427.0864527610194
 30
0.0
 11
530.3373427460269
 21
426.7019801048655
 31
0.0
  0
LINE
  5
E895
330
1F
100
AcDbEntity
  8
0
370
    13
100
AcDbLine
 10
530.3373427460269
 20
426.7019801048655
 30
0.0
 11
530.5912462832898
 21
426.3209525441969
 31
0.0
  0
LINE
  5
E896
330
1F
100
AcDbEntity
  8
0
370
    13
100
AcDbLine
 10
530.5912462832898
 20
426.3209525441969
 30
0.0
 11
530.8875244950215
 21
425.8975503090596
 31
0.0
  0
LINE
  5
E897
330
1F
100
AcDbEntity
  8
0
370
    13
100
AcDbLine
 10
530.8875244950215
 20
425.8975503090596
 30
0.0
 11
531.0993978673641
 21
425.4743203286966
 31
0.0
  0
LINE
  5
E898
330
1F
100
AcDbEntity
  8
0
370
    13
100
AcDbLine
 10
531.0993978673641
 20
425.4743203286966
 30
0.0
 11
531.3109267301586
 21
425.0509180935594
 31
0.0
  0
LINE
  5
E899
330
1F
100
AcDbEntity
  8
0
370
    13
100
AcDbLine
 10
531.3109267301586
 20
425.0509180935594
 30
0.0
 11
531.5224555929528
 21
424.585313438728
 31
0.0
  0
LINE
  5
E89A
330
1F
100
AcDbEntity
  8
0
370
    13
100
AcDbLine
 10
531.5224555929528
 20
424.585313438728
 30
0.0
 11
531.6919542908272
 21
424.1195365291221
 31
0.0
  0
LINE
  5
E89B
330
1F
100
AcDbEntity
  8
0
370
    13
100
AcDbLine
 10
531.6919542908272
 20
424.1195365291221
 30
0.0
 11
531.861108479153
 21
423.6539318742906
 31
0.0
  0
LINE
  5
E89C
330
1F
100
AcDbEntity
  8
0
370
    13
100
AcDbLine
 10
531.861108479153
 20
423.6539318742906
 30
0.0
 11
531.9882325025587
 21
423.1883272194591
 31
0.0
  0
LINE
  5
E89D
330
1F
100
AcDbEntity
  8
0
370
    13
100
AcDbLine
 10
531.9882325025587
 20
423.1883272194591
 30
0.0
 11
532.1153565259642
 21
422.7225503098533
 31
0.0
  0
LINE
  5
E89E
330
1F
100
AcDbEntity
  8
0
370
    13
100
AcDbLine
 10
532.1153565259642
 20
422.7225503098533
 30
0.0
 11
532.199761365353
 21
422.2145709805533
 31
0.0
  0
LINE
  5
E89F
330
1F
100
AcDbEntity
  8
0
370
    13
100
AcDbLine
 10
532.199761365353
 20
422.2145709805533
 30
0.0
 11
532.2421360398216
 21
421.7489663257218
 31
0.0
  0
LINE
  5
E8A0
330
1F
100
AcDbEntity
  8
0
370
    13
100
AcDbLine
 10
532.2421360398216
 20
421.7489663257218
 30
0.0
 11
532.28451071429
 21
421.2409869964216
 31
0.0
  0
LINE
  5
E8A1
330
1F
100
AcDbEntity
  8
0
370
    13
100
AcDbLine
 10
532.28451071429
 20
421.2409869964216
 30
0.0
 11
532.28451071429
 21
420.7752100868158
 31
0.0
  0
LINE
  5
E8A2
330
1F
100
AcDbEntity
  8
0
370
    13
100
AcDbLine
 10
512.3033014093896
 20
410.742230759897
 30
0.0
 11
512.3033014093896
 21
420.7752100868158
 31
0.0
  0
LINE
  5
E8A3
330
1F
100
AcDbEntity
  8
0
370
    13
100
AcDbLine
 10
506.2119073635689
 20
396.1372652145031
 30
0.0
 11
506.9315878104375
 21
396.8569456613718
 31
0.0
  0
LINE
  5
E8A4
330
1F
100
AcDbEntity
  8
0
370
    13
100
AcDbLine
 10
502.6982544781625
 20
399.6932927743781
 30
0.0
 11
503.7565878112313
 21
398.5925847668407
 31
0.0
  0
LINE
  5
E8A5
330
1F
100
AcDbEntity
  8
0
370
    13
100
AcDbLine
 10
505.1535740305
 20
397.1955985475719
 30
0.0
 11
506.2119073635689
 21
396.1372652145031
 31
0.0
  0
LINE
  5
E8A6
330
1F
100
AcDbEntity
  8
0
370
    13
100
AcDbLine
 10
503.3755602505627
 20
400.3705985467781
 30
0.0
 11
502.6982544781625
 21
399.6932927743781
 31
0.0
  0
LINE
  5
E8A7
330
1F
100
AcDbEntity
  8
0
370
    13
100
AcDbLine
 10
506.9315878104375
 20
396.8569456613718
 30
0.0
 11
505.8732544773687
 21
397.9152789944405
 31
0.0
  0
LINE
  5
E8A8
330
1F
100
AcDbEntity
  8
0
370
    13
100
AcDbLine
 10
504.4338935836313
 20
399.3122652137093
 30
0.0
 11
503.3755602505627
 21
400.3705985467781
 31
0.0
  0
LINE
  5
E8A9
330
1F
100
AcDbEntity
  8
0
370
    13
100
AcDbLine
 10
502.6982544781625
 20
396.8569456613718
 30
0.0
 11
503.3755602505627
 21
396.1372652145031
 31
0.0
  0
LINE
  5
E8AA
330
1F
100
AcDbEntity
  8
0
370
    13
100
AcDbLine
 10
506.2119073635689
 20
400.3705985467781
 30
0.0
 11
505.1535740305
 21
399.3122652137093
 31
0.0
  0
LINE
  5
E8AB
330
1F
100
AcDbEntity
  8
0
370
    13
100
AcDbLine
 10
503.7565878112313
 20
397.9152789944405
 30
0.0
 11
502.6982544781625
 21
396.8569456613718
 31
0.0
  0
LINE
  5
E8AC
330
1F
100
AcDbEntity
  8
0
370
    13
100
AcDbLine
 10
506.9315878104375
 20
399.6932927743781
 30
0.0
 11
506.2119073635689
 21
400.3705985467781
 31
0.0
  0
LINE
  5
E8AD
330
1F
100
AcDbEntity
  8
0
370
    13
100
AcDbLine
 10
503.3755602505627
 20
396.1372652145031
 30
0.0
 11
504.4338935836313
 21
397.1955985475719
 31
0.0
  0
LINE
  5
E8AE
330
1F
100
AcDbEntity
  8
0
370
    13
100
AcDbLine
 10
505.8732544773687
 20
398.5925847668407
 30
0.0
 11
506.9315878104375
 21
399.6932927743781
 31
0.0
  0
LINE
  5
E8AF
330
1F
100
AcDbEntity
  8
0
370
    13
100
AcDbLine
 10
504.4338935836313
 20
399.3122652137093
 30
0.0
 11
504.5186429325685
 21
399.2698905392408
 31
0.0
  0
LINE
  5
E8B0
330
1F
100
AcDbEntity
  8
0
370
    13
100
AcDbLine
 10
504.5186429325685
 20
399.2698905392408
 30
0.0
 11
504.6033922815056
 21
399.2276881195465
 31
0.0
  0
LINE
  5
E8B1
330
1F
100
AcDbEntity
  8
0
370
    13
100
AcDbLine
 10
504.6033922815056
 20
399.2276881195465
 30
0.0
 11
504.6877971208943
 21
399.185313445078
 31
0.0
  0
LINE
  5
E8B2
330
1F
100
AcDbEntity
  8
0
370
    13
100
AcDbLine
 10
504.6877971208943
 20
399.185313445078
 30
0.0
 11
504.8149211442999
 21
399.185313445078
 31
0.0
  0
LINE
  5
E8B3
330
1F
100
AcDbEntity
  8
0
370
    13
100
AcDbLine
 10
504.8149211442999
 20
399.185313445078
 30
0.0
 11
504.8996704932371
 21
399.185313445078
 31
0.0
  0
LINE
  5
E8B4
330
1F
100
AcDbEntity
  8
0
370
    13
100
AcDbLine
 10
504.8996704932371
 20
399.185313445078
 30
0.0
 11
504.9844198421744
 21
399.2276881195465
 31
0.0
  0
LINE
  5
E8B5
330
1F
100
AcDbEntity
  8
0
370
    13
100
AcDbLine
 10
504.9844198421744
 20
399.2276881195465
 30
0.0
 11
505.0688246815629
 21
399.2698905392408
 31
0.0
  0
LINE
  5
E8B6
330
1F
100
AcDbEntity
  8
0
370
    13
100
AcDbLine
 10
505.0688246815629
 20
399.2698905392408
 30
0.0
 11
505.1535740305
 21
399.3122652137093
 31
0.0
  0
LINE
  5
E8B7
330
1F
100
AcDbEntity
  8
0
370
    13
100
AcDbLine
 10
503.7565878112313
 20
397.9152789944405
 30
0.0
 11
503.7989624856999
 21
397.9998560886035
 31
0.0
  0
LINE
  5
E8B8
330
1F
100
AcDbEntity
  8
0
370
    13
100
AcDbLine
 10
503.7989624856999
 20
397.9998560886035
 30
0.0
 11
503.8413371601685
 21
398.0846054375406
 31
0.0
  0
LINE
  5
E8B9
330
1F
100
AcDbEntity
  8
0
370
    13
100
AcDbLine
 10
503.8413371601685
 20
398.0846054375406
 30
0.0
 11
503.883711834637
 21
398.1693547864777
 31
0.0
  0
LINE
  5
E8BA
330
1F
100
AcDbEntity
  8
0
370
    13
100
AcDbLine
 10
503.883711834637
 20
398.1693547864777
 30
0.0
 11
503.883711834637
 21
398.2539318806406
 31
0.0
  0
LINE
  5
E8BB
330
1F
100
AcDbEntity
  8
0
370
    13
100
AcDbLine
 10
503.883711834637
 20
398.2539318806406
 30
0.0
 11
503.883711834637
 21
398.3385089748035
 31
0.0
  0
LINE
  5
E8BC
330
1F
100
AcDbEntity
  8
0
370
    13
100
AcDbLine
 10
503.883711834637
 20
398.3385089748035
 30
0.0
 11
503.8413371601685
 21
398.4656329982092
 31
0.0
  0
LINE
  5
E8BD
330
1F
100
AcDbEntity
  8
0
370
    13
100
AcDbLine
 10
503.8413371601685
 20
398.4656329982092
 30
0.0
 11
503.7989624856999
 21
398.5502100923721
 31
0.0
  0
LINE
  5
E8BE
330
1F
100
AcDbEntity
  8
0
370
    13
100
AcDbLine
 10
503.7989624856999
 20
398.5502100923721
 30
0.0
 11
503.7565878112313
 21
398.5925847668407
 31
0.0
  0
LINE
  5
E8BF
330
1F
100
AcDbEntity
  8
0
370
    13
100
AcDbLine
 10
505.1535740305
 20
397.1955985475719
 30
0.0
 11
505.0688246815629
 21
397.2801756417347
 31
0.0
  0
LINE
  5
E8C0
330
1F
100
AcDbEntity
  8
0
370
    13
100
AcDbLine
 10
505.0688246815629
 20
397.2801756417347
 30
0.0
 11
504.9844198421744
 21
397.3225503162033
 31
0.0
  0
LINE
  5
E8C1
330
1F
100
AcDbEntity
  8
0
370
    13
100
AcDbLine
 10
504.9844198421744
 20
397.3225503162033
 30
0.0
 11
504.8996704932371
 21
397.3225503162033
 31
0.0
  0
LINE
  5
E8C2
330
1F
100
AcDbEntity
  8
0
370
    13
100
AcDbLine
 10
504.8996704932371
 20
397.3225503162033
 30
0.0
 11
504.8149211442999
 21
397.364924990672
 31
0.0
  0
LINE
  5
E8C3
330
1F
100
AcDbEntity
  8
0
370
    13
100
AcDbLine
 10
504.8149211442999
 20
397.364924990672
 30
0.0
 11
504.6877971208943
 21
397.3225503162033
 31
0.0
  0
LINE
  5
E8C4
330
1F
100
AcDbEntity
  8
0
370
    13
100
AcDbLine
 10
504.6877971208943
 20
397.3225503162033
 30
0.0
 11
504.6033922815056
 21
397.3225503162033
 31
0.0
  0
LINE
  5
E8C5
330
1F
100
AcDbEntity
  8
0
370
    13
100
AcDbLine
 10
504.6033922815056
 20
397.3225503162033
 30
0.0
 11
504.5186429325685
 21
397.2801756417347
 31
0.0
  0
LINE
  5
E8C6
330
1F
100
AcDbEntity
  8
0
370
    13
100
AcDbLine
 10
504.5186429325685
 20
397.2801756417347
 30
0.0
 11
504.4338935836313
 21
397.1955985475719
 31
0.0
  0
LINE
  5
E8C7
330
1F
100
AcDbEntity
  8
0
370
    13
100
AcDbLine
 10
505.8732544773687
 20
398.5925847668407
 30
0.0
 11
505.7885051284317
 21
398.5502100923721
 31
0.0
  0
LINE
  5
E8C8
330
1F
100
AcDbEntity
  8
0
370
    13
100
AcDbLine
 10
505.7885051284317
 20
398.5502100923721
 30
0.0
 11
505.746130453963
 21
398.4656329982092
 31
0.0
  0
LINE
  5
E8C9
330
1F
100
AcDbEntity
  8
0
370
    13
100
AcDbLine
 10
505.746130453963
 20
398.4656329982092
 30
0.0
 11
505.746130453963
 21
398.3385089748035
 31
0.0
  0
LINE
  5
E8CA
330
1F
100
AcDbEntity
  8
0
370
    13
100
AcDbLine
 10
505.746130453963
 20
398.3385089748035
 30
0.0
 11
505.7037557794944
 21
398.2539318806406
 31
0.0
  0
LINE
  5
E8CB
330
1F
100
AcDbEntity
  8
0
370
    13
100
AcDbLine
 10
505.7037557794944
 20
398.2539318806406
 30
0.0
 11
505.746130453963
 21
398.1693547864777
 31
0.0
  0
LINE
  5
E8CC
330
1F
100
AcDbEntity
  8
0
370
    13
100
AcDbLine
 10
505.746130453963
 20
398.1693547864777
 30
0.0
 11
505.746130453963
 21
398.0846054375406
 31
0.0
  0
LINE
  5
E8CD
330
1F
100
AcDbEntity
  8
0
370
    13
100
AcDbLine
 10
505.746130453963
 20
398.0846054375406
 30
0.0
 11
505.7885051284317
 21
397.9998560886035
 31
0.0
  0
LINE
  5
E8CE
330
1F
100
AcDbEntity
  8
0
370
    13
100
AcDbLine
 10
505.7885051284317
 20
397.9998560886035
 30
0.0
 11
505.8732544773687
 21
397.9152789944405
 31
0.0
  0
LINE
  5
E8CF
330
1F
100
AcDbEntity
  8
0
370
    13
100
AcDbLine
 10
488.3002876350084
 20
444.778223861197
 30
0.0
 11
522.2937338070657
 21
444.778223861197
 31
0.0
  0
LINE
  5
E8D0
330
1F
100
AcDbEntity
  8
0
370
    13
100
AcDbLine
 10
488.3002876350084
 20
376.7486123330656
 30
0.0
 11
522.2937338070657
 21
376.7486123330656
 31
0.0
  0
LINE
  5
E8D1
330
1F
100
AcDbEntity
  8
0
370
    13
100
AcDbLine
 10
488.3002876350084
 20
444.778223861197
 30
0.0
 11
488.3002876350084
 21
376.7486123330656
 31
0.0
  0
LINE
  5
E8D2
330
1F
100
AcDbEntity
  8
0
370
    13
100
AcDbLine
 10
500.5322958179747
 20
409.9283269515067
 30
0.0
 11
501.1672269159064
 21
409.9707016259754
 31
0.0
  0
LINE
  5
E8D3
330
1F
100
AcDbEntity
  8
0
370
    13
100
AcDbLine
 10
501.1672269159064
 20
409.9707016259754
 30
0.0
 11
501.8021580138379
 21
410.1825749983182
 31
0.0
  0
LINE
  5
E8D4
330
1F
100
AcDbEntity
  8
0
370
    13
100
AcDbLine
 10
501.8021580138379
 20
410.1825749983182
 30
0.0
 11
502.3526842723809
 21
410.4788532100496
 31
0.0
  0
LINE
  5
E8D5
330
1F
100
AcDbEntity
  8
0
370
    13
100
AcDbLine
 10
502.3526842723809
 20
410.4788532100496
 30
0.0
 11
502.8604913469068
 21
410.8598807707183
 31
0.0
  0
LINE
  5
E8D6
330
1F
100
AcDbEntity
  8
0
370
    13
100
AcDbLine
 10
502.8604913469068
 20
410.8598807707183
 30
0.0
 11
503.2415189075754
 21
411.3676878452442
 31
0.0
  0
LINE
  5
E8D7
330
1F
100
AcDbEntity
  8
0
370
    13
100
AcDbLine
 10
503.2415189075754
 20
411.3676878452442
 30
0.0
 11
503.5377971193068
 21
411.918214103787
 31
0.0
  0
LINE
  5
E8D8
330
1F
100
AcDbEntity
  8
0
370
    13
100
AcDbLine
 10
503.5377971193068
 20
411.918214103787
 30
0.0
 11
503.749325982101
 21
412.5531452017186
 31
0.0
  0
LINE
  5
E8D9
330
1F
100
AcDbEntity
  8
0
370
    13
100
AcDbLine
 10
503.749325982101
 20
412.5531452017186
 30
0.0
 11
503.7920451661182
 21
413.1880762996501
 31
0.0
  0
LINE
  5
E8DA
330
1F
100
AcDbEntity
  8
0
370
    13
100
AcDbLine
 10
503.7920451661182
 20
413.1880762996501
 30
0.0
 11
503.749325982101
 21
413.7809772326616
 31
0.0
  0
LINE
  5
E8DB
330
1F
100
AcDbEntity
  8
0
370
    13
100
AcDbLine
 10
503.749325982101
 20
413.7809772326616
 30
0.0
 11
503.5377971193068
 21
414.4159083305932
 31
0.0
  0
LINE
  5
E8DC
330
1F
100
AcDbEntity
  8
0
370
    13
100
AcDbLine
 10
503.5377971193068
 20
414.4159083305932
 30
0.0
 11
503.2415189075754
 21
414.9660900795875
 31
0.0
  0
LINE
  5
E8DD
330
1F
100
AcDbEntity
  8
0
370
    13
100
AcDbLine
 10
503.2415189075754
 20
414.9660900795875
 30
0.0
 11
502.8604913469068
 21
415.4742416636619
 31
0.0
  0
LINE
  5
E8DE
330
1F
100
AcDbEntity
  8
0
370
    13
100
AcDbLine
 10
502.8604913469068
 20
415.4742416636619
 30
0.0
 11
502.3526842723809
 21
415.8552692243305
 31
0.0
  0
LINE
  5
E8DF
330
1F
100
AcDbEntity
  8
0
370
    13
100
AcDbLine
 10
502.3526842723809
 20
415.8552692243305
 30
0.0
 11
501.8021580138379
 21
416.1515474360621
 31
0.0
  0
LINE
  5
E8E0
330
1F
100
AcDbEntity
  8
0
370
    13
100
AcDbLine
 10
501.8021580138379
 20
416.1515474360621
 30
0.0
 11
501.1672269159064
 21
416.3630762988564
 31
0.0
  0
LINE
  5
E8E1
330
1F
100
AcDbEntity
  8
0
370
    13
100
AcDbLine
 10
501.1672269159064
 20
416.3630762988564
 30
0.0
 11
500.5322958179747
 21
416.4054509733249
 31
0.0
  0
LINE
  5
E8E2
330
1F
100
AcDbEntity
  8
0
370
    13
100
AcDbLine
 10
494.0551717961566
 20
416.4054509733249
 30
0.0
 11
493.4202406982251
 21
416.3630762988564
 31
0.0
  0
LINE
  5
E8E3
330
1F
100
AcDbEntity
  8
0
370
    13
100
AcDbLine
 10
493.4202406982251
 20
416.3630762988564
 30
0.0
 11
492.7853096002934
 21
416.1515474360621
 31
0.0
  0
LINE
  5
E8E4
330
1F
100
AcDbEntity
  8
0
370
    13
100
AcDbLine
 10
492.7853096002934
 20
416.1515474360621
 30
0.0
 11
492.2347833417506
 21
415.8552692243305
 31
0.0
  0
LINE
  5
E8E5
330
1F
100
AcDbEntity
  8
0
370
    13
100
AcDbLine
 10
492.2347833417506
 20
415.8552692243305
 30
0.0
 11
491.7690064321448
 21
415.4742416636619
 31
0.0
  0
LINE
  5
E8E6
330
1F
100
AcDbEntity
  8
0
370
    13
100
AcDbLine
 10
491.7690064321448
 20
415.4742416636619
 30
0.0
 11
491.3459487065562
 21
414.9660900795875
 31
0.0
  0
LINE
  5
E8E7
330
1F
100
AcDbEntity
  8
0
370
    13
100
AcDbLine
 10
491.3459487065562
 20
414.9660900795875
 30
0.0
 11
491.049325985276
 21
414.4159083305932
 31
0.0
  0
LINE
  5
E8E8
330
1F
100
AcDbEntity
  8
0
370
    13
100
AcDbLine
 10
491.049325985276
 20
414.4159083305932
 30
0.0
 11
490.8801717969504
 21
413.7809772326616
 31
0.0
  0
LINE
  5
E8E9
330
1F
100
AcDbEntity
  8
0
370
    13
100
AcDbLine
 10
490.8801717969504
 20
413.7809772326616
 30
0.0
 11
490.7954224480131
 21
413.1880762996501
 31
0.0
  0
LINE
  5
E8EA
330
1F
100
AcDbEntity
  8
0
370
    13
100
AcDbLine
 10
490.7954224480131
 20
413.1880762996501
 30
0.0
 11
490.8801717969504
 21
412.5531452017186
 31
0.0
  0
LINE
  5
E8EB
330
1F
100
AcDbEntity
  8
0
370
    13
100
AcDbLine
 10
490.8801717969504
 20
412.5531452017186
 30
0.0
 11
491.049325985276
 21
411.918214103787
 31
0.0
  0
LINE
  5
E8EC
330
1F
100
AcDbEntity
  8
0
370
    13
100
AcDbLine
 10
491.049325985276
 20
411.918214103787
 30
0.0
 11
491.3459487065562
 21
411.3676878452442
 31
0.0
  0
LINE
  5
E8ED
330
1F
100
AcDbEntity
  8
0
370
    13
100
AcDbLine
 10
491.3459487065562
 20
411.3676878452442
 30
0.0
 11
491.7690064321448
 21
410.8598807707183
 31
0.0
  0
LINE
  5
E8EE
330
1F
100
AcDbEntity
  8
0
370
    13
100
AcDbLine
 10
491.7690064321448
 20
410.8598807707183
 30
0.0
 11
492.2347833417506
 21
410.4788532100496
 31
0.0
  0
LINE
  5
E8EF
330
1F
100
AcDbEntity
  8
0
370
    13
100
AcDbLine
 10
492.2347833417506
 20
410.4788532100496
 30
0.0
 11
492.7853096002934
 21
410.1825749983182
 31
0.0
  0
LINE
  5
E8F0
330
1F
100
AcDbEntity
  8
0
370
    13
100
AcDbLine
 10
492.7853096002934
 20
410.1825749983182
 30
0.0
 11
493.4202406982251
 21
409.9707016259754
 31
0.0
  0
LINE
  5
E8F1
330
1F
100
AcDbEntity
  8
0
370
    13
100
AcDbLine
 10
493.4202406982251
 20
409.9707016259754
 30
0.0
 11
494.0551717961566
 21
409.9283269515067
 31
0.0
  0
LINE
  5
E8F2
330
1F
100
AcDbEntity
  8
0
370
    13
100
AcDbLine
 10
500.5322958179747
 20
416.4054509733249
 30
0.0
 11
494.0551717961566
 21
416.4054509733249
 31
0.0
  0
LINE
  5
E8F3
330
1F
100
AcDbEntity
  8
0
370
    13
100
AcDbLine
 10
500.5322958179747
 20
409.9283269515067
 30
0.0
 11
494.0551717961566
 21
409.9283269515067
 31
0.0
  0
LINE
  5
E8F4
330
1F
100
AcDbEntity
  8
0
370
    13
100
AcDbLine
 10
522.2937338070657
 20
449.7736123148094
 30
0.0
 11
485.2944418241279
 21
449.7736123148094
 31
0.0
  0
LINE
  5
E8F5
330
1F
100
AcDbEntity
  8
0
370
    13
100
AcDbLine
 10
522.2937338070657
 20
374.7588974355596
 30
0.0
 11
485.2944418241279
 21
374.7588974355596
 31
0.0
  0
LINE
  5
E8F6
330
1F
100
AcDbEntity
  8
0
370
    13
100
AcDbLine
 10
522.2937338070657
 20
448.7576536562092
 30
0.0
 11
486.3107449922767
 21
448.7576536562092
 31
0.0
  0
LINE
  5
E8F7
330
1F
100
AcDbEntity
  8
0
370
    13
100
AcDbLine
 10
514.2928440521215
 20
375.7748560941598
 30
0.0
 11
485.8025934082024
 21
375.7748560941598
 31
0.0
  0
LINE
  5
E8F8
330
1F
100
AcDbEntity
  8
0
370
    13
100
AcDbLine
 10
485.2944418241279
 20
412.7743203318716
 30
0.0
 11
488.3002876350084
 21
412.7743203318716
 31
0.0
  0
LINE
  5
E8F9
330
1F
100
AcDbEntity
  8
0
370
    13
100
AcDbLine
 10
484.2784831655277
 20
375.7748560941598
 30
0.0
 11
484.2784831655277
 21
448.7576536562092
 31
0.0
  0
LINE
  5
E8FA
330
1F
100
AcDbEntity
  8
0
370
    13
100
AcDbLine
 10
485.2944418241279
 20
449.7736123148094
 30
0.0
 11
485.0829129613337
 21
449.7312376403407
 31
0.0
  0
LINE
  5
E8FB
330
1F
100
AcDbEntity
  8
0
370
    13
100
AcDbLine
 10
485.0829129613337
 20
449.7312376403407
 30
0.0
 11
484.9134142634593
 21
449.6888629658721
 31
0.0
  0
LINE
  5
E8FC
330
1F
100
AcDbEntity
  8
0
370
    13
100
AcDbLine
 10
484.9134142634593
 20
449.6888629658721
 30
0.0
 11
484.7442600751335
 21
449.6042858717093
 31
0.0
  0
LINE
  5
E8FD
330
1F
100
AcDbEntity
  8
0
370
    13
100
AcDbLine
 10
484.7442600751335
 20
449.6042858717093
 30
0.0
 11
484.5747613772593
 21
449.4771618483036
 31
0.0
  0
LINE
  5
E8FE
330
1F
100
AcDbEntity
  8
0
370
    13
100
AcDbLine
 10
484.5747613772593
 20
449.4771618483036
 30
0.0
 11
484.447981863402
 21
449.3114527554631
 31
0.0
  0
LINE
  5
E8FF
330
1F
100
AcDbEntity
  8
0
370
    13
100
AcDbLine
 10
484.447981863402
 20
449.3114527554631
 30
0.0
 11
484.3632325144649
 21
449.1385089621035
 31
0.0
  0
LINE
  5
E900
330
1F
100
AcDbEntity
  8
0
370
    13
100
AcDbLine
 10
484.3632325144649
 20
449.1385089621035
 30
0.0
 11
484.3208578399964
 21
448.9693547737777
 31
0.0
  0
LINE
  5
E901
330
1F
100
AcDbEntity
  8
0
370
    13
100
AcDbLine
 10
484.3208578399964
 20
448.9693547737777
 30
0.0
 11
484.2784831655277
 21
448.7576536562092
 31
0.0
  0
LINE
  5
E902
330
1F
100
AcDbEntity
  8
0
370
    13
100
AcDbLine
 10
484.2784831655277
 20
375.7748560941598
 30
0.0
 11
484.3208578399964
 21
375.5633272313653
 31
0.0
  0
LINE
  5
E903
330
1F
100
AcDbEntity
  8
0
370
    13
100
AcDbLine
 10
484.3208578399964
 20
375.5633272313653
 30
0.0
 11
484.3632325144649
 21
375.393828533491
 31
0.0
  0
LINE
  5
E904
330
1F
100
AcDbEntity
  8
0
370
    13
100
AcDbLine
 10
484.3632325144649
 20
375.393828533491
 30
0.0
 11
484.447981863402
 21
375.1822996706968
 31
0.0
  0
LINE
  5
E905
330
1F
100
AcDbEntity
  8
0
370
    13
100
AcDbLine
 10
484.447981863402
 20
375.1822996706968
 30
0.0
 11
484.5747613772593
 21
375.055175647291
 31
0.0
  0
LINE
  5
E906
330
1F
100
AcDbEntity
  8
0
370
    13
100
AcDbLine
 10
484.5747613772593
 20
375.055175647291
 30
0.0
 11
484.7442600751335
 21
374.9282238786595
 31
0.0
  0
LINE
  5
E907
330
1F
100
AcDbEntity
  8
0
370
    13
100
AcDbLine
 10
484.7442600751335
 20
374.9282238786595
 30
0.0
 11
484.9134142634593
 21
374.8436467844966
 31
0.0
  0
LINE
  5
E908
330
1F
100
AcDbEntity
  8
0
370
    13
100
AcDbLine
 10
484.9134142634593
 20
374.8436467844966
 30
0.0
 11
485.0829129613337
 21
374.7588974355596
 31
0.0
  0
LINE
  5
E909
330
1F
100
AcDbEntity
  8
0
370
    13
100
AcDbLine
 10
485.0829129613337
 20
374.7588974355596
 30
0.0
 11
485.2944418241279
 21
374.7588974355596
 31
0.0
  0
LINE
  5
E90A
330
1F
100
AcDbEntity
  8
0
370
    13
100
AcDbLine
 10
485.2944418241279
 20
412.7743203318716
 30
0.0
 11
485.2944418241279
 21
447.7415227428347
 31
0.0
  0
LINE
  5
E90B
330
1F
100
AcDbEntity
  8
0
370
    13
100
AcDbLine
 10
486.3107449922767
 20
448.7576536562092
 30
0.0
 11
486.0988716199338
 21
448.7576536562092
 31
0.0
  0
LINE
  5
E90C
330
1F
100
AcDbEntity
  8
0
370
    13
100
AcDbLine
 10
486.0988716199338
 20
448.7576536562092
 30
0.0
 11
485.9297174316081
 21
448.672904307272
 31
0.0
  0
LINE
  5
E90D
330
1F
100
AcDbEntity
  8
0
370
    13
100
AcDbLine
 10
485.9297174316081
 20
448.672904307272
 30
0.0
 11
485.7602187337337
 21
448.5883272131091
 31
0.0
  0
LINE
  5
E90E
330
1F
100
AcDbEntity
  8
0
370
    13
100
AcDbLine
 10
485.7602187337337
 20
448.5883272131091
 30
0.0
 11
485.5907200358595
 21
448.4612031897034
 31
0.0
  0
LINE
  5
E90F
330
1F
100
AcDbEntity
  8
0
370
    13
100
AcDbLine
 10
485.5907200358595
 20
448.4612031897034
 30
0.0
 11
485.4639405220023
 21
448.3342514210719
 31
0.0
  0
LINE
  5
E910
330
1F
100
AcDbEntity
  8
0
370
    13
100
AcDbLine
 10
485.4639405220023
 20
448.3342514210719
 30
0.0
 11
485.379191173065
 21
448.1225503035033
 31
0.0
  0
LINE
  5
E911
330
1F
100
AcDbEntity
  8
0
370
    13
100
AcDbLine
 10
485.379191173065
 20
448.1225503035033
 30
0.0
 11
485.3368164985966
 21
447.9532238604033
 31
0.0
  0
LINE
  5
E912
330
1F
100
AcDbEntity
  8
0
370
    13
100
AcDbLine
 10
485.3368164985966
 20
447.9532238604033
 30
0.0
 11
485.2944418241279
 21
447.7415227428347
 31
0.0
  0
LINE
  5
E913
330
1F
100
AcDbEntity
  8
0
370
    13
100
AcDbLine
 10
484.7866347496022
 20
376.7486123330656
 30
0.0
 11
484.7866347496022
 21
410.742230759897
 31
0.0
  0
LINE
  5
E914
330
1F
100
AcDbEntity
  8
0
370
    13
100
AcDbLine
 10
485.2944418241279
 20
412.7743203318716
 30
0.0
 11
484.7442600751335
 21
410.742230759897
 31
0.0
  0
LINE
  5
E915
330
1F
100
AcDbEntity
  8
0
370
    13
100
AcDbLine
 10
484.7866347496022
 20
376.7486123330656
 30
0.0
 11
484.8290094240706
 21
376.5792858899655
 31
0.0
  0
LINE
  5
E916
330
1F
100
AcDbEntity
  8
0
370
    13
100
AcDbLine
 10
484.8290094240706
 20
376.5792858899655
 30
0.0
 11
484.8713840985392
 21
376.367584772397
 31
0.0
  0
LINE
  5
E917
330
1F
100
AcDbEntity
  8
0
370
    13
100
AcDbLine
 10
484.8713840985392
 20
376.367584772397
 30
0.0
 11
484.9557889379279
 21
376.1982583292969
 31
0.0
  0
LINE
  5
E918
330
1F
100
AcDbEntity
  8
0
370
    13
100
AcDbLine
 10
484.9557889379279
 20
376.1982583292969
 30
0.0
 11
485.0829129613337
 21
376.0713065606654
 31
0.0
  0
LINE
  5
E919
330
1F
100
AcDbEntity
  8
0
370
    13
100
AcDbLine
 10
485.0829129613337
 20
376.0713065606654
 30
0.0
 11
485.2524116592078
 21
375.944354792034
 31
0.0
  0
LINE
  5
E91A
330
1F
100
AcDbEntity
  8
0
370
    13
100
AcDbLine
 10
485.2524116592078
 20
375.944354792034
 30
0.0
 11
485.4215658475337
 21
375.8172307686282
 31
0.0
  0
LINE
  5
E91B
330
1F
100
AcDbEntity
  8
0
370
    13
100
AcDbLine
 10
485.4215658475337
 20
375.8172307686282
 30
0.0
 11
485.5907200358595
 21
375.7748560941598
 31
0.0
  0
LINE
  5
E91C
330
1F
100
AcDbEntity
  8
0
370
    13
100
AcDbLine
 10
485.5907200358595
 20
375.7748560941598
 30
0.0
 11
485.8025934082024
 21
375.7748560941598
 31
0.0
  0
LINE
  5
E91D
330
1F
100
AcDbEntity
  8
0
370
    13
100
AcDbLine
 10
506.5505602497689
 20
396.4759181007031
 30
0.0
 11
506.635309598706
 21
396.560495194866
 31
0.0
  0
LINE
  5
E91E
330
1F
100
AcDbEntity
  8
0
370
    13
100
AcDbLine
 10
512.3029568998413
 20
410.742230759897
 30
0.0
 11
512.3029568998413
 21
410.2766261050655
 31
0.0
  0
LINE
  5
E91F
330
1F
100
AcDbEntity
  8
0
370
    13
100
AcDbLine
 10
512.3029568998413
 20
410.2766261050655
 30
0.0
 11
512.3453315743097
 21
409.7686467757654
 31
0.0
  0
LINE
  5
E920
330
1F
100
AcDbEntity
  8
0
370
    13
100
AcDbLine
 10
512.3453315743097
 20
409.7686467757654
 30
0.0
 11
512.3877062487784
 21
409.3028698661597
 31
0.0
  0
LINE
  5
E921
330
1F
100
AcDbEntity
  8
0
370
    13
100
AcDbLine
 10
512.3877062487784
 20
409.3028698661597
 30
0.0
 11
512.4721110881671
 21
408.7948905368595
 31
0.0
  0
LINE
  5
E922
330
1F
100
AcDbEntity
  8
0
370
    13
100
AcDbLine
 10
512.4721110881671
 20
408.7948905368595
 30
0.0
 11
512.5992351115726
 21
408.329285882028
 31
0.0
  0
LINE
  5
E923
330
1F
100
AcDbEntity
  8
0
370
    13
100
AcDbLine
 10
512.5992351115726
 20
408.329285882028
 30
0.0
 11
512.7263591349783
 21
407.8635089724222
 31
0.0
  0
LINE
  5
E924
330
1F
100
AcDbEntity
  8
0
370
    13
100
AcDbLine
 10
512.7263591349783
 20
407.8635089724222
 30
0.0
 11
512.8955133233043
 21
407.3979043175907
 31
0.0
  0
LINE
  5
E925
330
1F
100
AcDbEntity
  8
0
370
    13
100
AcDbLine
 10
512.8955133233043
 20
407.3979043175907
 30
0.0
 11
513.0650120211785
 21
406.9322996627592
 31
0.0
  0
LINE
  5
E926
330
1F
100
AcDbEntity
  8
0
370
    13
100
AcDbLine
 10
513.0650120211785
 20
406.9322996627592
 30
0.0
 11
513.2765408839729
 21
406.4665227531534
 31
0.0
  0
LINE
  5
E927
330
1F
100
AcDbEntity
  8
0
370
    13
100
AcDbLine
 10
513.2765408839729
 20
406.4665227531534
 30
0.0
 11
513.4880697467672
 21
406.0432927727906
 31
0.0
  0
LINE
  5
E928
330
1F
100
AcDbEntity
  8
0
370
    13
100
AcDbLine
 10
513.4880697467672
 20
406.0432927727906
 30
0.0
 11
513.69994311911
 21
405.6198905376533
 31
0.0
  0
LINE
  5
E929
330
1F
100
AcDbEntity
  8
0
370
    13
100
AcDbLine
 10
513.69994311911
 20
405.6198905376533
 30
0.0
 11
513.9962213308415
 21
405.1966605572903
 31
0.0
  0
LINE
  5
E92A
330
1F
100
AcDbEntity
  8
0
370
    13
100
AcDbLine
 10
513.9962213308415
 20
405.1966605572903
 30
0.0
 11
514.2501248681044
 21
404.8156329966217
 31
0.0
  0
LINE
  5
E92B
330
1F
100
AcDbEntity
  8
0
370
    13
100
AcDbLine
 10
514.2501248681044
 20
404.8156329966217
 30
0.0
 11
514.5464030798361
 21
404.4346054359531
 31
0.0
  0
LINE
  5
E92C
330
1F
100
AcDbEntity
  8
0
370
    13
100
AcDbLine
 10
514.5464030798361
 20
404.4346054359531
 30
0.0
 11
514.8850559660361
 21
404.0535778752844
 31
0.0
  0
LINE
  5
E92D
330
1F
100
AcDbEntity
  8
0
370
    13
100
AcDbLine
 10
514.8850559660361
 20
404.0535778752844
 30
0.0
 11
515.2237088522361
 21
403.6725503146158
 31
0.0
  0
LINE
  5
E92E
330
1F
100
AcDbEntity
  8
0
370
    13
100
AcDbLine
 10
515.2237088522361
 20
403.6725503146158
 30
0.0
 11
515.5627062479847
 21
403.3338974284158
 31
0.0
  0
LINE
  5
E92F
330
1F
100
AcDbEntity
  8
0
370
    13
100
AcDbLine
 10
515.5627062479847
 20
403.3338974284158
 30
0.0
 11
515.9433892991046
 21
403.0376192166843
 31
0.0
  0
LINE
  5
E930
330
1F
100
AcDbEntity
  8
0
370
    13
100
AcDbLine
 10
515.9433892991046
 20
403.0376192166843
 30
0.0
 11
516.3244168597736
 21
402.744786100438
 31
0.0
  0
LINE
  5
E931
330
1F
100
AcDbEntity
  8
0
370
    13
100
AcDbLine
 10
516.3244168597736
 20
402.744786100438
 30
0.0
 11
516.7478190949105
 21
402.444890538447
 31
0.0
  0
LINE
  5
E932
330
1F
100
AcDbEntity
  8
0
370
    13
100
AcDbLine
 10
516.7478190949105
 20
402.444890538447
 30
0.0
 11
517.1712213300477
 21
402.1909870011841
 31
0.0
  0
LINE
  5
E933
330
1F
100
AcDbEntity
  8
0
370
    13
100
AcDbLine
 10
517.1712213300477
 20
402.1909870011841
 30
0.0
 11
517.594623565185
 21
401.936911209147
 31
0.0
  0
LINE
  5
E934
330
1F
100
AcDbEntity
  8
0
370
    13
100
AcDbLine
 10
517.594623565185
 20
401.936911209147
 30
0.0
 11
518.0180258003222
 21
401.7252100915783
 31
0.0
  0
LINE
  5
E935
330
1F
100
AcDbEntity
  8
0
370
    13
100
AcDbLine
 10
518.0180258003222
 20
401.7252100915783
 30
0.0
 11
518.4834582003793
 21
401.5135089740097
 31
0.0
  0
LINE
  5
E936
330
1F
100
AcDbEntity
  8
0
370
    13
100
AcDbLine
 10
518.4834582003793
 20
401.5135089740097
 30
0.0
 11
518.9068604355166
 21
401.344354785684
 31
0.0
  0
LINE
  5
E937
330
1F
100
AcDbEntity
  8
0
370
    13
100
AcDbLine
 10
518.9068604355166
 20
401.344354785684
 30
0.0
 11
519.4150120195911
 21
401.1748560878098
 31
0.0
  0
LINE
  5
E938
330
1F
100
AcDbEntity
  8
0
370
    13
100
AcDbLine
 10
519.4150120195911
 20
401.1748560878098
 30
0.0
 11
519.8804444196484
 21
401.0479043191782
 31
0.0
  0
LINE
  5
E939
330
1F
100
AcDbEntity
  8
0
370
    13
100
AcDbLine
 10
519.8804444196484
 20
401.0479043191782
 30
0.0
 11
520.3462213292539
 21
400.9633272250153
 31
0.0
  0
LINE
  5
E93A
330
1F
100
AcDbEntity
  8
0
370
    13
100
AcDbLine
 10
520.3462213292539
 20
400.9633272250153
 30
0.0
 11
520.8119982388598
 21
400.8785778760782
 31
0.0
  0
LINE
  5
E93B
330
1F
100
AcDbEntity
  8
0
370
    13
100
AcDbLine
 10
520.8119982388598
 20
400.8785778760782
 30
0.0
 11
521.3198053133856
 21
400.793828527141
 31
0.0
  0
LINE
  5
E93C
330
1F
100
AcDbEntity
  8
0
370
    13
100
AcDbLine
 10
521.3198053133856
 20
400.793828527141
 30
0.0
 11
521.7855822229915
 21
400.7516261074467
 31
0.0
  0
LINE
  5
E93D
330
1F
100
AcDbEntity
  8
0
370
    13
100
AcDbLine
 10
521.7855822229915
 20
400.7516261074467
 30
0.0
 11
522.2933892975174
 21
400.7516261074467
 31
0.0
  0
LINE
  5
E93E
330
1F
100
AcDbEntity
  8
0
370
    13
100
AcDbLine
 10
522.2933892975174
 20
400.7516261074467
 30
0.0
 11
522.8015408815917
 21
400.7516261074467
 31
0.0
  0
LINE
  5
E93F
330
1F
100
AcDbEntity
  8
0
370
    13
100
AcDbLine
 10
522.8015408815917
 20
400.7516261074467
 30
0.0
 11
523.2673177911972
 21
400.793828527141
 31
0.0
  0
LINE
  5
E940
330
1F
100
AcDbEntity
  8
0
370
    13
100
AcDbLine
 10
523.2673177911972
 20
400.793828527141
 30
0.0
 11
523.7751248657232
 21
400.8785778760782
 31
0.0
  0
LINE
  5
E941
330
1F
100
AcDbEntity
  8
0
370
    13
100
AcDbLine
 10
523.7751248657232
 20
400.8785778760782
 30
0.0
 11
524.2409017753291
 21
400.9633272250153
 31
0.0
  0
LINE
  5
E942
330
1F
100
AcDbEntity
  8
0
370
    13
100
AcDbLine
 10
524.2409017753291
 20
400.9633272250153
 30
0.0
 11
524.7066786849348
 21
401.0479043191782
 31
0.0
  0
LINE
  5
E943
330
1F
100
AcDbEntity
  8
0
370
    13
100
AcDbLine
 10
524.7066786849348
 20
401.0479043191782
 30
0.0
 11
525.2144857594607
 21
401.1748560878098
 31
0.0
  0
LINE
  5
E944
330
1F
100
AcDbEntity
  8
0
370
    13
100
AcDbLine
 10
525.2144857594607
 20
401.1748560878098
 30
0.0
 11
525.6802626690662
 21
401.344354785684
 31
0.0
  0
LINE
  5
E945
330
1F
100
AcDbEntity
  8
0
370
    13
100
AcDbLine
 10
525.6802626690662
 20
401.344354785684
 30
0.0
 11
526.1036649042035
 21
401.5135089740097
 31
0.0
  0
LINE
  5
E946
330
1F
100
AcDbEntity
  8
0
370
    13
100
AcDbLine
 10
526.1036649042035
 20
401.5135089740097
 30
0.0
 11
526.5690973042608
 21
401.7252100915783
 31
0.0
  0
LINE
  5
E947
330
1F
100
AcDbEntity
  8
0
370
    13
100
AcDbLine
 10
526.5690973042608
 20
401.7252100915783
 30
0.0
 11
526.9924995393981
 21
401.936911209147
 31
0.0
  0
LINE
  5
E948
330
1F
100
AcDbEntity
  8
0
370
    13
100
AcDbLine
 10
526.9924995393981
 20
401.936911209147
 30
0.0
 11
527.4582764490037
 21
402.1909870011841
 31
0.0
  0
LINE
  5
E949
330
1F
100
AcDbEntity
  8
0
370
    13
100
AcDbLine
 10
527.4582764490037
 20
402.1909870011841
 30
0.0
 11
527.8393040096723
 21
402.444890538447
 31
0.0
  0
LINE
  5
E94A
330
1F
100
AcDbEntity
  8
0
370
    13
100
AcDbLine
 10
527.8393040096723
 20
402.444890538447
 30
0.0
 11
528.2627062448096
 21
402.744786100438
 31
0.0
  0
LINE
  5
E94B
330
1F
100
AcDbEntity
  8
0
370
    13
100
AcDbLine
 10
528.2627062448096
 20
402.744786100438
 30
0.0
 11
528.6433892959296
 21
403.0376192166843
 31
0.0
  0
LINE
  5
E94C
330
1F
100
AcDbEntity
  8
0
370
    13
100
AcDbLine
 10
528.6433892959296
 20
403.0376192166843
 30
0.0
 11
529.0244168565986
 21
403.3338974284158
 31
0.0
  0
LINE
  5
E94D
330
1F
100
AcDbEntity
  8
0
370
    13
100
AcDbLine
 10
529.0244168565986
 20
403.3338974284158
 30
0.0
 11
529.3630697427984
 21
403.6725503146158
 31
0.0
  0
LINE
  5
E94E
330
1F
100
AcDbEntity
  8
0
370
    13
100
AcDbLine
 10
529.3630697427984
 20
403.6725503146158
 30
0.0
 11
529.7017226289984
 21
404.0535778752844
 31
0.0
  0
LINE
  5
E94F
330
1F
100
AcDbEntity
  8
0
370
    13
100
AcDbLine
 10
529.7017226289984
 20
404.0535778752844
 30
0.0
 11
530.0403755151987
 21
404.4346054359531
 31
0.0
  0
LINE
  5
E950
330
1F
100
AcDbEntity
  8
0
370
    13
100
AcDbLine
 10
530.0403755151987
 20
404.4346054359531
 30
0.0
 11
530.3369982364786
 21
404.8156329966217
 31
0.0
  0
LINE
  5
E951
330
1F
100
AcDbEntity
  8
0
370
    13
100
AcDbLine
 10
530.3369982364786
 20
404.8156329966217
 30
0.0
 11
530.5909017737415
 21
405.1966605572903
 31
0.0
  0
LINE
  5
E952
330
1F
100
AcDbEntity
  8
0
370
    13
100
AcDbLine
 10
530.5909017737415
 20
405.1966605572903
 30
0.0
 11
530.887179985473
 21
405.6198905376533
 31
0.0
  0
LINE
  5
E953
330
1F
100
AcDbEntity
  8
0
370
    13
100
AcDbLine
 10
530.887179985473
 20
405.6198905376533
 30
0.0
 11
531.0987088482673
 21
406.0432927727906
 31
0.0
  0
LINE
  5
E954
330
1F
100
AcDbEntity
  8
0
370
    13
100
AcDbLine
 10
531.0987088482673
 20
406.0432927727906
 30
0.0
 11
531.3529568950787
 21
406.4665227531534
 31
0.0
  0
LINE
  5
E955
330
1F
100
AcDbEntity
  8
0
370
    13
100
AcDbLine
 10
531.3529568950787
 20
406.4665227531534
 30
0.0
 11
531.5221110834045
 21
406.9322996627592
 31
0.0
  0
LINE
  5
E956
330
1F
100
AcDbEntity
  8
0
370
    13
100
AcDbLine
 10
531.5221110834045
 20
406.9322996627592
 30
0.0
 11
531.6916097812789
 21
407.3979043175907
 31
0.0
  0
LINE
  5
E957
330
1F
100
AcDbEntity
  8
0
370
    13
100
AcDbLine
 10
531.6916097812789
 20
407.3979043175907
 30
0.0
 11
531.8607639696045
 21
407.8635089724222
 31
0.0
  0
LINE
  5
E958
330
1F
100
AcDbEntity
  8
0
370
    13
100
AcDbLine
 10
531.8607639696045
 20
407.8635089724222
 30
0.0
 11
531.9878879930102
 21
408.329285882028
 31
0.0
  0
LINE
  5
E959
330
1F
100
AcDbEntity
  8
0
370
    13
100
AcDbLine
 10
531.9878879930102
 20
408.329285882028
 30
0.0
 11
532.1150120164161
 21
408.7948905368595
 31
0.0
  0
LINE
  5
E95A
330
1F
100
AcDbEntity
  8
0
370
    13
100
AcDbLine
 10
532.1150120164161
 20
408.7948905368595
 30
0.0
 11
532.1994168558048
 21
409.3028698661597
 31
0.0
  0
LINE
  5
E95B
330
1F
100
AcDbEntity
  8
0
370
    13
100
AcDbLine
 10
532.1994168558048
 20
409.3028698661597
 30
0.0
 11
532.2417915302731
 21
409.7686467757654
 31
0.0
  0
LINE
  5
E95C
330
1F
100
AcDbEntity
  8
0
370
    13
100
AcDbLine
 10
532.2417915302731
 20
409.7686467757654
 30
0.0
 11
532.2841662047417
 21
410.2766261050655
 31
0.0
  0
LINE
  5
E95D
330
1F
100
AcDbEntity
  8
0
370
    13
100
AcDbLine
 10
532.2841662047417
 20
410.2766261050655
 30
0.0
 11
532.2841662047417
 21
410.742230759897
 31
0.0
  0
LINE
  5
E95E
330
1F
100
AcDbEntity
  8
0
370
    13
100
AcDbLine
 10
532.2841662047417
 20
420.7752100868158
 30
0.0
 11
532.2841662047417
 21
421.2409869964216
 31
0.0
  0
LINE
  5
E95F
330
1F
100
AcDbEntity
  8
0
370
    13
100
AcDbLine
 10
532.2841662047417
 20
421.2409869964216
 30
0.0
 11
532.2417915302731
 21
421.7489663257218
 31
0.0
  0
LINE
  5
E960
330
1F
100
AcDbEntity
  8
0
370
    13
100
AcDbLine
 10
532.2417915302731
 20
421.7489663257218
 30
0.0
 11
532.1994168558048
 21
422.2145709805533
 31
0.0
  0
LINE
  5
E961
330
1F
100
AcDbEntity
  8
0
370
    13
100
AcDbLine
 10
532.1994168558048
 20
422.2145709805533
 30
0.0
 11
532.1150120164161
 21
422.7225503098533
 31
0.0
  0
LINE
  5
E962
330
1F
100
AcDbEntity
  8
0
370
    13
100
AcDbLine
 10
532.1150120164161
 20
422.7225503098533
 30
0.0
 11
531.9878879930102
 21
423.1883272194591
 31
0.0
  0
LINE
  5
E963
330
1F
100
AcDbEntity
  8
0
370
    13
100
AcDbLine
 10
531.9878879930102
 20
423.1883272194591
 30
0.0
 11
531.8607639696045
 21
423.6539318742906
 31
0.0
  0
LINE
  5
E964
330
1F
100
AcDbEntity
  8
0
370
    13
100
AcDbLine
 10
531.8607639696045
 20
423.6539318742906
 30
0.0
 11
531.6916097812789
 21
424.1195365291221
 31
0.0
  0
LINE
  5
E965
330
1F
100
AcDbEntity
  8
0
370
    13
100
AcDbLine
 10
531.6916097812789
 20
424.1195365291221
 30
0.0
 11
531.5221110834045
 21
424.585313438728
 31
0.0
  0
LINE
  5
E966
330
1F
100
AcDbEntity
  8
0
370
    13
100
AcDbLine
 10
531.5221110834045
 20
424.585313438728
 30
0.0
 11
531.3529568950787
 21
425.0509180935594
 31
0.0
  0
LINE
  5
E967
330
1F
100
AcDbEntity
  8
0
370
    13
100
AcDbLine
 10
531.3529568950787
 20
425.0509180935594
 30
0.0
 11
531.0987088482673
 21
425.4743203286966
 31
0.0
  0
LINE
  5
E968
330
1F
100
AcDbEntity
  8
0
370
    13
100
AcDbLine
 10
531.0987088482673
 20
425.4743203286966
 30
0.0
 11
530.887179985473
 21
425.8975503090596
 31
0.0
  0
LINE
  5
E969
330
1F
100
AcDbEntity
  8
0
370
    13
100
AcDbLine
 10
530.887179985473
 20
425.8975503090596
 30
0.0
 11
530.5909017737415
 21
426.3209525441969
 31
0.0
  0
LINE
  5
E96A
330
1F
100
AcDbEntity
  8
0
370
    13
100
AcDbLine
 10
530.5909017737415
 20
426.3209525441969
 30
0.0
 11
530.3369982364786
 21
426.7019801048655
 31
0.0
  0
LINE
  5
E96B
330
1F
100
AcDbEntity
  8
0
370
    13
100
AcDbLine
 10
530.3369982364786
 20
426.7019801048655
 30
0.0
 11
530.0403755151987
 21
427.0864527610194
 31
0.0
  0
LINE
  5
E96C
330
1F
100
AcDbEntity
  8
0
370
    13
100
AcDbLine
 10
530.0403755151987
 20
427.0864527610194
 30
0.0
 11
529.7017226289984
 21
427.4638629714284
 31
0.0
  0
LINE
  5
E96D
330
1F
100
AcDbEntity
  8
0
370
    13
100
AcDbLine
 10
529.7017226289984
 20
427.4638629714284
 30
0.0
 11
529.3630697427984
 21
427.844890532097
 31
0.0
  0
LINE
  5
E96E
330
1F
100
AcDbEntity
  8
0
370
    13
100
AcDbLine
 10
529.3630697427984
 20
427.844890532097
 30
0.0
 11
529.0244168565986
 21
428.1835434182972
 31
0.0
  0
LINE
  5
E96F
330
1F
100
AcDbEntity
  8
0
370
    13
100
AcDbLine
 10
529.0244168565986
 20
428.1835434182972
 30
0.0
 11
528.6433892959296
 21
428.4799938848029
 31
0.0
  0
LINE
  5
E970
330
1F
100
AcDbEntity
  8
0
370
    13
100
AcDbLine
 10
528.6433892959296
 20
428.4799938848029
 30
0.0
 11
528.2627062448096
 21
428.7762720965343
 31
0.0
  0
LINE
  5
E971
330
1F
100
AcDbEntity
  8
0
370
    13
100
AcDbLine
 10
528.2627062448096
 20
428.7762720965343
 30
0.0
 11
527.8393040096723
 21
429.0725503082658
 31
0.0
  0
LINE
  5
E972
330
1F
100
AcDbEntity
  8
0
370
    13
100
AcDbLine
 10
527.8393040096723
 20
429.0725503082658
 30
0.0
 11
527.4582764490037
 21
429.3266261003031
 31
0.0
  0
LINE
  5
E973
330
1F
100
AcDbEntity
  8
0
370
    13
100
AcDbLine
 10
527.4582764490037
 20
429.3266261003031
 30
0.0
 11
526.9924995393981
 21
429.580529637566
 31
0.0
  0
LINE
  5
E974
330
1F
100
AcDbEntity
  8
0
370
    13
100
AcDbLine
 10
526.9924995393981
 20
429.580529637566
 30
0.0
 11
526.5690973042608
 21
429.7922307551345
 31
0.0
  0
LINE
  5
E975
330
1F
100
AcDbEntity
  8
0
370
    13
100
AcDbLine
 10
526.5690973042608
 20
429.7922307551345
 30
0.0
 11
526.1036649042035
 21
430.0039318727031
 31
0.0
  0
LINE
  5
E976
330
1F
100
AcDbEntity
  8
0
370
    13
100
AcDbLine
 10
526.1036649042035
 20
430.0039318727031
 30
0.0
 11
525.6802626690662
 21
430.1732583158031
 31
0.0
  0
LINE
  5
E977
330
1F
100
AcDbEntity
  8
0
370
    13
100
AcDbLine
 10
525.6802626690662
 20
430.1732583158031
 30
0.0
 11
525.2144857594607
 21
430.3425847589033
 31
0.0
  0
LINE
  5
E978
330
1F
100
AcDbEntity
  8
0
370
    13
100
AcDbLine
 10
525.2144857594607
 20
430.3425847589033
 30
0.0
 11
524.7066786849348
 21
430.4695365275346
 31
0.0
  0
LINE
  5
E979
330
1F
100
AcDbEntity
  8
0
370
    13
100
AcDbLine
 10
524.7066786849348
 20
430.4695365275346
 30
0.0
 11
524.2409017753291
 21
430.5542858764718
 31
0.0
  0
LINE
  5
E97A
330
1F
100
AcDbEntity
  8
0
370
    13
100
AcDbLine
 10
524.2409017753291
 20
430.5542858764718
 30
0.0
 11
523.7751248657232
 21
430.6388629706346
 31
0.0
  0
LINE
  5
E97B
330
1F
100
AcDbEntity
  8
0
370
    13
100
AcDbLine
 10
523.7751248657232
 20
430.6388629706346
 30
0.0
 11
523.2673177911972
 21
430.7236123195719
 31
0.0
  0
LINE
  5
E97C
330
1F
100
AcDbEntity
  8
0
370
    13
100
AcDbLine
 10
523.2673177911972
 20
430.7236123195719
 30
0.0
 11
522.8015408815917
 21
430.7659869940403
 31
0.0
  0
LINE
  5
E97D
330
1F
100
AcDbEntity
  8
0
370
    13
100
AcDbLine
 10
522.8015408815917
 20
430.7659869940403
 30
0.0
 11
522.2933892975174
 21
430.7659869940403
 31
0.0
  0
LINE
  5
E97E
330
1F
100
AcDbEntity
  8
0
370
    13
100
AcDbLine
 10
522.2933892975174
 20
430.7659869940403
 30
0.0
 11
521.7855822229915
 21
430.7659869940403
 31
0.0
  0
LINE
  5
E97F
330
1F
100
AcDbEntity
  8
0
370
    13
100
AcDbLine
 10
521.7855822229915
 20
430.7659869940403
 30
0.0
 11
521.3198053133856
 21
430.7236123195719
 31
0.0
  0
LINE
  5
E980
330
1F
100
AcDbEntity
  8
0
370
    13
100
AcDbLine
 10
521.3198053133856
 20
430.7236123195719
 30
0.0
 11
520.8119982388598
 21
430.6388629706346
 31
0.0
  0
LINE
  5
E981
330
1F
100
AcDbEntity
  8
0
370
    13
100
AcDbLine
 10
520.8119982388598
 20
430.6388629706346
 30
0.0
 11
520.3462213292539
 21
430.5542858764718
 31
0.0
  0
LINE
  5
E982
330
1F
100
AcDbEntity
  8
0
370
    13
100
AcDbLine
 10
520.3462213292539
 20
430.5542858764718
 30
0.0
 11
519.8804444196484
 21
430.4695365275346
 31
0.0
  0
LINE
  5
E983
330
1F
100
AcDbEntity
  8
0
370
    13
100
AcDbLine
 10
519.8804444196484
 20
430.4695365275346
 30
0.0
 11
519.4150120195911
 21
430.3425847589033
 31
0.0
  0
LINE
  5
E984
330
1F
100
AcDbEntity
  8
0
370
    13
100
AcDbLine
 10
519.4150120195911
 20
430.3425847589033
 30
0.0
 11
518.9068604355166
 21
430.1732583158031
 31
0.0
  0
LINE
  5
E985
330
1F
100
AcDbEntity
  8
0
370
    13
100
AcDbLine
 10
518.9068604355166
 20
430.1732583158031
 30
0.0
 11
518.4834582003793
 21
430.0039318727031
 31
0.0
  0
LINE
  5
E986
330
1F
100
AcDbEntity
  8
0
370
    13
100
AcDbLine
 10
518.4834582003793
 20
430.0039318727031
 30
0.0
 11
518.0180258003222
 21
429.7922307551345
 31
0.0
  0
LINE
  5
E987
330
1F
100
AcDbEntity
  8
0
370
    13
100
AcDbLine
 10
518.0180258003222
 20
429.7922307551345
 30
0.0
 11
517.594623565185
 21
429.580529637566
 31
0.0
  0
LINE
  5
E988
330
1F
100
AcDbEntity
  8
0
370
    13
100
AcDbLine
 10
517.594623565185
 20
429.580529637566
 30
0.0
 11
517.1712213300477
 21
429.3266261003031
 31
0.0
  0
LINE
  5
E989
330
1F
100
AcDbEntity
  8
0
370
    13
100
AcDbLine
 10
517.1712213300477
 20
429.3266261003031
 30
0.0
 11
516.7478190949105
 21
429.0725503082658
 31
0.0
  0
LINE
  5
E98A
330
1F
100
AcDbEntity
  8
0
370
    13
100
AcDbLine
 10
516.7478190949105
 20
429.0725503082658
 30
0.0
 11
516.3244168597736
 21
428.7762720965343
 31
0.0
  0
LINE
  5
E98B
330
1F
100
AcDbEntity
  8
0
370
    13
100
AcDbLine
 10
516.3244168597736
 20
428.7762720965343
 30
0.0
 11
515.9433892991046
 21
428.4799938848029
 31
0.0
  0
LINE
  5
E98C
330
1F
100
AcDbEntity
  8
0
370
    13
100
AcDbLine
 10
515.9433892991046
 20
428.4799938848029
 30
0.0
 11
515.5627062479847
 21
428.1835434182972
 31
0.0
  0
LINE
  5
E98D
330
1F
100
AcDbEntity
  8
0
370
    13
100
AcDbLine
 10
515.5627062479847
 20
428.1835434182972
 30
0.0
 11
515.2237088522361
 21
427.844890532097
 31
0.0
  0
LINE
  5
E98E
330
1F
100
AcDbEntity
  8
0
370
    13
100
AcDbLine
 10
515.2237088522361
 20
427.844890532097
 30
0.0
 11
514.8850559660361
 21
427.4638629714284
 31
0.0
  0
LINE
  5
E98F
330
1F
100
AcDbEntity
  8
0
370
    13
100
AcDbLine
 10
514.8850559660361
 20
427.4638629714284
 30
0.0
 11
514.5464030798361
 21
427.0864527610194
 31
0.0
  0
LINE
  5
E990
330
1F
100
AcDbEntity
  8
0
370
    13
100
AcDbLine
 10
514.5464030798361
 20
427.0864527610194
 30
0.0
 11
514.2501248681044
 21
426.7019801048655
 31
0.0
  0
LINE
  5
E991
330
1F
100
AcDbEntity
  8
0
370
    13
100
AcDbLine
 10
514.2501248681044
 20
426.7019801048655
 30
0.0
 11
513.9962213308415
 21
426.3209525441969
 31
0.0
  0
LINE
  5
E992
330
1F
100
AcDbEntity
  8
0
370
    13
100
AcDbLine
 10
513.9962213308415
 20
426.3209525441969
 30
0.0
 11
513.69994311911
 21
425.8975503090596
 31
0.0
  0
LINE
  5
E993
330
1F
100
AcDbEntity
  8
0
370
    13
100
AcDbLine
 10
513.69994311911
 20
425.8975503090596
 30
0.0
 11
513.4880697467672
 21
425.4743203286966
 31
0.0
  0
LINE
  5
E994
330
1F
100
AcDbEntity
  8
0
370
    13
100
AcDbLine
 10
513.4880697467672
 20
425.4743203286966
 30
0.0
 11
513.2765408839729
 21
425.0509180935594
 31
0.0
  0
LINE
  5
E995
330
1F
100
AcDbEntity
  8
0
370
    13
100
AcDbLine
 10
513.2765408839729
 20
425.0509180935594
 30
0.0
 11
513.0650120211785
 21
424.585313438728
 31
0.0
  0
LINE
  5
E996
330
1F
100
AcDbEntity
  8
0
370
    13
100
AcDbLine
 10
513.0650120211785
 20
424.585313438728
 30
0.0
 11
512.8955133233043
 21
424.1195365291221
 31
0.0
  0
LINE
  5
E997
330
1F
100
AcDbEntity
  8
0
370
    13
100
AcDbLine
 10
512.8955133233043
 20
424.1195365291221
 30
0.0
 11
512.7263591349783
 21
423.6539318742906
 31
0.0
  0
LINE
  5
E998
330
1F
100
AcDbEntity
  8
0
370
    13
100
AcDbLine
 10
512.7263591349783
 20
423.6539318742906
 30
0.0
 11
512.5992351115726
 21
423.1883272194591
 31
0.0
  0
LINE
  5
E999
330
1F
100
AcDbEntity
  8
0
370
    13
100
AcDbLine
 10
512.5992351115726
 20
423.1883272194591
 30
0.0
 11
512.4721110881671
 21
422.7225503098533
 31
0.0
  0
LINE
  5
E99A
330
1F
100
AcDbEntity
  8
0
370
    13
100
AcDbLine
 10
512.4721110881671
 20
422.7225503098533
 30
0.0
 11
512.3877062487784
 21
422.2145709805533
 31
0.0
  0
LINE
  5
E99B
330
1F
100
AcDbEntity
  8
0
370
    13
100
AcDbLine
 10
512.3877062487784
 20
422.2145709805533
 30
0.0
 11
512.3453315743097
 21
421.7489663257218
 31
0.0
  0
LINE
  5
E99C
330
1F
100
AcDbEntity
  8
0
370
    13
100
AcDbLine
 10
512.3453315743097
 20
421.7489663257218
 30
0.0
 11
512.3029568998413
 21
421.2409869964216
 31
0.0
  0
LINE
  5
E99D
330
1F
100
AcDbEntity
  8
0
370
    13
100
AcDbLine
 10
512.3029568998413
 20
421.2409869964216
 30
0.0
 11
512.3029568998413
 21
420.7752100868158
 31
0.0
  0
LINE
  5
E99E
330
1F
100
AcDbEntity
  8
0
370
    13
100
AcDbLine
 10
532.2841662047417
 20
410.742230759897
 30
0.0
 11
532.2841662047417
 21
420.7752100868158
 31
0.0
  0
LINE
  5
E99F
330
1F
100
AcDbEntity
  8
0
370
    13
100
AcDbLine
 10
538.3755602505627
 20
396.1372652145031
 30
0.0
 11
537.655879803694
 21
396.8569456613718
 31
0.0
  0
LINE
  5
E9A0
330
1F
100
AcDbEntity
  8
0
370
    13
100
AcDbLine
 10
541.8892131359689
 20
399.6932927743781
 30
0.0
 11
540.8308798029002
 21
398.5925847668407
 31
0.0
  0
LINE
  5
E9A1
330
1F
100
AcDbEntity
  8
0
370
    13
100
AcDbLine
 10
539.4338935836315
 20
397.1955985475719
 30
0.0
 11
538.3755602505627
 21
396.1372652145031
 31
0.0
  0
LINE
  5
E9A2
330
1F
100
AcDbEntity
  8
0
370
    13
100
AcDbLine
 10
541.2119073635688
 20
400.3705985467781
 30
0.0
 11
541.8892131359689
 21
399.6932927743781
 31
0.0
  0
LINE
  5
E9A3
330
1F
100
AcDbEntity
  8
0
370
    13
100
AcDbLine
 10
537.655879803694
 20
396.8569456613718
 30
0.0
 11
538.7142131367627
 21
397.9152789944405
 31
0.0
  0
LINE
  5
E9A4
330
1F
100
AcDbEntity
  8
0
370
    13
100
AcDbLine
 10
540.1535740305002
 20
399.3122652137093
 30
0.0
 11
541.2119073635688
 21
400.3705985467781
 31
0.0
  0
LINE
  5
E9A5
330
1F
100
AcDbEntity
  8
0
370
    13
100
AcDbLine
 10
541.8892131359689
 20
396.8569456613718
 30
0.0
 11
541.2119073635688
 21
396.1372652145031
 31
0.0
  0
LINE
  5
E9A6
330
1F
100
AcDbEntity
  8
0
370
    13
100
AcDbLine
 10
538.3755602505627
 20
400.3705985467781
 30
0.0
 11
539.4338935836315
 21
399.3122652137093
 31
0.0
  0
LINE
  5
E9A7
330
1F
100
AcDbEntity
  8
0
370
    13
100
AcDbLine
 10
540.8308798029002
 20
397.9152789944405
 30
0.0
 11
541.8892131359689
 21
396.8569456613718
 31
0.0
  0
LINE
  5
E9A8
330
1F
100
AcDbEntity
  8
0
370
    13
100
AcDbLine
 10
537.655879803694
 20
399.6932927743781
 30
0.0
 11
538.3755602505627
 21
400.3705985467781
 31
0.0
  0
LINE
  5
E9A9
330
1F
100
AcDbEntity
  8
0
370
    13
100
AcDbLine
 10
541.2119073635688
 20
396.1372652145031
 30
0.0
 11
540.1535740305002
 21
397.1955985475719
 31
0.0
  0
LINE
  5
E9AA
330
1F
100
AcDbEntity
  8
0
370
    13
100
AcDbLine
 10
538.7142131367627
 20
398.5925847668407
 30
0.0
 11
537.655879803694
 21
399.6932927743781
 31
0.0
  0
LINE
  5
E9AB
330
1F
100
AcDbEntity
  8
0
370
    13
100
AcDbLine
 10
540.1535740305002
 20
399.3122652137093
 30
0.0
 11
540.068824681563
 21
399.2698905392408
 31
0.0
  0
LINE
  5
E9AC
330
1F
100
AcDbEntity
  8
0
370
    13
100
AcDbLine
 10
540.068824681563
 20
399.2698905392408
 30
0.0
 11
539.9840753326257
 21
399.2276881195465
 31
0.0
  0
LINE
  5
E9AD
330
1F
100
AcDbEntity
  8
0
370
    13
100
AcDbLine
 10
539.9840753326257
 20
399.2276881195465
 30
0.0
 11
539.8996704932372
 21
399.185313445078
 31
0.0
  0
LINE
  5
E9AE
330
1F
100
AcDbEntity
  8
0
370
    13
100
AcDbLine
 10
539.8996704932372
 20
399.185313445078
 30
0.0
 11
539.7725464698315
 21
399.185313445078
 31
0.0
  0
LINE
  5
E9AF
330
1F
100
AcDbEntity
  8
0
370
    13
100
AcDbLine
 10
539.7725464698315
 20
399.185313445078
 30
0.0
 11
539.6877971208944
 21
399.185313445078
 31
0.0
  0
LINE
  5
E9B0
330
1F
100
AcDbEntity
  8
0
370
    13
100
AcDbLine
 10
539.6877971208944
 20
399.185313445078
 30
0.0
 11
539.6030477719571
 21
399.2276881195465
 31
0.0
  0
LINE
  5
E9B1
330
1F
100
AcDbEntity
  8
0
370
    13
100
AcDbLine
 10
539.6030477719571
 20
399.2276881195465
 30
0.0
 11
539.5186429325686
 21
399.2698905392408
 31
0.0
  0
LINE
  5
E9B2
330
1F
100
AcDbEntity
  8
0
370
    13
100
AcDbLine
 10
539.5186429325686
 20
399.2698905392408
 30
0.0
 11
539.4338935836315
 21
399.3122652137093
 31
0.0
  0
LINE
  5
E9B3
330
1F
100
AcDbEntity
  8
0
370
    13
100
AcDbLine
 10
540.8308798029002
 20
397.9152789944405
 30
0.0
 11
540.7885051284317
 21
397.9998560886035
 31
0.0
  0
LINE
  5
E9B4
330
1F
100
AcDbEntity
  8
0
370
    13
100
AcDbLine
 10
540.7885051284317
 20
397.9998560886035
 30
0.0
 11
540.7461304539629
 21
398.0846054375406
 31
0.0
  0
LINE
  5
E9B5
330
1F
100
AcDbEntity
  8
0
370
    13
100
AcDbLine
 10
540.7461304539629
 20
398.0846054375406
 30
0.0
 11
540.7037557794945
 21
398.1693547864777
 31
0.0
  0
LINE
  5
E9B6
330
1F
100
AcDbEntity
  8
0
370
    13
100
AcDbLine
 10
540.7037557794945
 20
398.1693547864777
 30
0.0
 11
540.7037557794945
 21
398.2539318806406
 31
0.0
  0
LINE
  5
E9B7
330
1F
100
AcDbEntity
  8
0
370
    13
100
AcDbLine
 10
540.7037557794945
 20
398.2539318806406
 30
0.0
 11
540.7037557794945
 21
398.3385089748035
 31
0.0
  0
LINE
  5
E9B8
330
1F
100
AcDbEntity
  8
0
370
    13
100
AcDbLine
 10
540.7037557794945
 20
398.3385089748035
 30
0.0
 11
540.7461304539629
 21
398.4656329982092
 31
0.0
  0
LINE
  5
E9B9
330
1F
100
AcDbEntity
  8
0
370
    13
100
AcDbLine
 10
540.7461304539629
 20
398.4656329982092
 30
0.0
 11
540.7885051284317
 21
398.5502100923721
 31
0.0
  0
LINE
  5
E9BA
330
1F
100
AcDbEntity
  8
0
370
    13
100
AcDbLine
 10
540.7885051284317
 20
398.5502100923721
 30
0.0
 11
540.8308798029002
 21
398.5925847668407
 31
0.0
  0
LINE
  5
E9BB
330
1F
100
AcDbEntity
  8
0
370
    13
100
AcDbLine
 10
539.5186429325686
 20
397.2801756417347
 30
0.0
 11
539.6030477719571
 21
397.3225503162033
 31
0.0
  0
LINE
  5
E9BC
330
1F
100
AcDbEntity
  8
0
370
    13
100
AcDbLine
 10
539.6030477719571
 20
397.3225503162033
 30
0.0
 11
539.6877971208944
 21
397.3225503162033
 31
0.0
  0
LINE
  5
E9BD
330
1F
100
AcDbEntity
  8
0
370
    13
100
AcDbLine
 10
539.6877971208944
 20
397.3225503162033
 30
0.0
 11
539.7725464698315
 21
397.364924990672
 31
0.0
  0
LINE
  5
E9BE
330
1F
100
AcDbEntity
  8
0
370
    13
100
AcDbLine
 10
539.7725464698315
 20
397.364924990672
 30
0.0
 11
539.8996704932372
 21
397.3225503162033
 31
0.0
  0
LINE
  5
E9BF
330
1F
100
AcDbEntity
  8
0
370
    13
100
AcDbLine
 10
539.8996704932372
 20
397.3225503162033
 30
0.0
 11
539.9840753326257
 21
397.3225503162033
 31
0.0
  0
LINE
  5
E9C0
330
1F
100
AcDbEntity
  8
0
370
    13
100
AcDbLine
 10
539.9840753326257
 20
397.3225503162033
 30
0.0
 11
540.068824681563
 21
397.2801756417347
 31
0.0
  0
LINE
  5
E9C1
330
1F
100
AcDbEntity
  8
0
370
    13
100
AcDbLine
 10
540.068824681563
 20
397.2801756417347
 30
0.0
 11
540.1535740305002
 21
397.1955985475719
 31
0.0
  0
LINE
  5
E9C2
330
1F
100
AcDbEntity
  8
0
370
    13
100
AcDbLine
 10
538.7142131367627
 20
398.5925847668407
 30
0.0
 11
538.7989624856998
 21
398.5502100923721
 31
0.0
  0
LINE
  5
E9C3
330
1F
100
AcDbEntity
  8
0
370
    13
100
AcDbLine
 10
538.7989624856998
 20
398.5502100923721
 30
0.0
 11
538.8413371601686
 21
398.4656329982092
 31
0.0
  0
LINE
  5
E9C4
330
1F
100
AcDbEntity
  8
0
370
    13
100
AcDbLine
 10
538.8413371601686
 20
398.4656329982092
 30
0.0
 11
538.8413371601686
 21
398.3385089748035
 31
0.0
  0
LINE
  5
E9C5
330
1F
100
AcDbEntity
  8
0
370
    13
100
AcDbLine
 10
538.8413371601686
 20
398.3385089748035
 30
0.0
 11
538.8837118346371
 21
398.2539318806406
 31
0.0
  0
LINE
  5
E9C6
330
1F
100
AcDbEntity
  8
0
370
    13
100
AcDbLine
 10
538.8837118346371
 20
398.2539318806406
 30
0.0
 11
538.8413371601686
 21
398.1693547864777
 31
0.0
  0
LINE
  5
E9C7
330
1F
100
AcDbEntity
  8
0
370
    13
100
AcDbLine
 10
538.8413371601686
 20
398.1693547864777
 30
0.0
 11
538.8413371601686
 21
398.0846054375406
 31
0.0
  0
LINE
  5
E9C8
330
1F
100
AcDbEntity
  8
0
370
    13
100
AcDbLine
 10
538.8413371601686
 20
398.0846054375406
 30
0.0
 11
538.7989624856998
 21
397.9998560886035
 31
0.0
  0
LINE
  5
E9C9
330
1F
100
AcDbEntity
  8
0
370
    13
100
AcDbLine
 10
538.7989624856998
 20
397.9998560886035
 30
0.0
 11
538.7142131367627
 21
397.9152789944405
 31
0.0
  0
LINE
  5
E9CA
330
1F
100
AcDbEntity
  8
0
370
    13
100
AcDbLine
 10
556.287179979123
 20
444.778223861197
 30
0.0
 11
522.2937338070657
 21
444.778223861197
 31
0.0
  0
LINE
  5
E9CB
330
1F
100
AcDbEntity
  8
0
370
    13
100
AcDbLine
 10
556.287179979123
 20
376.7486123330656
 30
0.0
 11
522.2937338070657
 21
376.7486123330656
 31
0.0
  0
LINE
  5
E9CC
330
1F
100
AcDbEntity
  8
0
370
    13
100
AcDbLine
 10
556.287179979123
 20
444.778223861197
 30
0.0
 11
556.287179979123
 21
376.7486123330656
 31
0.0
  0
LINE
  5
E9CD
330
1F
100
AcDbEntity
  8
0
370
    13
100
AcDbLine
 10
550.553483155209
 20
409.9495142887411
 30
0.0
 11
550.5111084807404
 21
409.3145831908093
 31
0.0
  0
LINE
  5
E9CE
330
1F
100
AcDbEntity
  8
0
370
    13
100
AcDbLine
 10
550.5111084807404
 20
409.3145831908093
 30
0.0
 11
550.2992351083976
 21
408.6796520928779
 31
0.0
  0
LINE
  5
E9CF
330
1F
100
AcDbEntity
  8
0
370
    13
100
AcDbLine
 10
550.2992351083976
 20
408.6796520928779
 30
0.0
 11
550.0029568966662
 21
408.1291258343349
 31
0.0
  0
LINE
  5
E9D0
330
1F
100
AcDbEntity
  8
0
370
    13
100
AcDbLine
 10
550.0029568966662
 20
408.1291258343349
 30
0.0
 11
549.6219293359975
 21
407.6213187598091
 31
0.0
  0
LINE
  5
E9D1
330
1F
100
AcDbEntity
  8
0
370
    13
100
AcDbLine
 10
549.6219293359975
 20
407.6213187598091
 30
0.0
 11
549.1141222614717
 21
407.2402911991405
 31
0.0
  0
LINE
  5
E9D2
330
1F
100
AcDbEntity
  8
0
370
    13
100
AcDbLine
 10
549.1141222614717
 20
407.2402911991405
 30
0.0
 11
548.5635960029288
 21
406.944012987409
 31
0.0
  0
LINE
  5
E9D3
330
1F
100
AcDbEntity
  8
0
370
    13
100
AcDbLine
 10
548.5635960029288
 20
406.944012987409
 30
0.0
 11
547.9286649049973
 21
406.7324841246148
 31
0.0
  0
LINE
  5
E9D4
330
1F
100
AcDbEntity
  8
0
370
    13
100
AcDbLine
 10
547.9286649049973
 20
406.7324841246148
 30
0.0
 11
547.2937338070658
 21
406.6897649405976
 31
0.0
  0
LINE
  5
E9D5
330
1F
100
AcDbEntity
  8
0
370
    13
100
AcDbLine
 10
547.2937338070658
 20
406.6897649405976
 30
0.0
 11
546.7008328740542
 21
406.7324841246148
 31
0.0
  0
LINE
  5
E9D6
330
1F
100
AcDbEntity
  8
0
370
    13
100
AcDbLine
 10
546.7008328740542
 20
406.7324841246148
 30
0.0
 11
546.0659017761227
 21
406.944012987409
 31
0.0
  0
LINE
  5
E9D7
330
1F
100
AcDbEntity
  8
0
370
    13
100
AcDbLine
 10
546.0659017761227
 20
406.944012987409
 30
0.0
 11
545.5157200271283
 21
407.2402911991405
 31
0.0
  0
LINE
  5
E9D8
330
1F
100
AcDbEntity
  8
0
370
    13
100
AcDbLine
 10
545.5157200271283
 20
407.2402911991405
 30
0.0
 11
545.007568443054
 21
407.6213187598091
 31
0.0
  0
LINE
  5
E9D9
330
1F
100
AcDbEntity
  8
0
370
    13
100
AcDbLine
 10
545.007568443054
 20
407.6213187598091
 30
0.0
 11
544.6265408823854
 21
408.1291258343349
 31
0.0
  0
LINE
  5
E9DA
330
1F
100
AcDbEntity
  8
0
370
    13
100
AcDbLine
 10
544.6265408823854
 20
408.1291258343349
 30
0.0
 11
544.3302626706538
 21
408.6796520928779
 31
0.0
  0
LINE
  5
E9DB
330
1F
100
AcDbEntity
  8
0
370
    13
100
AcDbLine
 10
544.3302626706538
 20
408.6796520928779
 30
0.0
 11
544.1187338078594
 21
409.3145831908093
 31
0.0
  0
LINE
  5
E9DC
330
1F
100
AcDbEntity
  8
0
370
    13
100
AcDbLine
 10
544.1187338078594
 20
409.3145831908093
 30
0.0
 11
544.076359133391
 21
409.9495142887411
 31
0.0
  0
LINE
  5
E9DD
330
1F
100
AcDbEntity
  8
0
370
    13
100
AcDbLine
 10
544.076359133391
 20
416.4266383105592
 30
0.0
 11
544.1187338078594
 21
417.0615694084906
 31
0.0
  0
LINE
  5
E9DE
330
1F
100
AcDbEntity
  8
0
370
    13
100
AcDbLine
 10
544.1187338078594
 20
417.0615694084906
 30
0.0
 11
544.3302626706538
 21
417.6965005064224
 31
0.0
  0
LINE
  5
E9DF
330
1F
100
AcDbEntity
  8
0
370
    13
100
AcDbLine
 10
544.3302626706538
 20
417.6965005064224
 30
0.0
 11
544.6265408823854
 21
418.2470267649652
 31
0.0
  0
LINE
  5
E9E0
330
1F
100
AcDbEntity
  8
0
370
    13
100
AcDbLine
 10
544.6265408823854
 20
418.2470267649652
 30
0.0
 11
545.007568443054
 21
418.7128036745711
 31
0.0
  0
LINE
  5
E9E1
330
1F
100
AcDbEntity
  8
0
370
    13
100
AcDbLine
 10
545.007568443054
 20
418.7128036745711
 30
0.0
 11
545.5157200271283
 21
419.1358614001595
 31
0.0
  0
LINE
  5
E9E2
330
1F
100
AcDbEntity
  8
0
370
    13
100
AcDbLine
 10
545.5157200271283
 20
419.1358614001595
 30
0.0
 11
546.0659017761227
 21
419.4324841214398
 31
0.0
  0
LINE
  5
E9E3
330
1F
100
AcDbEntity
  8
0
370
    13
100
AcDbLine
 10
546.0659017761227
 20
419.4324841214398
 30
0.0
 11
546.7008328740542
 21
419.6016383097653
 31
0.0
  0
LINE
  5
E9E4
330
1F
100
AcDbEntity
  8
0
370
    13
100
AcDbLine
 10
546.7008328740542
 20
419.6016383097653
 30
0.0
 11
547.2937338070658
 21
419.6863876587026
 31
0.0
  0
LINE
  5
E9E5
330
1F
100
AcDbEntity
  8
0
370
    13
100
AcDbLine
 10
547.2937338070658
 20
419.6863876587026
 30
0.0
 11
547.9286649049973
 21
419.6016383097653
 31
0.0
  0
LINE
  5
E9E6
330
1F
100
AcDbEntity
  8
0
370
    13
100
AcDbLine
 10
547.9286649049973
 20
419.6016383097653
 30
0.0
 11
548.5635960029288
 21
419.4324841214398
 31
0.0
  0
LINE
  5
E9E7
330
1F
100
AcDbEntity
  8
0
370
    13
100
AcDbLine
 10
548.5635960029288
 20
419.4324841214398
 30
0.0
 11
549.1141222614717
 21
419.1358614001595
 31
0.0
  0
LINE
  5
E9E8
330
1F
100
AcDbEntity
  8
0
370
    13
100
AcDbLine
 10
549.1141222614717
 20
419.1358614001595
 30
0.0
 11
549.6219293359975
 21
418.7128036745711
 31
0.0
  0
LINE
  5
E9E9
330
1F
100
AcDbEntity
  8
0
370
    13
100
AcDbLine
 10
549.6219293359975
 20
418.7128036745711
 30
0.0
 11
550.0029568966662
 21
418.2470267649652
 31
0.0
  0
LINE
  5
E9EA
330
1F
100
AcDbEntity
  8
0
370
    13
100
AcDbLine
 10
550.0029568966662
 20
418.2470267649652
 30
0.0
 11
550.2992351083976
 21
417.6965005064224
 31
0.0
  0
LINE
  5
E9EB
330
1F
100
AcDbEntity
  8
0
370
    13
100
AcDbLine
 10
550.2992351083976
 20
417.6965005064224
 30
0.0
 11
550.5111084807404
 21
417.0615694084906
 31
0.0
  0
LINE
  5
E9EC
330
1F
100
AcDbEntity
  8
0
370
    13
100
AcDbLine
 10
550.5111084807404
 20
417.0615694084906
 30
0.0
 11
550.553483155209
 21
416.4266383105592
 31
0.0
  0
LINE
  5
E9ED
330
1F
100
AcDbEntity
  8
0
370
    13
100
AcDbLine
 10
544.076359133391
 20
409.9495142887411
 30
0.0
 11
544.076359133391
 21
416.4266383105592
 31
0.0
  0
LINE
  5
E9EE
330
1F
100
AcDbEntity
  8
0
370
    13
100
AcDbLine
 10
550.553483155209
 20
409.9495142887411
 30
0.0
 11
550.553483155209
 21
416.4266383105592
 31
0.0
  0
LINE
  5
E9EF
330
1F
100
AcDbEntity
  8
0
370
    13
100
AcDbLine
 10
522.2937338070657
 20
449.7736123148094
 30
0.0
 11
559.2930257900036
 21
449.7736123148094
 31
0.0
  0
LINE
  5
E9F0
330
1F
100
AcDbEntity
  8
0
370
    13
100
AcDbLine
 10
522.2937338070657
 20
374.7588974355596
 30
0.0
 11
559.2930257900036
 21
374.7588974355596
 31
0.0
  0
LINE
  5
E9F1
330
1F
100
AcDbEntity
  8
0
370
    13
100
AcDbLine
 10
522.2937338070657
 20
448.7576536562092
 30
0.0
 11
558.2767226218548
 21
448.7576536562092
 31
0.0
  0
LINE
  5
E9F2
330
1F
100
AcDbEntity
  8
0
370
    13
100
AcDbLine
 10
530.29462356201
 20
375.7748560941598
 30
0.0
 11
558.7848742059289
 21
375.7748560941598
 31
0.0
  0
LINE
  5
E9F3
330
1F
100
AcDbEntity
  8
0
370
    13
100
AcDbLine
 10
559.2930257900036
 20
412.7743203318716
 30
0.0
 11
556.287179979123
 21
412.7743203318716
 31
0.0
  0
LINE
  5
E9F4
330
1F
100
AcDbEntity
  8
0
370
    13
100
AcDbLine
 10
560.3089844486037
 20
375.7748560941598
 30
0.0
 11
560.3089844486037
 21
448.7576536562092
 31
0.0
  0
LINE
  5
E9F5
330
1F
100
AcDbEntity
  8
0
370
    13
100
AcDbLine
 10
559.2930257900036
 20
449.7736123148094
 30
0.0
 11
559.5045546527979
 21
449.7312376403407
 31
0.0
  0
LINE
  5
E9F6
330
1F
100
AcDbEntity
  8
0
370
    13
100
AcDbLine
 10
559.5045546527979
 20
449.7312376403407
 30
0.0
 11
559.6740533506722
 21
449.6888629658721
 31
0.0
  0
LINE
  5
E9F7
330
1F
100
AcDbEntity
  8
0
370
    13
100
AcDbLine
 10
559.6740533506722
 20
449.6888629658721
 30
0.0
 11
559.8432075389981
 21
449.6042858717093
 31
0.0
  0
LINE
  5
E9F8
330
1F
100
AcDbEntity
  8
0
370
    13
100
AcDbLine
 10
559.8432075389981
 20
449.6042858717093
 30
0.0
 11
560.0127062368722
 21
449.4771618483036
 31
0.0
  0
LINE
  5
E9F9
330
1F
100
AcDbEntity
  8
0
370
    13
100
AcDbLine
 10
560.0127062368722
 20
449.4771618483036
 30
0.0
 11
560.1394857507296
 21
449.3114527554631
 31
0.0
  0
LINE
  5
E9FA
330
1F
100
AcDbEntity
  8
0
370
    13
100
AcDbLine
 10
560.1394857507296
 20
449.3114527554631
 30
0.0
 11
560.2242350996667
 21
449.1385089621035
 31
0.0
  0
LINE
  5
E9FB
330
1F
100
AcDbEntity
  8
0
370
    13
100
AcDbLine
 10
560.2242350996667
 20
449.1385089621035
 30
0.0
 11
560.2666097741351
 21
448.9693547737777
 31
0.0
  0
LINE
  5
E9FC
330
1F
100
AcDbEntity
  8
0
370
    13
100
AcDbLine
 10
560.2666097741351
 20
448.9693547737777
 30
0.0
 11
560.3089844486037
 21
448.7576536562092
 31
0.0
  0
LINE
  5
E9FD
330
1F
100
AcDbEntity
  8
0
370
    13
100
AcDbLine
 10
560.3089844486037
 20
375.7748560941598
 30
0.0
 11
560.2666097741351
 21
375.5633272313653
 31
0.0
  0
LINE
  5
E9FE
330
1F
100
AcDbEntity
  8
0
370
    13
100
AcDbLine
 10
560.2666097741351
 20
375.5633272313653
 30
0.0
 11
560.2242350996667
 21
375.393828533491
 31
0.0
  0
LINE
  5
E9FF
330
1F
100
AcDbEntity
  8
0
370
    13
100
AcDbLine
 10
560.2242350996667
 20
375.393828533491
 30
0.0
 11
560.1394857507296
 21
375.1822996706968
 31
0.0
  0
LINE
  5
EA00
330
1F
100
AcDbEntity
  8
0
370
    13
100
AcDbLine
 10
560.1394857507296
 20
375.1822996706968
 30
0.0
 11
560.0127062368722
 21
375.055175647291
 31
0.0
  0
LINE
  5
EA01
330
1F
100
AcDbEntity
  8
0
370
    13
100
AcDbLine
 10
560.0127062368722
 20
375.055175647291
 30
0.0
 11
559.8432075389981
 21
374.9282238786595
 31
0.0
  0
LINE
  5
EA02
330
1F
100
AcDbEntity
  8
0
370
    13
100
AcDbLine
 10
559.8432075389981
 20
374.9282238786595
 30
0.0
 11
559.6740533506722
 21
374.8436467844966
 31
0.0
  0
LINE
  5
EA03
330
1F
100
AcDbEntity
  8
0
370
    13
100
AcDbLine
 10
559.6740533506722
 20
374.8436467844966
 30
0.0
 11
559.5045546527979
 21
374.7588974355596
 31
0.0
  0
LINE
  5
EA04
330
1F
100
AcDbEntity
  8
0
370
    13
100
AcDbLine
 10
559.5045546527979
 20
374.7588974355596
 30
0.0
 11
559.2930257900036
 21
374.7588974355596
 31
0.0
  0
LINE
  5
EA05
330
1F
100
AcDbEntity
  8
0
370
    13
100
AcDbLine
 10
559.2930257900036
 20
412.7743203318716
 30
0.0
 11
559.2930257900036
 21
447.7415227428347
 31
0.0
  0
LINE
  5
EA06
330
1F
100
AcDbEntity
  8
0
370
    13
100
AcDbLine
 10
558.2767226218548
 20
448.7576536562092
 30
0.0
 11
558.4885959941978
 21
448.7576536562092
 31
0.0
  0
LINE
  5
EA07
330
1F
100
AcDbEntity
  8
0
370
    13
100
AcDbLine
 10
558.4885959941978
 20
448.7576536562092
 30
0.0
 11
558.6577501825234
 21
448.672904307272
 31
0.0
  0
LINE
  5
EA08
330
1F
100
AcDbEntity
  8
0
370
    13
100
AcDbLine
 10
558.6577501825234
 20
448.672904307272
 30
0.0
 11
558.8272488803977
 21
448.5883272131091
 31
0.0
  0
LINE
  5
EA09
330
1F
100
AcDbEntity
  8
0
370
    13
100
AcDbLine
 10
558.8272488803977
 20
448.5883272131091
 30
0.0
 11
558.9967475782719
 21
448.4612031897034
 31
0.0
  0
LINE
  5
EA0A
330
1F
100
AcDbEntity
  8
0
370
    13
100
AcDbLine
 10
558.9967475782719
 20
448.4612031897034
 30
0.0
 11
559.1235270921293
 21
448.3342514210719
 31
0.0
  0
LINE
  5
EA0B
330
1F
100
AcDbEntity
  8
0
370
    13
100
AcDbLine
 10
559.1235270921293
 20
448.3342514210719
 30
0.0
 11
559.2082764410666
 21
448.1225503035033
 31
0.0
  0
LINE
  5
EA0C
330
1F
100
AcDbEntity
  8
0
370
    13
100
AcDbLine
 10
559.2082764410666
 20
448.1225503035033
 30
0.0
 11
559.250651115535
 21
447.9532238604033
 31
0.0
  0
LINE
  5
EA0D
330
1F
100
AcDbEntity
  8
0
370
    13
100
AcDbLine
 10
559.250651115535
 20
447.9532238604033
 30
0.0
 11
559.2930257900036
 21
447.7415227428347
 31
0.0
  0
LINE
  5
EA0E
330
1F
100
AcDbEntity
  8
0
370
    13
100
AcDbLine
 10
559.8008328645292
 20
376.7486123330656
 30
0.0
 11
559.8008328645292
 21
410.742230759897
 31
0.0
  0
LINE
  5
EA0F
330
1F
100
AcDbEntity
  8
0
370
    13
100
AcDbLine
 10
559.2930257900036
 20
412.7743203318716
 30
0.0
 11
559.8432075389981
 21
410.742230759897
 31
0.0
  0
LINE
  5
EA10
330
1F
100
AcDbEntity
  8
0
370
    13
100
AcDbLine
 10
559.8008328645292
 20
376.7486123330656
 30
0.0
 11
559.758458190061
 21
376.5792858899655
 31
0.0
  0
LINE
  5
EA11
330
1F
100
AcDbEntity
  8
0
370
    13
100
AcDbLine
 10
559.758458190061
 20
376.5792858899655
 30
0.0
 11
559.7160835155923
 21
376.367584772397
 31
0.0
  0
LINE
  5
EA12
330
1F
100
AcDbEntity
  8
0
370
    13
100
AcDbLine
 10
559.7160835155923
 20
376.367584772397
 30
0.0
 11
559.6316786762036
 21
376.1982583292969
 31
0.0
  0
LINE
  5
EA13
330
1F
100
AcDbEntity
  8
0
370
    13
100
AcDbLine
 10
559.6316786762036
 20
376.1982583292969
 30
0.0
 11
559.5045546527979
 21
376.0713065606654
 31
0.0
  0
LINE
  5
EA14
330
1F
100
AcDbEntity
  8
0
370
    13
100
AcDbLine
 10
559.5045546527979
 20
376.0713065606654
 30
0.0
 11
559.3350559549237
 21
375.944354792034
 31
0.0
  0
LINE
  5
EA15
330
1F
100
AcDbEntity
  8
0
370
    13
100
AcDbLine
 10
559.3350559549237
 20
375.944354792034
 30
0.0
 11
559.1659017665979
 21
375.8172307686282
 31
0.0
  0
LINE
  5
EA16
330
1F
100
AcDbEntity
  8
0
370
    13
100
AcDbLine
 10
559.1659017665979
 20
375.8172307686282
 30
0.0
 11
558.9967475782719
 21
375.7748560941598
 31
0.0
  0
LINE
  5
EA17
330
1F
100
AcDbEntity
  8
0
370
    13
100
AcDbLine
 10
558.9967475782719
 20
375.7748560941598
 30
0.0
 11
558.7848742059289
 21
375.7748560941598
 31
0.0
  0
LINE
  5
EA18
330
1F
100
AcDbEntity
  8
0
370
    13
100
AcDbLine
 10
538.0369073643626
 20
396.4759181007031
 30
0.0
 11
537.9521580154253
 21
396.560495194866
 31
0.0
  0
LINE
  5
EA19
330
1F
100
AcDbEntity
  8
0
370
    13
100
AcDbLine
 10
516.2823866948531
 20
376.2406330037654
 30
0.0
 11
516.2823866948531
 21
376.7486123330656
 31
0.0
  0
LINE
  5
EA1A
330
1F
100
AcDbEntity
  8
0
370
    13
100
AcDbLine
 10
514.2928440521215
 20
375.7748560941598
 30
0.0
 11
514.5047174244643
 21
375.7748560941598
 31
0.0
  0
LINE
  5
EA1B
330
1F
100
AcDbEntity
  8
0
370
    13
100
AcDbLine
 10
514.5047174244643
 20
375.7748560941598
 30
0.0
 11
514.6738716127901
 21
375.8172307686282
 31
0.0
  0
LINE
  5
EA1C
330
1F
100
AcDbEntity
  8
0
370
    13
100
AcDbLine
 10
514.6738716127901
 20
375.8172307686282
 30
0.0
 11
514.8433703106643
 21
375.944354792034
 31
0.0
  0
LINE
  5
EA1D
330
1F
100
AcDbEntity
  8
0
370
    13
100
AcDbLine
 10
514.8433703106643
 20
375.944354792034
 30
0.0
 11
515.0125244989902
 21
376.0713065606654
 31
0.0
  0
LINE
  5
EA1E
330
1F
100
AcDbEntity
  8
0
370
    13
100
AcDbLine
 10
515.0125244989902
 20
376.0713065606654
 30
0.0
 11
515.139648522396
 21
376.1982583292969
 31
0.0
  0
LINE
  5
EA1F
330
1F
100
AcDbEntity
  8
0
370
    13
100
AcDbLine
 10
515.139648522396
 20
376.1982583292969
 30
0.0
 11
515.2240533617844
 21
376.367584772397
 31
0.0
  0
LINE
  5
EA20
330
1F
100
AcDbEntity
  8
0
370
    13
100
AcDbLine
 10
515.2240533617844
 20
376.367584772397
 30
0.0
 11
515.2664280362529
 21
376.5792858899655
 31
0.0
  0
LINE
  5
EA21
330
1F
100
AcDbEntity
  8
0
370
    13
100
AcDbLine
 10
515.2664280362529
 20
376.5792858899655
 30
0.0
 11
515.3088027107216
 21
376.7486123330656
 31
0.0
  0
LINE
  5
EA22
330
1F
100
AcDbEntity
  8
0
370
    13
100
AcDbLine
 10
515.3088027107216
 20
375.2281194406505
 30
0.0
 11
515.4783014085958
 21
375.2281194406505
 31
0.0
  0
LINE
  5
EA23
330
1F
100
AcDbEntity
  8
0
370
    13
100
AcDbLine
 10
515.4783014085958
 20
375.2281194406505
 30
0.0
 11
515.6898302713903
 21
375.3092514393281
 31
0.0
  0
LINE
  5
EA24
330
1F
100
AcDbEntity
  8
0
370
    13
100
AcDbLine
 10
515.6898302713903
 20
375.3092514393281
 30
0.0
 11
515.8593289692644
 21
375.393828533491
 31
0.0
  0
LINE
  5
EA25
330
1F
100
AcDbEntity
  8
0
370
    13
100
AcDbLine
 10
515.8593289692644
 20
375.393828533491
 30
0.0
 11
515.9861084831218
 21
375.5209525568968
 31
0.0
  0
LINE
  5
EA26
330
1F
100
AcDbEntity
  8
0
370
    13
100
AcDbLine
 10
515.9861084831218
 20
375.5209525568968
 30
0.0
 11
516.1132325065275
 21
375.6902789999968
 31
0.0
  0
LINE
  5
EA27
330
1F
100
AcDbEntity
  8
0
370
    13
100
AcDbLine
 10
516.1132325065275
 20
375.6902789999968
 30
0.0
 11
516.2403565299331
 21
375.8596054430968
 31
0.0
  0
LINE
  5
EA28
330
1F
100
AcDbEntity
  8
0
370
    13
100
AcDbLine
 10
516.2403565299331
 20
375.8596054430968
 30
0.0
 11
516.2823866948531
 21
376.0289318861968
 31
0.0
  0
LINE
  5
EA29
330
1F
100
AcDbEntity
  8
0
370
    13
100
AcDbLine
 10
516.2823866948531
 20
376.0289318861968
 30
0.0
 11
516.2823866948531
 21
376.2406330037654
 31
0.0
  0
LINE
  5
EA2A
330
1F
100
AcDbEntity
  8
0
370
    13
100
AcDbLine
 10
515.3088027107216
 20
375.2281194406505
 30
0.0
 11
522.2937338070657
 21
375.2281194406505
 31
0.0
  0
LINE
  5
EA2B
330
1F
100
AcDbEntity
  8
0
370
    13
100
AcDbLine
 10
528.3050809192782
 20
376.2406330037654
 30
0.0
 11
528.3050809192782
 21
376.7486123330656
 31
0.0
  0
LINE
  5
EA2C
330
1F
100
AcDbEntity
  8
0
370
    13
100
AcDbLine
 10
530.29462356201
 20
375.7748560941598
 30
0.0
 11
530.0827501896671
 21
375.7748560941598
 31
0.0
  0
LINE
  5
EA2D
330
1F
100
AcDbEntity
  8
0
370
    13
100
AcDbLine
 10
530.0827501896671
 20
375.7748560941598
 30
0.0
 11
529.9135960013414
 21
375.8172307686282
 31
0.0
  0
LINE
  5
EA2E
330
1F
100
AcDbEntity
  8
0
370
    13
100
AcDbLine
 10
529.9135960013414
 20
375.8172307686282
 30
0.0
 11
529.744097303467
 21
375.944354792034
 31
0.0
  0
LINE
  5
EA2F
330
1F
100
AcDbEntity
  8
0
370
    13
100
AcDbLine
 10
529.744097303467
 20
375.944354792034
 30
0.0
 11
529.5749431151413
 21
376.0713065606654
 31
0.0
  0
LINE
  5
EA30
330
1F
100
AcDbEntity
  8
0
370
    13
100
AcDbLine
 10
529.5749431151413
 20
376.0713065606654
 30
0.0
 11
529.4478190917355
 21
376.1982583292969
 31
0.0
  0
LINE
  5
EA31
330
1F
100
AcDbEntity
  8
0
370
    13
100
AcDbLine
 10
529.4478190917355
 20
376.1982583292969
 30
0.0
 11
529.3634142523471
 21
376.367584772397
 31
0.0
  0
LINE
  5
EA32
330
1F
100
AcDbEntity
  8
0
370
    13
100
AcDbLine
 10
529.3634142523471
 20
376.367584772397
 30
0.0
 11
529.3210395778784
 21
376.5792858899655
 31
0.0
  0
LINE
  5
EA33
330
1F
100
AcDbEntity
  8
0
370
    13
100
AcDbLine
 10
529.3210395778784
 20
376.5792858899655
 30
0.0
 11
529.2786649034098
 21
376.7486123330656
 31
0.0
  0
LINE
  5
EA34
330
1F
100
AcDbEntity
  8
0
370
    13
100
AcDbLine
 10
529.2786649034098
 20
375.2281194406505
 30
0.0
 11
529.1091662055355
 21
375.2281194406505
 31
0.0
  0
LINE
  5
EA35
330
1F
100
AcDbEntity
  8
0
370
    13
100
AcDbLine
 10
529.1091662055355
 20
375.2281194406505
 30
0.0
 11
528.8976373427412
 21
375.3092514393281
 31
0.0
  0
LINE
  5
EA36
330
1F
100
AcDbEntity
  8
0
370
    13
100
AcDbLine
 10
528.8976373427412
 20
375.3092514393281
 30
0.0
 11
528.7281386448669
 21
375.393828533491
 31
0.0
  0
LINE
  5
EA37
330
1F
100
AcDbEntity
  8
0
370
    13
100
AcDbLine
 10
528.7281386448669
 20
375.393828533491
 30
0.0
 11
528.6013591310095
 21
375.5209525568968
 31
0.0
  0
LINE
  5
EA38
330
1F
100
AcDbEntity
  8
0
370
    13
100
AcDbLine
 10
528.6013591310095
 20
375.5209525568968
 30
0.0
 11
528.4742351076038
 21
375.6902789999968
 31
0.0
  0
LINE
  5
EA39
330
1F
100
AcDbEntity
  8
0
370
    13
100
AcDbLine
 10
528.4742351076038
 20
375.6902789999968
 30
0.0
 11
528.3471110841982
 21
375.8596054430968
 31
0.0
  0
LINE
  5
EA3A
330
1F
100
AcDbEntity
  8
0
370
    13
100
AcDbLine
 10
528.3471110841982
 20
375.8596054430968
 30
0.0
 11
528.3050809192782
 21
376.0289318861968
 31
0.0
  0
LINE
  5
EA3B
330
1F
100
AcDbEntity
  8
0
370
    13
100
AcDbLine
 10
528.3050809192782
 20
376.0289318861968
 30
0.0
 11
528.3050809192782
 21
376.2406330037654
 31
0.0
  0
LINE
  5
EA3C
330
1F
100
AcDbEntity
  8
0
370
    13
100
AcDbLine
 10
529.2786649034098
 20
375.2281194406505
 30
0.0
 11
522.2937338070657
 21
375.2281194406505
 31
0.0
  0
LINE
  5
EA3D
330
1F
100
AcDbEntity
  8
0
370
    13
100
AcDbLine
 10
526.294350939312
 20
369.0650111148841
 30
0.0
 11
526.0824775669693
 21
368.9380593462527
 31
0.0
  0
LINE
  5
EA3E
330
1F
100
AcDbEntity
  8
0
370
    13
100
AcDbLine
 10
526.0824775669693
 20
368.9380593462527
 30
0.0
 11
525.8709487041748
 21
368.8533099973155
 31
0.0
  0
LINE
  5
EA3F
330
1F
100
AcDbEntity
  8
0
370
    13
100
AcDbLine
 10
525.8709487041748
 20
368.8533099973155
 30
0.0
 11
525.6590753318319
 21
368.7687329031526
 31
0.0
  0
LINE
  5
EA40
330
1F
100
AcDbEntity
  8
0
370
    13
100
AcDbLine
 10
525.6590753318319
 20
368.7687329031526
 30
0.0
 11
525.4475464690378
 21
368.6839835542154
 31
0.0
  0
LINE
  5
EA41
330
1F
100
AcDbEntity
  8
0
370
    13
100
AcDbLine
 10
525.4475464690378
 20
368.6839835542154
 30
0.0
 11
525.2360176062432
 21
368.5994064600525
 31
0.0
  0
LINE
  5
EA42
330
1F
100
AcDbEntity
  8
0
370
    13
100
AcDbLine
 10
525.2360176062432
 20
368.5994064600525
 30
0.0
 11
525.0241442339004
 21
368.5146571111154
 31
0.0
  0
LINE
  5
EA43
330
1F
100
AcDbEntity
  8
0
370
    13
100
AcDbLine
 10
525.0241442339004
 20
368.5146571111154
 30
0.0
 11
524.8126153711062
 21
368.4300800169525
 31
0.0
  0
LINE
  5
EA44
330
1F
100
AcDbEntity
  8
0
370
    13
100
AcDbLine
 10
524.8126153711062
 20
368.4300800169525
 30
0.0
 11
524.6007419987633
 21
368.387705342484
 31
0.0
  0
LINE
  5
EA45
330
1F
100
AcDbEntity
  8
0
370
    13
100
AcDbLine
 10
524.6007419987633
 20
368.387705342484
 30
0.0
 11
524.3468384615004
 21
368.3029559935468
 31
0.0
  0
LINE
  5
EA46
330
1F
100
AcDbEntity
  8
0
370
    13
100
AcDbLine
 10
524.3468384615004
 20
368.3029559935468
 30
0.0
 11
524.1353095987059
 21
368.2641986693377
 31
0.0
  0
LINE
  5
EA47
330
1F
100
AcDbEntity
  8
0
370
    13
100
AcDbLine
 10
524.1353095987059
 20
368.2641986693377
 30
0.0
 11
523.9234362263633
 21
368.2183788993839
 31
0.0
  0
LINE
  5
EA48
330
1F
100
AcDbEntity
  8
0
370
    13
100
AcDbLine
 10
523.9234362263633
 20
368.2183788993839
 30
0.0
 11
523.7119073635687
 21
368.1760042249153
 31
0.0
  0
LINE
  5
EA49
330
1F
100
AcDbEntity
  8
0
370
    13
100
AcDbLine
 10
523.7119073635687
 20
368.1760042249153
 30
0.0
 11
523.4580038263058
 21
368.1336295504467
 31
0.0
  0
LINE
  5
EA4A
330
1F
100
AcDbEntity
  8
0
370
    13
100
AcDbLine
 10
523.4580038263058
 20
368.1336295504467
 30
0.0
 11
523.2461304539629
 21
368.1336295504467
 31
0.0
  0
LINE
  5
EA4B
330
1F
100
AcDbEntity
  8
0
370
    13
100
AcDbLine
 10
523.2461304539629
 20
368.1336295504467
 30
0.0
 11
522.9922269167
 21
368.0912548759783
 31
0.0
  0
LINE
  5
EA4C
330
1F
100
AcDbEntity
  8
0
370
    13
100
AcDbLine
 10
522.9922269167
 20
368.0912548759783
 30
0.0
 11
522.7806980539058
 21
368.0912548759783
 31
0.0
  0
LINE
  5
EA4D
330
1F
100
AcDbEntity
  8
0
370
    13
100
AcDbLine
 10
522.7806980539058
 20
368.0490524562839
 30
0.0
 11
522.6959487049686
 21
369.0650111148841
 31
0.0
  0
LINE
  5
EA4E
330
1F
100
AcDbEntity
  8
0
370
    13
100
AcDbLine
 10
526.294350939312
 20
371.2662548751845
 30
0.0
 11
526.294350939312
 21
369.0650111148841
 31
0.0
  0
LINE
  5
EA4F
330
1F
100
AcDbEntity
  8
0
370
    13
100
AcDbLine
 10
522.2725464698315
 20
369.0650111148841
 30
0.0
 11
526.294350939312
 21
369.0650111148841
 31
0.0
  0
LINE
  5
EA50
330
1F
100
AcDbEntity
  8
0
370
    13
100
AcDbLine
 10
522.7806980539058
 20
368.0912548759783
 30
0.0
 11
522.6959487049686
 21
369.0650111148841
 31
0.0
  0
LINE
  5
EA51
330
1F
100
AcDbEntity
  8
0
370
    13
100
AcDbLine
 10
525.7861993552376
 20
371.2662548751845
 30
0.0
 11
525.7861993552376
 21
369.0650111148841
 31
0.0
  0
LINE
  5
EA52
330
1F
100
AcDbEntity
  8
0
370
    13
100
AcDbLine
 10
525.2783922807118
 20
371.2662548751845
 30
0.0
 11
525.2783922807118
 21
369.0650111148841
 31
0.0
  0
LINE
  5
EA53
330
1F
100
AcDbEntity
  8
0
370
    13
100
AcDbLine
 10
524.7702406966375
 20
371.2662548751845
 30
0.0
 11
524.7702406966375
 21
369.0650111148841
 31
0.0
  0
LINE
  5
EA54
330
1F
100
AcDbEntity
  8
0
370
    13
100
AcDbLine
 10
524.3044637870319
 20
371.2662548751845
 30
0.0
 11
524.3044637870319
 21
369.0650111148841
 31
0.0
  0
LINE
  5
EA55
330
1F
100
AcDbEntity
  8
0
370
    13
100
AcDbLine
 10
523.796656712506
 20
371.2662548751845
 30
0.0
 11
523.796656712506
 21
369.0650111148841
 31
0.0
  0
LINE
  5
EA56
330
1F
100
AcDbEntity
  8
0
370
    13
100
AcDbLine
 10
523.2885051284317
 20
371.2662548751845
 30
0.0
 11
523.2885051284317
 21
369.0650111148841
 31
0.0
  0
LINE
  5
EA57
330
1F
100
AcDbEntity
  8
0
370
    13
100
AcDbLine
 10
522.7806980539058
 20
371.2662548751845
 30
0.0
 11
522.7806980539058
 21
369.0650111148841
 31
0.0
  0
LINE
  5
EA58
330
1F
100
AcDbEntity
  8
0
370
    13
100
AcDbLine
 10
521.7647393953056
 20
368.0912548759783
 30
0.0
 11
521.5528660229628
 21
368.0912548759783
 31
0.0
  0
LINE
  5
EA59
330
1F
100
AcDbEntity
  8
0
370
    13
100
AcDbLine
 10
521.5528660229628
 20
368.0912548759783
 30
0.0
 11
521.3413371601683
 21
368.1336295504467
 31
0.0
  0
LINE
  5
EA5A
330
1F
100
AcDbEntity
  8
0
370
    13
100
AcDbLine
 10
521.3413371601683
 20
368.1336295504467
 30
0.0
 11
521.0870891133569
 21
368.1336295504467
 31
0.0
  0
LINE
  5
EA5B
330
1F
100
AcDbEntity
  8
0
370
    13
100
AcDbLine
 10
521.0870891133569
 20
368.1336295504467
 30
0.0
 11
520.8755602505627
 21
368.1760042249153
 31
0.0
  0
LINE
  5
EA5C
330
1F
100
AcDbEntity
  8
0
370
    13
100
AcDbLine
 10
520.8755602505627
 20
368.1760042249153
 30
0.0
 11
520.6640313877682
 21
368.2183788993839
 31
0.0
  0
LINE
  5
EA5D
330
1F
100
AcDbEntity
  8
0
370
    13
100
AcDbLine
 10
520.6640313877682
 20
368.2183788993839
 30
0.0
 11
520.4097833409568
 21
368.2641986693377
 31
0.0
  0
LINE
  5
EA5E
330
1F
100
AcDbEntity
  8
0
370
    13
100
AcDbLine
 10
520.4097833409568
 20
368.2641986693377
 30
0.0
 11
520.1982544781624
 21
368.3029559935468
 31
0.0
  0
LINE
  5
EA5F
330
1F
100
AcDbEntity
  8
0
370
    13
100
AcDbLine
 10
520.1982544781624
 20
368.3029559935468
 30
0.0
 11
519.9867256153681
 21
368.387705342484
 31
0.0
  0
LINE
  5
EA60
330
1F
100
AcDbEntity
  8
0
370
    13
100
AcDbLine
 10
519.9867256153681
 20
368.387705342484
 30
0.0
 11
519.7748522430253
 21
368.4300800169525
 31
0.0
  0
LINE
  5
EA61
330
1F
100
AcDbEntity
  8
0
370
    13
100
AcDbLine
 10
519.7748522430253
 20
368.4300800169525
 30
0.0
 11
519.5633233802309
 21
368.5146571111154
 31
0.0
  0
LINE
  5
EA62
330
1F
100
AcDbEntity
  8
0
370
    13
100
AcDbLine
 10
519.5633233802309
 20
368.5146571111154
 30
0.0
 11
519.3090753334194
 21
368.5994064600525
 31
0.0
  0
LINE
  5
EA63
330
1F
100
AcDbEntity
  8
0
370
    13
100
AcDbLine
 10
519.3090753334194
 20
368.5994064600525
 30
0.0
 11
519.0975464706253
 21
368.6839835542154
 31
0.0
  0
LINE
  5
EA64
330
1F
100
AcDbEntity
  8
0
370
    13
100
AcDbLine
 10
519.0975464706253
 20
368.6839835542154
 30
0.0
 11
518.8860176078307
 21
368.7687329031526
 31
0.0
  0
LINE
  5
EA65
330
1F
100
AcDbEntity
  8
0
370
    13
100
AcDbLine
 10
518.8860176078307
 20
368.7687329031526
 30
0.0
 11
518.6741442354879
 21
368.8533099973155
 31
0.0
  0
LINE
  5
EA66
330
1F
100
AcDbEntity
  8
0
370
    13
100
AcDbLine
 10
518.6741442354879
 20
368.8533099973155
 30
0.0
 11
518.5049900471621
 21
368.9380593462527
 31
0.0
  0
LINE
  5
EA67
330
1F
100
AcDbEntity
  8
0
370
    13
100
AcDbLine
 10
518.5049900471621
 20
368.9380593462527
 30
0.0
 11
518.2931166748193
 21
369.0650111148841
 31
0.0
  0
LINE
  5
EA68
330
1F
100
AcDbEntity
  8
0
370
    13
100
AcDbLine
 10
521.7647393953056
 20
368.0490524562839
 30
0.0
 11
521.8915189091629
 21
369.0650111148841
 31
0.0
  0
LINE
  5
EA69
330
1F
100
AcDbEntity
  8
0
370
    13
100
AcDbLine
 10
518.2931166748193
 20
371.2662548751845
 30
0.0
 11
518.2931166748193
 21
369.0650111148841
 31
0.0
  0
LINE
  5
EA6A
330
1F
100
AcDbEntity
  8
0
370
    13
100
AcDbLine
 10
522.2725464698315
 20
369.0650111148841
 30
0.0
 11
518.2931166748193
 21
369.0650111148841
 31
0.0
  0
LINE
  5
EA6B
330
1F
100
AcDbEntity
  8
0
370
    13
100
AcDbLine
 10
521.7647393953056
 20
368.0912548759783
 30
0.0
 11
521.8915189091629
 21
369.0650111148841
 31
0.0
  0
LINE
  5
EA6C
330
1F
100
AcDbEntity
  8
0
370
    13
100
AcDbLine
 10
518.8012682588936
 20
371.2662548751845
 30
0.0
 11
518.8012682588936
 21
369.0650111148841
 31
0.0
  0
LINE
  5
EA6D
330
1F
100
AcDbEntity
  8
0
370
    13
100
AcDbLine
 10
519.2670451684994
 20
371.2662548751845
 30
0.0
 11
519.2670451684994
 21
369.0650111148841
 31
0.0
  0
LINE
  5
EA6E
330
1F
100
AcDbEntity
  8
0
370
    13
100
AcDbLine
 10
519.7748522430253
 20
371.2662548751845
 30
0.0
 11
519.7748522430253
 21
369.0650111148841
 31
0.0
  0
LINE
  5
EA6F
330
1F
100
AcDbEntity
  8
0
370
    13
100
AcDbLine
 10
520.2830038270995
 20
371.2662548751845
 30
0.0
 11
520.2830038270995
 21
369.0650111148841
 31
0.0
  0
LINE
  5
EA70
330
1F
100
AcDbEntity
  8
0
370
    13
100
AcDbLine
 10
520.7908109016254
 20
371.2662548751845
 30
0.0
 11
520.7908109016254
 21
369.0650111148841
 31
0.0
  0
LINE
  5
EA71
330
1F
100
AcDbEntity
  8
0
370
    13
100
AcDbLine
 10
521.2989624856997
 20
371.2662548751845
 30
0.0
 11
521.2989624856997
 21
369.0650111148841
 31
0.0
  0
LINE
  5
EA72
330
1F
100
AcDbEntity
  8
0
370
    13
100
AcDbLine
 10
521.7647393953056
 20
371.2662548751845
 30
0.0
 11
521.7647393953056
 21
369.0650111148841
 31
0.0
  0
LINE
  5
EA73
330
1F
100
AcDbEntity
  8
0
370
    13
100
AcDbLine
 10
522.2725464698315
 20
371.2662548751845
 30
0.0
 11
522.2725464698315
 21
369.0650111148841
 31
0.0
  0
LINE
  5
EA74
330
1F
100
AcDbEntity
  8
0
  6
HIDDEN
 48
2.5
370
     9
100
AcDbLine
 10
478.7725464698314
 20
368.7662548751845
 30
0.0
 11
478.7725464698314
 21
455.7662548751845
 31
0.0
  0
LINE
  5
EA75
330
1F
100
AcDbEntity
  8
0
  6
HIDDEN
 48
2.5
370
     9
100
AcDbLine
 10
478.7725464698314
 20
455.7662548751845
 30
0.0
 11
565.7725464698315
 21
455.7662548751845
 31
0.0
  0
LINE
  5
EA76
330
1F
100
AcDbEntity
  8
0
  6
HIDDEN
 48
2.5
370
     9
100
AcDbLine
 10
565.7725464698315
 20
455.7662548751845
 30
0.0
 11
565.7725464698315
 21
368.7662548751845
 31
0.0
  0
LINE
  5
EA77
330
1F
100
AcDbEntity
  8
0
  6
HIDDEN
 48
2.5
370
     9
100
AcDbLine
 10
565.7725464698315
 20
368.7662548751845
 30
0.0
 11
478.7725464698314
 21
368.7662548751845
 31
0.0
  0
TEXT
  5
EA78
330
1F
100
AcDbEntity
  8
図枠
  6
Continuous
100
AcDbText
 10
477.9123393016337
 20
84.50156756139884
 30
0.0
 40
6.0
  1
小林
100
AcDbText
  0
TEXT
  5
EA79
330
1F
100
AcDbEntity
  8
図枠
  6
Continuous
100
AcDbText
 10
482.5143393016336
 20
111.0840614217988
 30
0.0
 40
6.0
  1
原
100
AcDbText
  0
TEXT
  5
EA7A
330
1F
100
AcDbEntity
  8
図枠
  6
Continuous
100
AcDbText
 10
690.8345798124691
 20
58.79885996622419
 30
0.0
 40
6.0
  1
5176579/5186579/5106579
100
AcDbText
  0
TEXT
  5
EA7C
330
1F
100
AcDbEntity
  8
0
  6
Continuous
370
     9
100
AcDbText
 10
610.8582362974786
 20
156.0419049745292
 30
0.0
 40
6.0
  1
【COLOR】
100
AcDbText
  0
TEXT
  5
EA7D
330
1F
100
AcDbEntity
  8
0
  6
Continuous
370
     9
100
AcDbText
 10
611.2662362974786
 20
144.6439049745292
 30
0.0
 40
6.0
  1
KTC：ブラック/UTC：アーバングレー/SIT：シルバー
100
AcDbText
  0
TEXT
  5
EA7E
330
1F
100
AcDbEntity
  8
0
  6
Continuous
370
     9
100
AcDbText
 10
28.22517596950383
 20
539.6978449521765
 30
0.0
 40
7.0
  1
1
  7
ＭＳ_Ｐゴシック
100
AcDbText
  0
TEXT
  5
EA7F
330
1F
100
AcDbEntity
  8
0
  6
Continuous
370
     9
100
AcDbText
 10
23.39517596950384
 20
559.7328449521765
 30
0.0
 40
7.0
  1
No.
  7
ＭＳ_Ｐゴシック
100
AcDbText
  0
TEXT
  5
EA80
330
1F
100
AcDbEntity
  8
0
  6
Continuous
370
     9
100
AcDbText
 10
70.59386427335116
 20
558.5008449521765
 30
0.0
 40
7.0
  1
部　品　名
  7
ＭＳ_Ｐゴシック
100
AcDbText
  0
TEXT
  5
EA81
330
1F
100
AcDbEntity
  8
0
  6
Continuous
370
     9
100
AcDbText
 10
145.9246491354957
 20
558.4658449521764
 30
0.0
 40
7.0
  1
個数
  7
ＭＳ_Ｐゴシック
100
AcDbText
  0
TEXT
  5
EA82
330
1F
100
AcDbEntity
  8
0
  6
Continuous
370
     9
100
AcDbText
 10
190.1539530530692
 20
558.6198449521764
 30
0.0
 40
7.0
  1
材　質
  7
ＭＳ_Ｐゴシック
100
AcDbText
  0
TEXT
  5
EA83
330
1F
100
AcDbEntity
  8
0
  6
Continuous
370
     9
100
AcDbText
 10
27.80517596950384
 20
519.7328449521765
 30
0.0
 40
7.0
  1
2
  7
ＭＳ_Ｐゴシック
100
AcDbText
  0
TEXT
  5
EA84
330
1F
100
AcDbEntity
  8
0
  6
Continuous
370
     9
100
AcDbText
 10
27.80517596950384
 20
499.7328449521765
 30
0.0
 40
7.0
  1
3
  7
ＭＳ_Ｐゴシック
100
AcDbText
  0
TEXT
  5
EA85
330
1F
100
AcDbEntity
  8
0
  6
Continuous
370
     9
100
AcDbText
 10
27.78417596950383
 20
479.7328449521765
 30
0.0
 40
7.0
  1
4
  7
ＭＳ_Ｐゴシック
100
AcDbText
  0
TEXT
  5
EA86
330
1F
100
AcDbEntity
  8
0
  6
Continuous
370
     9
100
AcDbText
 10
27.80517596950384
 20
459.7328449521765
 30
0.0
 40
7.0
  1
5
  7
ＭＳ_Ｐゴシック
100
AcDbText
  0
TEXT
  5
EA87
330
1F
100
AcDbEntity
  8
0
  6
Continuous
370
     9
100
AcDbText
 10
153.5523287630261
 20
540.7028449521765
 30
0.0
 40
6.0
  1
1
  7
ＭＳ_Ｐゴシック
100
AcDbText
  0
TEXT
  5
EA88
330
1F
100
AcDbEntity
  8
0
  6
Continuous
370
     9
100
AcDbText
 10
153.5523287630261
 20
520.7028449521765
 30
0.0
 40
6.0
  1
1
  7
ＭＳ_Ｐゴシック
100
AcDbText
  0
TEXT
  5
EA89
330
1F
100
AcDbEntity
  8
0
  6
Continuous
370
     9
100
AcDbText
 10
153.5523287630261
 20
500.7028449521766
 30
0.0
 40
6.0
  1
1
  7
ＭＳ_Ｐゴシック
100
AcDbText
  0
TEXT
  5
EA8A
330
1F
100
AcDbEntity
  8
0
  6
Continuous
370
     9
100
AcDbText
 10
153.5523287630261
 20
480.7028449521766
 30
0.0
 40
6.0
  1
1
  7
ＭＳ_Ｐゴシック
100
AcDbText
  0
TEXT
  5
EA8B
330
1F
100
AcDbEntity
  8
0
  6
Continuous
370
     9
100
AcDbText
 10
153.5523287630261
 20
460.7028449521766
 30
0.0
 40
6.0
  1
1
  7
ＭＳ_Ｐゴシック
100
AcDbText
  0
TEXT
  5
EA8C
330
1F
100
AcDbEntity
  8
0
  6
Continuous
370
     9
100
AcDbText
 10
83.32486427335115
 20
539.6468449521765
 30
0.0
 40
6.0
  1
本体
  7
ＭＳ_Ｐゴシック
100
AcDbText
  0
TEXT
  5
EA8D
330
1F
100
AcDbEntity
  8
0
  6
Continuous
370
     9
100
AcDbText
 10
188.2189530530692
 20
540.7328449521765
 30
0.0
 40
6.0
  1
ＡＤＣ１２
  7
ＭＳ_Ｐゴシック
100
AcDbText
  0
TEXT
  5
EA8E
330
1F
100
AcDbEntity
  8
0
  6
Continuous
370
     9
100
AcDbText
 10
79.88386427335116
 20
519.5448449521765
 30
0.0
 40
6.0
  1
カバー
  7
ＭＳ_Ｐゴシック
100
AcDbText
  0
TEXT
  5
EA8F
330
1F
100
AcDbEntity
  8
0
  6
Continuous
370
     9
100
AcDbText
 10
188.8129530530692
 20
520.7328449521765
 30
0.0
 40
6.0
  1
ＰＭＭＡ
  7
ＭＳ_Ｐゴシック
100
AcDbText
  0
TEXT
  5
EA90
330
1F
100
AcDbEntity
  8
0
  6
Continuous
370
     9
100
AcDbText
 10
75.31486427335115
 20
499.5448449521766
 30
0.0
 40
6.0
  1
化粧ネジ
  7
ＭＳ_Ｐゴシック
100
AcDbText
  0
TEXT
  5
EA91
330
1F
100
AcDbEntity
  8
0
  6
Continuous
370
     9
100
AcDbText
 10
189.4789530530692
 20
500.7028449521766
 30
0.0
 40
6.0
  1
ＢＳＢＭ
  7
ＭＳ_Ｐゴシック
100
AcDbText
  0
TEXT
  5
EA92
330
1F
100
AcDbEntity
  8
0
  6
Continuous
370
     9
100
AcDbText
 10
80.97722249436471
 20
479.6468449521765
 30
0.0
 40
6.0
  1
取付け金具
  7
ＭＳ_Ｐゴシック
100
AcDbText
  0
TEXT
  5
EA93
330
1F
100
AcDbEntity
  8
0
  6
Continuous
370
     9
100
AcDbText
 10
193.7209530530692
 20
480.7028449521766
 30
0.0
 40
6.0
  1
ＳＵＳ
  7
ＭＳ_Ｐゴシック
100
AcDbText
  0
TEXT
  5
EA94
330
1F
100
AcDbEntity
  8
0
  6
Continuous
370
     9
100
AcDbText
 10
77.91309515002567
 20
459.6768449521766
 30
0.0
 40
6.0
  1
ベースパッキン
  7
ＭＳ_Ｐゴシック
100
AcDbText
  0
TEXT
  5
EA95
330
1F
100
AcDbEntity
  8
0
  6
Continuous
370
     9
100
AcDbText
 10
187.6189530530692
 20
459.4428449521765
 30
0.0
 40
6.0
  1
EPTゴム
  7
ＭＳ_Ｐゴシック
100
AcDbText
  0
TEXT
  5
EA9A
330
1F
100
AcDbEntity
  8
0
  6
Continuous
370
     9
100
AcDbText
 10
245.9071491354957
 20
558.4238449521765
 30
0.0
 40
7.0
  1
摘要
  7
ＭＳ_Ｐゴシック
100
AcDbText
  0
TEXT
  5
EA9B
330
1F
100
AcDbEntity
  8
0
  6
Continuous
370
     9
100
AcDbText
 10
27.80517596950384
 20
439.7328449521765
 30
0.0
 40
7.0
  1
6
  7
ＭＳ_Ｐゴシック
100
AcDbText
  0
TEXT
  5
EA9C
330
1F
100
AcDbEntity
  8
0
  6
Continuous
370
     9
100
AcDbText
 10
77.5275886145973
 20
445.1461608642323
 30
0.0
 40
5.0
  1
木ネジブッシュ付
  7
ＭＳ_Ｐゴシック
100
AcDbText
  0
TEXT
  5
EA9D
330
1F
100
AcDbEntity
  8
0
  6
Continuous
370
     9
100
AcDbText
 10
89.69758861459731
 20
436.187827530899
 30
0.0
 40
5.0
  1
(3.8×35)
  7
ＭＳ_Ｐゴシック
100
AcDbText
  0
TEXT
  5
EA9E
330
1F
100
AcDbEntity
  8
0
  6
Continuous
370
     9
100
AcDbText
 10
153.1923287630261
 20
440.7328449521765
 30
0.0
 40
6.0
  1
2
  7
ＭＳ_Ｐゴシック
100
AcDbText
  0
TEXT
  5
EA9F
330
1F
100
AcDbEntity
  8
0
  6
Continuous
370
     9
100
AcDbText
 10
195.4579530530692
 20
440.7328449521765
 30
0.0
 40
6.0
  1
SUS
  7
ＭＳ_Ｐゴシック
100
AcDbText
  0
TEXT
  5
EAA0
330
1F
100
AcDbEntity
  8
0
  6
Continuous
370
     9
100
AcDbText
 10
27.78417596950384
 20
419.7328449521765
 30
0.0
 40
7.0
  1
7
  7
ＭＳ_Ｐゴシック
100
AcDbText
  0
TEXT
  5
EAA1
330
1F
100
AcDbEntity
  8
0
  6
Continuous
370
     9
100
AcDbText
 10
80.70422249436471
 20
419.6108449521765
 30
0.0
 40
6.0
  1
取扱説明書
  7
ＭＳ_Ｐゴシック
100
AcDbText
  0
TEXT
  5
EAA2
330
1F
100
AcDbEntity
  8
0
  6
Continuous
370
     9
100
AcDbText
 10
153.5523287630261
 20
420.7028449521766
 30
0.0
 40
6.0
  1
1
  7
ＭＳ_Ｐゴシック
100
AcDbText
  0
TEXT
  5
EAA3
330
1F
100
AcDbEntity
  8
0
  6
Continuous
370
     9
100
AcDbText
 10
177.4789530530692
 20
420.7028449521766
 30
0.0
 40
6.0
  1
T-0106150-DI
  7
ＭＳ_Ｐゴシック
100
AcDbText
  0
TEXT
  5
EAA4
330
1F
100
AcDbEntity
  8
0
  6
Continuous
370
     9
100
AcDbText
 10
247.0903287630261
 20
519.7488449521765
 30
0.0
 40
6.0
  1
乳白
  7
ＭＳ_Ｐゴシック
100
AcDbText
  0
TEXT
  5
EAA5
330
1F
100
AcDbEntity
  8
0
  6
Continuous
370
     9
100
AcDbText
 10
246.5113287630261
 20
499.7488449521765
 30
0.0
 40
6.0
  1
生地
  7
ＭＳ_Ｐゴシック
100
AcDbText
  0
TEXT
  5
EAA6
330
1F
100
AcDbEntity
  8
0
  6
Continuous
370
     9
100
AcDbText
 10
246.5113287630261
 20
479.7488449521765
 30
0.0
 40
6.0
  1
生地
  7
ＭＳ_Ｐゴシック
100
AcDbText
  0
TEXT
  5
EAA7
330
1F
100
AcDbEntity
  8
0
  6
Continuous
370
     9
100
AcDbText
 10
247.3390483610268
 20
460.8563013719925
 30
0.0
 40
6.0
  1
黒色
  7
ＭＳ_Ｐゴシック
100
AcDbText
  0
TEXT
  5
EAA8
330
1F
100
AcDbEntity
  8
0
  6
Continuous
370
     9
100
AcDbText
 10
247.6596412296422
 20
440.1077398498157
 30
0.0
 40
6.0
  1
生地
  7
ＭＳ_Ｐゴシック
100
AcDbText
  0
TEXT
  5
EAA9
330
1F
100
AcDbEntity
  8
0
  6
Continuous
370
     9
100
AcDbText
 10
47.04782769614554
 20
461.1159004160413
 30
0.0
 40
6.0
  1
付
  7
ＭＳ_Ｐゴシック
100
AcDbText
  0
TEXT
  5
EAAA
330
1F
100
AcDbEntity
  8
0
  6
Continuous
370
     9
100
AcDbText
 10
47.18582769614554
 20
450.2639004160413
 30
0.0
 40
6.0
  1
属
  7
ＭＳ_Ｐゴシック
100
AcDbText
  0
TEXT
  5
EAAB
330
1F
100
AcDbEntity
  8
0
  6
Continuous
370
     9
100
AcDbText
 10
47.01482769614554
 20
439.5859004160413
 30
0.0
 40
6.0
  1
品
  7
ＭＳ_Ｐゴシック
100
AcDbText
  0
TEXT
  5
EAAC
330
1F
100
AcDbEntity
  8
0
  6
Continuous
370
     9
100
AcDbText
 10
661.7759202898139
 20
542.0264558478002
 30
0.0
 40
6.0
  1
注.本図において寸法公差は±0.5とする。
100
AcDbText
  0
POLYLINE
  5
EAAD
330
1F
100
AcDbEntity
  8
図枠
100
AcDb2dPolyline
 66
     1
 10
0.0
 20
0.0
 30
0.0
  0
VERTEX
  5
EAAE
330
EAAD
100
AcDbEntity
  8
図枠
100
AcDbVertex
100
AcDb2dVertex
 10
705.5317029426944
 20
42.18127743481804
 30
0.0
  0
VERTEX
  5
EAAF
330
EAAD
100
AcDbEntity
  8
図枠
100
AcDbVertex
100
AcDb2dVertex
 10
703.7723049497511
 20
42.18127743481804
 30
0.0
  0
VERTEX
  5
EAB0
330
EAAD
100
AcDbEntity
  8
図枠
100
AcDbVertex
100
AcDb2dVertex
 10
703.7723049497511
 20
46.68188209863167
 30
0.0
  0
VERTEX
  5
EAB1
330
EAAD
100
AcDbEntity
  8
図枠
100
AcDbVertex
100
AcDb2dVertex
 10
703.6082149291533
 20
46.68188209863167
 30
0.0
  0
VERTEX
  5
EAB2
330
EAAD
100
AcDbEntity
  8
図枠
100
AcDbVertex
100
AcDb2dVertex
 10
701.3579125404016
 20
46.68188209863167
 30
0.0
  0
VERTEX
  5
EAB3
330
EAAD
100
AcDbEntity
  8
図枠
100
AcDbVertex
100
AcDb2dVertex
 10
701.3579125404016
 20
42.18127743481804
 30
0.0
  0
VERTEX
  5
EAB4
330
EAAD
100
AcDbEntity
  8
図枠
100
AcDbVertex
100
AcDb2dVertex
 10
699.8682861050099
 20
42.18127743481804
 30
0.0
  0
VERTEX
  5
EAB5
330
EAAD
100
AcDbEntity
  8
図枠
100
AcDbVertex
100
AcDb2dVertex
 10
699.8682861050099
 20
39.90481734740971
 30
0.0
  0
VERTEX
  5
EAB6
330
EAAD
100
AcDbEntity
  8
図枠
100
AcDbVertex
100
AcDb2dVertex
 10
701.3579125404016
 20
39.90481734740971
 30
0.0
  0
VERTEX
  5
EAB7
330
EAAD
100
AcDbEntity
  8
図枠
100
AcDbVertex
100
AcDb2dVertex
 10
701.3579125404016
 20
25.65272749329622
 30
0.0
  0
VERTEX
  5
EAB8
330
EAAD
100
AcDbEntity
  8
図枠
100
AcDbVertex
100
AcDb2dVertex
 10
703.7723049497511
 20
25.65272749329622
 30
0.0
  0
VERTEX
  5
EAB9
330
EAAD
100
AcDbEntity
  8
図枠
100
AcDbVertex
100
AcDb2dVertex
 10
703.7723049497511
 20
39.90481734740971
 30
0.0
  0
VERTEX
  5
EABA
330
EAAD
100
AcDbEntity
  8
図枠
100
AcDbVertex
100
AcDb2dVertex
 10
705.5317029426944
 20
39.90481734740971
 30
0.0
  0
VERTEX
  5
EABB
330
EAAD
100
AcDbEntity
  8
図枠
100
AcDbVertex
100
AcDb2dVertex
 10
705.5317029426944
 20
42.18127743481804
 30
0.0
  0
SEQEND
  5
EABC
330
EAAD
100
AcDbEntity
  8
図枠
  0
SPLINE
  5
EABD
330
1F
100
AcDbEntity
  8
図枠
100
AcDbSpline
210
0.0
220
0.0
230
1.0
 70
    11
 71
     3
 72
    77
 73
    73
 74
     0
 42
0.000000001
 43
0.0000000001
 40
0.0
 40
0.0
 40
0.0
 40
0.0
 40
1.0
 40
1.0
 40
1.0
 40
2.0
 40
2.0
 40
2.0
 40
3.0
 40
3.0
 40
3.0
 40
4.0
 40
4.0
 40
4.0
 40
5.0
 40
5.0
 40
5.0
 40
6.0
 40
6.0
 40
6.0
 40
7.0
 40
7.0
 40
7.0
 40
8.0
 40
8.0
 40
8.0
 40
9.0
 40
9.0
 40
9.0
 40
10.0
 40
10.0
 40
10.0
 40
11.0
 40
11.0
 40
11.0
 40
12.0
 40
12.0
 40
12.0
 40
13.0
 40
13.0
 40
13.0
 40
14.0
 40
14.0
 40
14.0
 40
15.0
 40
15.0
 40
15.0
 40
16.0
 40
16.0
 40
16.0
 40
17.0
 40
17.0
 40
17.0
 40
18.0
 40
18.0
 40
18.0
 40
19.0
 40
19.0
 40
19.0
 40
20.0
 40
20.0
 40
20.0
 40
21.0
 40
21.0
 40
21.0
 40
22.0
 40
22.0
 40
22.0
 40
23.0
 40
23.0
 40
23.0
 40
24.0
 40
24.0
 40
24.0
 40
24.0
 10
706.2955304329452
 20
39.47296658282402
 30
0.0
 10
706.2955304329452
 20
39.47296658282402
 30
0.0
 10
706.2955304329452
 20
39.47296658282402
 30
0.0
 10
706.2955304329452
 20
39.47296658282402
 30
0.0
 10
706.2955304329452
 20
39.47296658282402
 30
0.0
 10
706.0688298795178
 20
39.42578375264653
 30
0.0
 10
706.0688298795178
 20
39.42578375264653
 30
0.0
 10
706.0688298795178
 20
39.42578375264653
 30
0.0
 10
706.0688298795178
 20
37.35093174538364
 30
0.0
 10
706.0688298795178
 20
37.35093174538364
 30
0.0
 10
706.0688298795178
 20
37.35093174538364
 30
0.0
 10
706.3924927178442
 20
37.39400274951327
 30
0.0
 10
706.3924927178442
 20
37.39400274951327
 30
0.0
 10
710.050271480457
 20
37.91210062391836
 30
0.0
 10
712.0271255186259
 20
39.47599823911578
 30
0.0
 10
712.7939994945328
 20
42.76147536111462
 30
0.0
 10
712.7939994945328
 20
42.76147536111462
 30
0.0
 10
716.2384192098765
 20
42.76147536111462
 30
0.0
 10
716.2384192098765
 20
42.76147536111462
 30
0.0
 10
716.2384192098765
 20
42.76147536111462
 30
0.0
 10
716.2384192098765
 20
39.72433933955991
 30
0.0
 10
716.2384192098765
 20
39.72433933955991
 30
0.0
 10
716.2384192098765
 20
39.72433933955991
 30
0.0
 10
713.6460700176266
 20
39.72433933955991
 30
0.0
 10
713.6460700176266
 20
39.72433933955991
 30
0.0
 10
713.6460700176266
 20
39.72433933955991
 30
0.0
 10
713.6460700176266
 20
37.44682873988084
 30
0.0
 10
713.6460700176266
 20
37.44682873988084
 30
0.0
 10
713.6460700176266
 20
37.44682873988084
 30
0.0
 10
717.2177067719864
 20
37.44682873988084
 30
0.0
 10
717.2177067719864
 20
37.44682873988084
 30
0.0
 10
717.7029384013988
 20
37.44682873988084
 30
0.0
 10
718.5175056355323
 20
37.63045828454286
 30
0.0
 10
718.5175056355323
 20
38.86617586683284
 30
0.0
 10
718.5175056355323
 20
38.86617586683284
 30
0.0
 10
718.5175056355323
 20
43.82228265057793
 30
0.0
 10
718.5175056355323
 20
43.82228265057793
 30
0.0
 10
718.5175056355323
 20
44.40951900907461
 30
0.0
 10
718.0568559938436
 20
45.03993142183274
 30
0.0
 10
717.3099417515556
 20
45.03993142183274
 30
0.0
 10
717.3099417515556
 20
45.03993142183274
 30
0.0
 10
713.1166118205603
 20
45.03993142183274
 30
0.0
 10
713.1166118205603
 20
45.03993142183274
 30
0.0
 10
713.1249108676922
 20
45.31180399710987
 30
0.0
 10
713.167981871823
 20
46.3961427614049
 30
0.0
 10
713.167981871823
 20
46.3961427614049
 30
0.0
 10
713.167981871823
 20
46.3961427614049
 30
0.0
 10
713.167981871823
 20
46.68188209863167
 30
0.0
 10
713.167981871823
 20
46.68188209863167
 30
0.0
 10
713.167981871823
 20
46.68188209863167
 30
0.0
 10
713.0084090540958
 20
46.68188209863167
 30
0.0
 10
713.0084090540958
 20
46.68188209863167
 30
0.0
 10
713.0084090540958
 20
46.68188209863167
 30
0.0
 10
710.6520049234736
 20
46.68188209863167
 30
0.0
 10
710.6520049234736
 20
46.68188209863167
 30
0.0
 10
710.6520049234736
 20
46.68188209863167
 30
0.0
 10
710.6520049234736
 20
46.3961427614049
 30
0.0
 10
710.6520049234736
 20
46.3961427614049
 30
0.0
 10
710.6520049234736
 20
46.3961427614049
 30
0.0
 10
710.6258471673117
 20
45.28459572933313
 30
0.0
 10
710.6175481201722
 20
45.03993142183274
 30
0.0
 10
710.6175481201722
 20
45.03993142183274
 30
0.0
 10
705.4245506885288
 20
45.03993142183274
 30
0.0
 10
705.4245506885288
 20
45.03993142183274
 30
0.0
 10
705.4245506885288
 20
45.03993142183274
 30
0.0
 10
705.4245506885288
 20
42.76147536111462
 30
0.0
 10
705.4245506885288
 20
42.76147536111462
 30
0.0
 10
705.4245506885288
 20
42.76147536111462
 30
0.0
 10
710.3093278125941
 20
42.76147536111462
 30
0.0
 10
710.3093278125941
 20
42.76147536111462
 30
0.0
 10
709.8076031401343
 20
40.82096909740232
 30
0.0
 10
708.6350213156059
 20
39.95620223887656
 30
0.0
 10
706.2955304329452
 20
39.47296658282402
 30
0.0
  0
SPLINE
  5
EABE
330
1F
100
AcDbEntity
  8
図枠
100
AcDbSpline
210
0.0
220
0.0
230
1.0
 70
    11
 71
     3
 72
    74
 73
    70
 74
     0
 42
0.000000001
 43
0.0000000001
 40
0.0
 40
0.0
 40
0.0
 40
0.0
 40
1.0
 40
1.0
 40
1.0
 40
2.0
 40
2.0
 40
2.0
 40
3.0
 40
3.0
 40
3.0
 40
4.0
 40
4.0
 40
4.0
 40
5.0
 40
5.0
 40
5.0
 40
6.0
 40
6.0
 40
6.0
 40
7.0
 40
7.0
 40
7.0
 40
8.0
 40
8.0
 40
8.0
 40
9.0
 40
9.0
 40
9.0
 40
10.0
 40
10.0
 40
10.0
 40
11.0
 40
11.0
 40
11.0
 40
12.0
 40
12.0
 40
12.0
 40
13.0
 40
13.0
 40
13.0
 40
14.0
 40
14.0
 40
14.0
 40
15.0
 40
15.0
 40
15.0
 40
16.0
 40
16.0
 40
16.0
 40
17.0
 40
17.0
 40
17.0
 40
18.0
 40
18.0
 40
18.0
 40
19.0
 40
19.0
 40
19.0
 40
20.0
 40
20.0
 40
20.0
 40
21.0
 40
21.0
 40
21.0
 40
22.0
 40
22.0
 40
22.0
 40
23.0
 40
23.0
 40
23.0
 40
23.0
 10
710.1616257838108
 20
36.13778540119869
 30
0.0
 10
710.1616257838108
 20
36.13778540119869
 30
0.0
 10
708.1821454649047
 20
36.13778540119869
 30
0.0
 10
708.1821454649047
 20
36.13778540119869
 30
0.0
 10
708.1821454649047
 20
36.13778540119869
 30
0.0
 10
708.1821454649047
 20
36.86463484027447
 30
0.0
 10
708.1821454649047
 20
36.86463484027447
 30
0.0
 10
708.1821454649047
 20
36.86463484027447
 30
0.0
 10
708.0215221348848
 20
36.86463484027447
 30
0.0
 10
708.0215221348848
 20
36.86463484027447
 30
0.0
 10
708.0215221348848
 20
36.86463484027447
 30
0.0
 10
706.2344956685615
 20
36.86463484027447
 30
0.0
 10
706.2344956685615
 20
36.86463484027447
 30
0.0
 10
706.2344956685615
 20
36.86463484027447
 30
0.0
 10
706.0729268774718
 20
36.86463484027447
 30
0.0
 10
706.0729268774718
 20
36.86463484027447
 30
0.0
 10
706.0729268774718
 20
36.86463484027447
 30
0.0
 10
706.073872338539
 20
36.407571703788
 30
0.0
 10
706.073872338539
 20
36.407571703788
 30
0.0
 10
706.073872338539
 20
36.407571703788
 30
0.0
 10
706.077023875427
 20
36.2619559514246
 30
0.0
 10
706.077023875427
 20
36.13778540119869
 30
0.0
 10
706.077023875427
 20
36.13778540119869
 30
0.0
 10
704.2765508517176
 20
36.13778540119869
 30
0.0
 10
704.2765508517176
 20
36.13778540119869
 30
0.0
 10
704.2765508517176
 20
36.13778540119869
 30
0.0
 10
704.2765508517176
 20
33.86027480151384
 30
0.0
 10
704.2765508517176
 20
33.86027480151384
 30
0.0
 10
704.2765508517176
 20
33.86027480151384
 30
0.0
 10
706.077023875427
 20
33.86027480151384
 30
0.0
 10
706.077023875427
 20
33.86027480151384
 30
0.0
 10
706.0457186090135
 20
31.18167861744783
 30
0.0
 10
706.077023875427
 20
28.87864056962725
 30
0.0
 10
704.4361236694438
 20
27.74860452162177
 30
0.0
 10
704.4361236694438
 20
27.74860452162177
 30
0.0
 10
704.3155248578908
 20
27.66340797658846
 30
0.0
 10
704.3155248578908
 20
27.66340797658846
 30
0.0
 10
704.3155248578908
 20
27.66340797658846
 30
0.0
 10
704.3155248578908
 20
25.5613329258676
 30
0.0
 10
704.3155248578908
 20
25.5613329258676
 30
0.0
 10
704.3155248578908
 20
25.5613329258676
 30
0.0
 10
704.7167155036432
 20
25.73781898709782
 30
0.0
 10
704.7167155036432
 20
25.73781898709782
 30
0.0
 10
707.8773918479059
 20
27.11819210886364
 30
0.0
 10
708.0585001676916
 20
30.49128195411437
 30
0.0
 10
708.1559877087428
 20
33.86027480151384
 30
0.0
 10
708.1559877087428
 20
33.86027480151384
 30
0.0
 10
709.1654249737394
 20
33.86027480151384
 30
0.0
 10
709.1654249737394
 20
33.86027480151384
 30
0.0
 10
709.1654249737394
 20
33.86027480151384
 30
0.0
 10
709.1654249737394
 20
27.91122382089465
 30
0.0
 10
709.1654249737394
 20
27.91122382089465
 30
0.0
 10
709.1654249737394
 20
27.91122382089465
 30
0.0
 10
707.5855595321449
 20
27.91122382089465
 30
0.0
 10
707.5855595321449
 20
27.91122382089465
 30
0.0
 10
707.5855595321449
 20
27.91122382089465
 30
0.0
 10
707.5855595321449
 20
25.65272749329622
 30
0.0
 10
707.5855595321449
 20
25.65272749329622
 30
0.0
 10
707.5855595321449
 20
25.65272749329622
 30
0.0
 10
709.9620284476126
 20
25.65272749329622
 30
0.0
 10
709.9620284476126
 20
25.65272749329622
 30
0.0
 10
710.8463496981909
 20
25.65272749329622
 30
0.0
 10
711.4429356309494
 20
26.30614612474684
 30
0.0
 10
711.4429356309494
 20
27.30383214870673
 30
0.0
 10
711.4429356309494
 20
27.30383214870673
 30
0.0
 10
711.4429356309494
 20
34.80058833370652
 30
0.0
 10
711.4429356309494
 20
34.80058833370652
 30
0.0
 10
711.4429356309494
 20
35.65150327177845
 30
0.0
 10
710.9766132228659
 20
36.13778540119869
 30
0.0
 10
710.1616257838108
 20
36.13778540119869
 30
0.0
  0
SPLINE
  5
EABF
330
1F
100
AcDbEntity
  8
図枠
100
AcDbSpline
210
0.0
220
0.0
230
1.0
 70
    11
 71
     3
 72
    68
 73
    64
 74
     0
 42
0.000000001
 43
0.0000000001
 40
0.0
 40
0.0
 40
0.0
 40
0.0
 40
1.0
 40
1.0
 40
1.0
 40
2.0
 40
2.0
 40
2.0
 40
3.0
 40
3.0
 40
3.0
 40
4.0
 40
4.0
 40
4.0
 40
5.0
 40
5.0
 40
5.0
 40
6.0
 40
6.0
 40
6.0
 40
7.0
 40
7.0
 40
7.0
 40
8.0
 40
8.0
 40
8.0
 40
9.0
 40
9.0
 40
9.0
 40
10.0
 40
10.0
 40
10.0
 40
11.0
 40
11.0
 40
11.0
 40
12.0
 40
12.0
 40
12.0
 40
13.0
 40
13.0
 40
13.0
 40
14.0
 40
14.0
 40
14.0
 40
15.0
 40
15.0
 40
15.0
 40
16.0
 40
16.0
 40
16.0
 40
17.0
 40
17.0
 40
17.0
 40
18.0
 40
18.0
 40
18.0
 40
19.0
 40
19.0
 40
19.0
 40
20.0
 40
20.0
 40
20.0
 40
21.0
 40
21.0
 40
21.0
 40
21.0
 10
717.7387608706879
 20
36.13778540119869
 30
0.0
 10
717.7387608706879
 20
36.13778540119869
 30
0.0
 10
715.7583350907132
 20
36.13778540119869
 30
0.0
 10
715.7583350907132
 20
36.13778540119869
 30
0.0
 10
715.7562340661229
 20
36.35324546762024
 30
0.0
 10
715.7562340661229
 20
36.86463484027447
 30
0.0
 10
715.7562340661229
 20
36.86463484027447
 30
0.0
 10
715.7562340661229
 20
36.86463484027447
 30
0.0
 10
715.5967662996272
 20
36.86463484027447
 30
0.0
 10
715.5967662996272
 20
36.86463484027447
 30
0.0
 10
715.5967662996272
 20
36.86463484027447
 30
0.0
 10
713.6501670155766
 20
36.86463484027447
 30
0.0
 10
713.6501670155766
 20
36.86463484027447
 30
0.0
 10
713.6501670155766
 20
36.86463484027447
 30
0.0
 10
713.6521629889352
 20
36.26090543915386
 30
0.0
 10
713.6521629889352
 20
36.13778540119869
 30
0.0
 10
713.6521629889352
 20
36.13778540119869
 30
0.0
 10
711.8558920144128
 20
36.13778540119869
 30
0.0
 10
711.8558920144128
 20
36.13778540119869
 30
0.0
 10
711.8558920144128
 20
36.13778540119869
 30
0.0
 10
711.8558920144128
 20
33.86027480151384
 30
0.0
 10
711.8558920144128
 20
33.86027480151384
 30
0.0
 10
711.8558920144128
 20
33.86027480151384
 30
0.0
 10
713.6501670155766
 20
33.86027480151384
 30
0.0
 10
713.6501670155766
 20
33.86027480151384
 30
0.0
 10
713.6080414725207
 20
31.18682612756984
 30
0.0
 10
713.6260052327747
 20
28.88935579477237
 30
0.0
 10
711.9769110308874
 20
27.74860452162177
 30
0.0
 10
711.9769110308874
 20
27.74860452162177
 30
0.0
 10
711.8507445041702
 20
27.66340797658846
 30
0.0
 10
711.8507445041702
 20
27.66340797658846
 30
0.0
 10
711.8507445041702
 20
27.66340797658846
 30
0.0
 10
711.8507445041702
 20
25.5613329258676
 30
0.0
 10
711.8507445041702
 20
25.5613329258676
 30
0.0
 10
711.8507445041702
 20
25.5613329258676
 30
0.0
 10
712.2507795863957
 20
25.73781898709782
 30
0.0
 10
712.2507795863957
 20
25.73781898709782
 30
0.0
 10
715.4284742298464
 20
27.12428508002468
 30
0.0
 10
715.6218735434965
 20
30.63488698131304
 30
0.0
 10
715.7300763099611
 20
33.86027480151384
 30
0.0
 10
715.7300763099611
 20
33.86027480151384
 30
0.0
 10
716.7426651118482
 20
33.86027480151384
 30
0.0
 10
716.7426651118482
 20
33.86027480151384
 30
0.0
 10
716.7426651118482
 20
33.86027480151384
 30
0.0
 10
716.7426651118482
 20
27.91122382089465
 30
0.0
 10
716.7426651118482
 20
27.91122382089465
 30
0.0
 10
716.7426651118482
 20
27.91122382089465
 30
0.0
 10
715.1617491579547
 20
27.91122382089465
 30
0.0
 10
715.1617491579547
 20
27.91122382089465
 30
0.0
 10
715.1617491579547
 20
27.91122382089465
 30
0.0
 10
715.1617491579547
 20
25.65272749329622
 30
0.0
 10
715.1617491579547
 20
25.65272749329622
 30
0.0
 10
715.1617491579547
 20
25.65272749329622
 30
0.0
 10
717.5392685857214
 20
25.65272749329622
 30
0.0
 10
717.5392685857214
 20
25.65272749329622
 30
0.0
 10
718.424640348591
 20
25.65272749329622
 30
0.0
 10
719.0226969985636
 20
26.30614612474684
 30
0.0
 10
719.0226969985636
 20
27.30383214870673
 30
0.0
 10
719.0226969985636
 20
27.30383214870673
 30
0.0
 10
719.0226969985636
 20
34.80058833370652
 30
0.0
 10
719.0226969985636
 20
34.80058833370652
 30
0.0
 10
719.0226969985636
 20
35.65150327177845
 30
0.0
 10
718.553853360967
 20
36.13778540119869
 30
0.0
 10
717.7387608706879
 20
36.13778540119869
 30
0.0
  0
HATCH
  5
EAC0
330
1F
100
AcDbEntity
  8
図枠
100
AcDbHatch
 10
0.0
 20
0.0
 30
0.0
210
0.0
220
0.0
230
1.0
  2
SOLID
 70
     1
 71
     0
 91
        4
 92
        1
 93
       13
 72
     1
 10
705.5317029426944
 20
42.18127743481804
 11
703.7723049497511
 21
42.18127743481804
 72
     1
 10
703.7723049497511
 20
42.18127743481804
 11
703.7723049497511
 21
46.68188209863168
 72
     1
 10
703.7723049497511
 20
46.68188209863167
 11
703.6082149291533
 21
46.68188209863167
 72
     1
 10
703.6082149291533
 20
46.68188209863167
 11
701.3579125404016
 21
46.68188209863167
 72
     1
 10
701.3579125404016
 20
46.68188209863167
 11
701.3579125404016
 21
42.18127743481804
 72
     1
 10
701.3579125404016
 20
42.18127743481804
 11
699.8682861050099
 21
42.18127743481804
 72
     1
 10
699.8682861050099
 20
42.18127743481804
 11
699.8682861050099
 21
39.90481734740971
 72
     1
 10
699.8682861050099
 20
39.90481734740971
 11
701.3579125404015
 21
39.90481734740971
 72
     1
 10
701.3579125404016
 20
39.90481734740971
 11
701.3579125404016
 21
25.65272749329623
 72
     1
 10
701.3579125404016
 20
25.65272749329622
 11
703.7723049497511
 21
25.65272749329622
 72
     1
 10
703.7723049497511
 20
25.65272749329622
 11
703.7723049497511
 21
39.9048173474097
 72
     1
 10
703.7723049497511
 20
39.90481734740971
 11
705.5317029426944
 21
39.90481734740971
 72
     1
 10
705.5317029426944
 20
39.90481734740971
 11
705.5317029426944
 21
42.18127743481804
 97
        0
 92
        1
 93
        2
 72
     4
 94
        3
 73
     0
 74
     0
 95
       77
 96
       73
 40
0.0
 40
0.0
 40
0.0
 40
0.0
 40
0.3527777776895833
 40
0.3527777776895833
 40
0.3527777776895833
 40
0.7055555553791667
 40
0.7055555553791667
 40
0.7055555553791667
 40
1.05833333306875
 40
1.05833333306875
 40
1.05833333306875
 40
1.411111110758333
 40
1.411111110758333
 40
1.411111110758333
 40
1.763888888447917
 40
1.763888888447917
 40
1.763888888447917
 40
2.1166666661375
 40
2.1166666661375
 40
2.1166666661375
 40
2.469444443827083
 40
2.469444443827083
 40
2.469444443827083
 40
2.822222221516667
 40
2.822222221516667
 40
2.822222221516667
 40
3.17499999920625
 40
3.17499999920625
 40
3.17499999920625
 40
3.527777776895833
 40
3.527777776895833
 40
3.527777776895833
 40
3.880555554585417
 40
3.880555554585417
 40
3.880555554585417
 40
4.233333332275
 40
4.233333332275
 40
4.233333332275
 40
4.586111109964584
 40
4.586111109964584
 40
4.586111109964584
 40
4.938888887654167
 40
4.938888887654167
 40
4.938888887654167
 40
5.29166666534375
 40
5.29166666534375
 40
5.29166666534375
 40
5.644444443033334
 40
5.644444443033334
 40
5.644444443033334
 40
5.997222220722917
 40
5.997222220722917
 40
5.997222220722917
 40
6.349999998412501
 40
6.349999998412501
 40
6.349999998412501
 40
6.702777776102083
 40
6.702777776102083
 40
6.702777776102083
 40
7.055555553791667
 40
7.055555553791667
 40
7.055555553791667
 40
7.40833333148125
 40
7.40833333148125
 40
7.40833333148125
 40
7.761111109170834
 40
7.761111109170834
 40
7.761111109170834
 40
8.113888886860417
 40
8.113888886860417
 40
8.113888886860417
 40
8.46666666455
 40
8.46666666455
 40
8.46666666455
 40
8.46666666455
 10
706.2955304329452
 20
39.47296658282402
 10
706.2955304329452
 20
39.47296658282402
 10
706.2955304329452
 20
39.47296658282402
 10
706.2955304329452
 20
39.47296658282402
 10
706.2955304329452
 20
39.47296658282402
 10
706.0688298795178
 20
39.42578375264653
 10
706.0688298795178
 20
39.42578375264653
 10
706.0688298795178
 20
39.42578375264653
 10
706.0688298795178
 20
37.35093174538364
 10
706.0688298795178
 20
37.35093174538364
 10
706.0688298795178
 20
37.35093174538364
 10
706.3924927178442
 20
37.39400274951327
 10
706.3924927178442
 20
37.39400274951327
 10
710.050271480457
 20
37.91210062391836
 10
712.0271255186259
 20
39.47599823911578
 10
712.7939994945328
 20
42.76147536111462
 10
712.7939994945328
 20
42.76147536111462
 10
716.2384192098765
 20
42.76147536111462
 10
716.2384192098765
 20
42.76147536111462
 10
716.2384192098765
 20
42.76147536111462
 10
716.2384192098765
 20
39.72433933955991
 10
716.2384192098765
 20
39.72433933955991
 10
716.2384192098765
 20
39.72433933955991
 10
713.6460700176266
 20
39.72433933955991
 10
713.6460700176266
 20
39.72433933955991
 10
713.6460700176266
 20
39.72433933955991
 10
713.6460700176266
 20
37.44682873988084
 10
713.6460700176266
 20
37.44682873988084
 10
713.6460700176266
 20
37.44682873988084
 10
717.2177067719864
 20
37.44682873988084
 10
717.2177067719864
 20
37.44682873988084
 10
717.7029384013988
 20
37.44682873988084
 10
718.5175056355323
 20
37.63045828454286
 10
718.5175056355323
 20
38.86617586683284
 10
718.5175056355323
 20
38.86617586683284
 10
718.5175056355323
 20
43.82228265057793
 10
718.5175056355323
 20
43.82228265057793
 10
718.5175056355323
 20
44.40951900907461
 10
718.0568559938436
 20
45.03993142183274
 10
717.3099417515556
 20
45.03993142183274
 10
717.3099417515556
 20
45.03993142183274
 10
713.1166118205603
 20
45.03993142183274
 10
713.1166118205603
 20
45.03993142183274
 10
713.1249108676922
 20
45.31180399710987
 10
713.167981871823
 20
46.3961427614049
 10
713.167981871823
 20
46.3961427614049
 10
713.167981871823
 20
46.3961427614049
 10
713.167981871823
 20
46.68188209863167
 10
713.167981871823
 20
46.68188209863167
 10
713.167981871823
 20
46.68188209863167
 10
713.0084090540958
 20
46.68188209863167
 10
713.0084090540958
 20
46.68188209863167
 10
713.0084090540958
 20
46.68188209863167
 10
710.6520049234736
 20
46.68188209863167
 10
710.6520049234736
 20
46.68188209863167
 10
710.6520049234736
 20
46.68188209863167
 10
710.6520049234736
 20
46.3961427614049
 10
710.6520049234736
 20
46.3961427614049
 10
710.6520049234736
 20
46.3961427614049
 10
710.6258471673117
 20
45.28459572933313
 10
710.6175481201722
 20
45.03993142183274
 10
710.6175481201722
 20
45.03993142183274
 10
705.4245506885288
 20
45.03993142183274
 10
705.4245506885288
 20
45.03993142183274
 10
705.4245506885288
 20
45.03993142183274
 10
705.4245506885288
 20
42.76147536111462
 10
705.4245506885288
 20
42.76147536111462
 10
705.4245506885288
 20
42.76147536111462
 10
710.3093278125941
 20
42.76147536111462
 10
710.3093278125941
 20
42.76147536111462
 10
709.8076031401343
 20
40.82096909740232
 10
708.6350213156059
 20
39.95620223887656
 10
706.2955304329452
 20
39.47296658282402
 97
        0
 72
     1
 10
706.2955304329452
 20
39.47296658282402
 11
706.2955304329452
 21
39.47296658282402
 97
        0
 92
        1
 93
        2
 72
     4
 94
        3
 73
     0
 74
     0
 95
       74
 96
       70
 40
0.0
 40
0.0
 40
0.0
 40
0.0
 40
0.3527777776895833
 40
0.3527777776895833
 40
0.3527777776895833
 40
0.7055555553791667
 40
0.7055555553791667
 40
0.7055555553791667
 40
1.05833333306875
 40
1.05833333306875
 40
1.05833333306875
 40
1.411111110758333
 40
1.411111110758333
 40
1.411111110758333
 40
1.763888888447917
 40
1.763888888447917
 40
1.763888888447917
 40
2.1166666661375
 40
2.1166666661375
 40
2.1166666661375
 40
2.469444443827083
 40
2.469444443827083
 40
2.469444443827083
 40
2.822222221516667
 40
2.822222221516667
 40
2.822222221516667
 40
3.17499999920625
 40
3.17499999920625
 40
3.17499999920625
 40
3.527777776895833
 40
3.527777776895833
 40
3.527777776895833
 40
3.880555554585417
 40
3.880555554585417
 40
3.880555554585417
 40
4.233333332275
 40
4.233333332275
 40
4.233333332275
 40
4.586111109964584
 40
4.586111109964584
 40
4.586111109964584
 40
4.938888887654167
 40
4.938888887654167
 40
4.938888887654167
 40
5.29166666534375
 40
5.29166666534375
 40
5.29166666534375
 40
5.644444443033334
 40
5.644444443033334
 40
5.644444443033334
 40
5.997222220722917
 40
5.997222220722917
 40
5.997222220722917
 40
6.349999998412501
 40
6.349999998412501
 40
6.349999998412501
 40
6.702777776102083
 40
6.702777776102083
 40
6.702777776102083
 40
7.055555553791667
 40
7.055555553791667
 40
7.055555553791667
 40
7.40833333148125
 40
7.40833333148125
 40
7.40833333148125
 40
7.761111109170834
 40
7.761111109170834
 40
7.761111109170834
 40
8.113888886860417
 40
8.113888886860417
 40
8.113888886860417
 40
8.113888886860417
 10
710.1616257838108
 20
36.13778540119869
 10
710.1616257838108
 20
36.13778540119869
 10
708.1821454649047
 20
36.13778540119869
 10
708.1821454649047
 20
36.13778540119869
 10
708.1821454649047
 20
36.13778540119869
 10
708.1821454649047
 20
36.86463484027447
 10
708.1821454649047
 20
36.86463484027447
 10
708.1821454649047
 20
36.86463484027447
 10
708.0215221348848
 20
36.86463484027447
 10
708.0215221348848
 20
36.86463484027447
 10
708.0215221348848
 20
36.86463484027447
 10
706.2344956685615
 20
36.86463484027447
 10
706.2344956685615
 20
36.86463484027447
 10
706.2344956685615
 20
36.86463484027447
 10
706.0729268774718
 20
36.86463484027447
 10
706.0729268774718
 20
36.86463484027447
 10
706.0729268774718
 20
36.86463484027447
 10
706.073872338539
 20
36.407571703788
 10
706.073872338539
 20
36.407571703788
 10
706.073872338539
 20
36.407571703788
 10
706.077023875427
 20
36.2619559514246
 10
706.077023875427
 20
36.13778540119869
 10
706.077023875427
 20
36.13778540119869
 10
704.2765508517176
 20
36.13778540119869
 10
704.2765508517176
 20
36.13778540119869
 10
704.2765508517176
 20
36.13778540119869
 10
704.2765508517176
 20
33.86027480151384
 10
704.2765508517176
 20
33.86027480151384
 10
704.2765508517176
 20
33.86027480151384
 10
706.077023875427
 20
33.86027480151384
 10
706.077023875427
 20
33.86027480151384
 10
706.0457186090135
 20
31.18167861744783
 10
706.077023875427
 20
28.87864056962725
 10
704.4361236694438
 20
27.74860452162177
 10
704.4361236694438
 20
27.74860452162177
 10
704.3155248578908
 20
27.66340797658846
 10
704.3155248578908
 20
27.66340797658846
 10
704.3155248578908
 20
27.66340797658846
 10
704.3155248578908
 20
25.5613329258676
 10
704.3155248578908
 20
25.5613329258676
 10
704.3155248578908
 20
25.5613329258676
 10
704.7167155036432
 20
25.73781898709782
 10
704.7167155036432
 20
25.73781898709782
 10
707.8773918479059
 20
27.11819210886364
 10
708.0585001676916
 20
30.49128195411437
 10
708.1559877087428
 20
33.86027480151384
 10
708.1559877087428
 20
33.86027480151384
 10
709.1654249737394
 20
33.86027480151384
 10
709.1654249737394
 20
33.86027480151384
 10
709.1654249737394
 20
33.86027480151384
 10
709.1654249737394
 20
27.91122382089465
 10
709.1654249737394
 20
27.91122382089465
 10
709.1654249737394
 20
27.91122382089465
 10
707.5855595321449
 20
27.91122382089465
 10
707.5855595321449
 20
27.91122382089465
 10
707.5855595321449
 20
27.91122382089465
 10
707.5855595321449
 20
25.65272749329622
 10
707.5855595321449
 20
25.65272749329622
 10
707.5855595321449
 20
25.65272749329622
 10
709.9620284476126
 20
25.65272749329622
 10
709.9620284476126
 20
25.65272749329622
 10
710.8463496981909
 20
25.65272749329622
 10
711.4429356309494
 20
26.30614612474684
 10
711.4429356309494
 20
27.30383214870673
 10
711.4429356309494
 20
27.30383214870673
 10
711.4429356309494
 20
34.80058833370652
 10
711.4429356309494
 20
34.80058833370652
 10
711.4429356309494
 20
35.65150327177845
 10
710.9766132228659
 20
36.13778540119869
 10
710.1616257838108
 20
36.13778540119869
 97
        0
 72
     1
 10
710.1616257838108
 20
36.13778540119869
 11
710.1616257838108
 21
36.13778540119869
 97
        0
 92
        1
 93
        2
 72
     4
 94
        3
 73
     0
 74
     0
 95
       68
 96
       64
 40
0.0
 40
0.0
 40
0.0
 40
0.0
 40
0.3527777776895833
 40
0.3527777776895833
 40
0.3527777776895833
 40
0.7055555553791667
 40
0.7055555553791667
 40
0.7055555553791667
 40
1.05833333306875
 40
1.05833333306875
 40
1.05833333306875
 40
1.411111110758333
 40
1.411111110758333
 40
1.411111110758333
 40
1.763888888447917
 40
1.763888888447917
 40
1.763888888447917
 40
2.1166666661375
 40
2.1166666661375
 40
2.1166666661375
 40
2.469444443827083
 40
2.469444443827083
 40
2.469444443827083
 40
2.822222221516667
 40
2.822222221516667
 40
2.822222221516667
 40
3.17499999920625
 40
3.17499999920625
 40
3.17499999920625
 40
3.527777776895833
 40
3.527777776895833
 40
3.527777776895833
 40
3.880555554585417
 40
3.880555554585417
 40
3.880555554585417
 40
4.233333332275
 40
4.233333332275
 40
4.233333332275
 40
4.586111109964584
 40
4.586111109964584
 40
4.586111109964584
 40
4.938888887654167
 40
4.938888887654167
 40
4.938888887654167
 40
5.29166666534375
 40
5.29166666534375
 40
5.29166666534375
 40
5.644444443033334
 40
5.644444443033334
 40
5.644444443033334
 40
5.997222220722917
 40
5.997222220722917
 40
5.997222220722917
 40
6.349999998412501
 40
6.349999998412501
 40
6.349999998412501
 40
6.702777776102083
 40
6.702777776102083
 40
6.702777776102083
 40
7.055555553791667
 40
7.055555553791667
 40
7.055555553791667
 40
7.40833333148125
 40
7.40833333148125
 40
7.40833333148125
 40
7.40833333148125
 10
717.7387608706879
 20
36.13778540119869
 10
717.7387608706879
 20
36.13778540119869
 10
715.7583350907132
 20
36.13778540119869
 10
715.7583350907132
 20
36.13778540119869
 10
715.7562340661229
 20
36.35324546762024
 10
715.7562340661229
 20
36.86463484027447
 10
715.7562340661229
 20
36.86463484027447
 10
715.7562340661229
 20
36.86463484027447
 10
715.5967662996272
 20
36.86463484027447
 10
715.5967662996272
 20
36.86463484027447
 10
715.5967662996272
 20
36.86463484027447
 10
713.6501670155766
 20
36.86463484027447
 10
713.6501670155766
 20
36.86463484027447
 10
713.6501670155766
 20
36.86463484027447
 10
713.6521629889352
 20
36.26090543915386
 10
713.6521629889352
 20
36.13778540119869
 10
713.6521629889352
 20
36.13778540119869
 10
711.8558920144128
 20
36.13778540119869
 10
711.8558920144128
 20
36.13778540119869
 10
711.8558920144128
 20
36.13778540119869
 10
711.8558920144128
 20
33.86027480151384
 10
711.8558920144128
 20
33.86027480151384
 10
711.8558920144128
 20
33.86027480151384
 10
713.6501670155766
 20
33.86027480151384
 10
713.6501670155766
 20
33.86027480151384
 10
713.6080414725207
 20
31.18682612756984
 10
713.6260052327747
 20
28.88935579477237
 10
711.9769110308874
 20
27.74860452162177
 10
711.9769110308874
 20
27.74860452162177
 10
711.8507445041702
 20
27.66340797658846
 10
711.8507445041702
 20
27.66340797658846
 10
711.8507445041702
 20
27.66340797658846
 10
711.8507445041702
 20
25.5613329258676
 10
711.8507445041702
 20
25.5613329258676
 10
711.8507445041702
 20
25.5613329258676
 10
712.2507795863957
 20
25.73781898709782
 10
712.2507795863957
 20
25.73781898709782
 10
715.4284742298464
 20
27.12428508002468
 10
715.6218735434965
 20
30.63488698131304
 10
715.7300763099611
 20
33.86027480151384
 10
715.7300763099611
 20
33.86027480151384
 10
716.7426651118482
 20
33.86027480151384
 10
716.7426651118482
 20
33.86027480151384
 10
716.7426651118482
 20
33.86027480151384
 10
716.7426651118482
 20
27.91122382089465
 10
716.7426651118482
 20
27.91122382089465
 10
716.7426651118482
 20
27.91122382089465
 10
715.1617491579547
 20
27.91122382089465
 10
715.1617491579547
 20
27.91122382089465
 10
715.1617491579547
 20
27.91122382089465
 10
715.1617491579547
 20
25.65272749329622
 10
715.1617491579547
 20
25.65272749329622
 10
715.1617491579547
 20
25.65272749329622
 10
717.5392685857214
 20
25.65272749329622
 10
717.5392685857214
 20
25.65272749329622
 10
718.424640348591
 20
25.65272749329622
 10
719.0226969985636
 20
26.30614612474684
 10
719.0226969985636
 20
27.30383214870673
 10
719.0226969985636
 20
27.30383214870673
 10
719.0226969985636
 20
34.80058833370652
 10
719.0226969985636
 20
34.80058833370652
 10
719.0226969985636
 20
35.65150327177845
 10
718.553853360967
 20
36.13778540119869
 10
717.7387608706879
 20
36.13778540119869
 97
        0
 72
     1
 10
717.7387608706879
 20
36.13778540119869
 11
717.7387608706879
 21
36.13778540119869
 97
        0
 75
     2
 76
     1
 98
        0
  0
POLYLINE
  5
EAC1
330
1F
100
AcDbEntity
  8
図枠
100
AcDb2dPolyline
 66
     1
 10
0.0
 20
0.0
 30
0.0
  0
VERTEX
  5
EAC2
330
EAC1
100
AcDbEntity
  8
図枠
100
AcDbVertex
100
AcDb2dVertex
 10
698.4120659606234
 20
45.27955327044281
 30
0.0
  0
VERTEX
  5
EAC3
330
EAC1
100
AcDbEntity
  8
図枠
100
AcDbVertex
100
AcDb2dVertex
 10
682.1542326201741
 20
45.27955327044281
 30
0.0
  0
VERTEX
  5
EAC4
330
EAC1
100
AcDbEntity
  8
図枠
100
AcDbVertex
100
AcDb2dVertex
 10
682.1542326201741
 20
43.00204267076374
 30
0.0
  0
VERTEX
  5
EAC5
330
EAC1
100
AcDbEntity
  8
図枠
100
AcDbVertex
100
AcDb2dVertex
 10
698.4120659606234
 20
43.00204267076374
 30
0.0
  0
VERTEX
  5
EAC6
330
EAC1
100
AcDbEntity
  8
図枠
100
AcDbVertex
100
AcDb2dVertex
 10
698.4120659606234
 20
45.27955327044281
 30
0.0
  0
SEQEND
  5
EAC7
330
EAC1
100
AcDbEntity
  8
図枠
  0
HATCH
  5
EAC8
330
1F
100
AcDbEntity
  8
図枠
100
AcDbHatch
 10
0.0
 20
0.0
 30
0.0
210
0.0
220
0.0
230
1.0
  2
SOLID
 70
     1
 71
     0
 91
        1
 92
        1
 93
        4
 72
     1
 10
698.4120659606234
 20
45.27955327044281
 11
682.1542326201742
 21
45.27955327044281
 72
     1
 10
682.1542326201741
 20
45.27955327044281
 11
682.1542326201741
 21
43.00204267076374
 72
     1
 10
682.1542326201741
 20
43.00204267076374
 11
698.4120659606233
 21
43.00204267076374
 72
     1
 10
698.4120659606234
 20
43.00204267076374
 11
698.4120659606234
 21
45.27955327044281
 97
        0
 75
     2
 76
     1
 98
        0
  0
POLYLINE
  5
EAC9
330
1F
100
AcDbEntity
  8
図枠
100
AcDb2dPolyline
 66
     1
 10
0.0
 20
0.0
 30
0.0
  0
VERTEX
  5
EACA
330
EAC9
100
AcDbEntity
  8
図枠
100
AcDbVertex
100
AcDb2dVertex
 10
697.8437388086182
 20
36.8969906181668
 30
0.0
  0
VERTEX
  5
EACB
330
EAC9
100
AcDbEntity
  8
図枠
100
AcDbVertex
100
AcDb2dVertex
 10
682.719513286523
 20
36.8969906181668
 30
0.0
  0
VERTEX
  5
EACC
330
EAC9
100
AcDbEntity
  8
図枠
100
AcDbVertex
100
AcDb2dVertex
 10
682.719513286523
 20
34.62053053075655
 30
0.0
  0
VERTEX
  5
EACD
330
EAC9
100
AcDbEntity
  8
図枠
100
AcDbVertex
100
AcDb2dVertex
 10
697.8437388086182
 20
34.62053053075655
 30
0.0
  0
VERTEX
  5
EACE
330
EAC9
100
AcDbEntity
  8
図枠
100
AcDbVertex
100
AcDb2dVertex
 10
697.8437388086182
 20
36.8969906181668
 30
0.0
  0
SEQEND
  5
EACF
330
EAC9
100
AcDbEntity
  8
図枠
  0
HATCH
  5
EAD0
330
1F
100
AcDbEntity
  8
図枠
100
AcDbHatch
 10
0.0
 20
0.0
 30
0.0
210
0.0
220
0.0
230
1.0
  2
SOLID
 70
     1
 71
     0
 91
        1
 92
        1
 93
        4
 72
     1
 10
697.8437388086182
 20
36.8969906181668
 11
682.719513286523
 21
36.8969906181668
 72
     1
 10
682.719513286523
 20
36.8969906181668
 11
682.719513286523
 21
34.62053053075655
 72
     1
 10
682.719513286523
 20
34.62053053075655
 11
697.8437388086182
 21
34.62053053075655
 72
     1
 10
697.8437388086182
 20
34.62053053075655
 11
697.8437388086182
 21
36.8969906181668
 97
        0
 75
     2
 76
     1
 98
        0
  0
POLYLINE
  5
EAD1
330
1F
100
AcDbEntity
  8
図枠
100
AcDb2dPolyline
 66
     1
 10
0.0
 20
0.0
 30
0.0
  0
VERTEX
  5
EAD2
330
EAD1
100
AcDbEntity
  8
図枠
100
AcDbVertex
100
AcDb2dVertex
 10
681.129352824429
 20
26.093312339006
 30
0.0
  0
VERTEX
  5
EAD3
330
EAD1
100
AcDbEntity
  8
図枠
100
AcDbVertex
100
AcDb2dVertex
 10
699.4353699879251
 20
26.093312339006
 30
0.0
  0
VERTEX
  5
EAD4
330
EAD1
100
AcDbEntity
  8
図枠
100
AcDbVertex
100
AcDb2dVertex
 10
699.4353699879251
 20
28.36977242641433
 30
0.0
  0
VERTEX
  5
EAD5
330
EAD1
100
AcDbEntity
  8
図枠
100
AcDbVertex
100
AcDb2dVertex
 10
681.129352824429
 20
28.36977242641433
 30
0.0
  0
VERTEX
  5
EAD6
330
EAD1
100
AcDbEntity
  8
図枠
100
AcDbVertex
100
AcDb2dVertex
 10
681.129352824429
 20
26.093312339006
 30
0.0
  0
SEQEND
  5
EAD7
330
EAD1
100
AcDbEntity
  8
図枠
  0
HATCH
  5
EAD8
330
1F
100
AcDbEntity
  8
図枠
100
AcDbHatch
 10
0.0
 20
0.0
 30
0.0
210
0.0
220
0.0
230
1.0
  2
SOLID
 70
     1
 71
     0
 91
        1
 92
        1
 93
        4
 72
     1
 10
681.129352824429
 20
26.093312339006
 11
699.4353699879251
 21
26.093312339006
 72
     1
 10
699.4353699879251
 20
26.093312339006
 11
699.4353699879251
 21
28.36977242641433
 72
     1
 10
699.4353699879251
 20
28.36977242641433
 11
681.129352824429
 21
28.36977242641433
 72
     1
 10
681.129352824429
 20
28.36977242641433
 11
681.129352824429
 21
26.093312339006
 97
        0
 75
     2
 76
     1
 98
        0
  0
SPLINE
  5
EAD9
330
1F
100
AcDbEntity
  8
図枠
100
AcDbSpline
210
0.0
220
0.0
230
1.0
 70
    11
 71
     3
 72
    59
 73
    55
 74
     0
 42
0.000000001
 43
0.0000000001
 40
0.0
 40
0.0
 40
0.0
 40
0.0
 40
1.0
 40
1.0
 40
1.0
 40
2.0
 40
2.0
 40
2.0
 40
3.0
 40
3.0
 40
3.0
 40
4.0
 40
4.0
 40
4.0
 40
5.0
 40
5.0
 40
5.0
 40
6.0
 40
6.0
 40
6.0
 40
7.0
 40
7.0
 40
7.0
 40
8.0
 40
8.0
 40
8.0
 40
9.0
 40
9.0
 40
9.0
 40
10.0
 40
10.0
 40
10.0
 40
11.0
 40
11.0
 40
11.0
 40
12.0
 40
12.0
 40
12.0
 40
13.0
 40
13.0
 40
13.0
 40
14.0
 40
14.0
 40
14.0
 40
15.0
 40
15.0
 40
15.0
 40
16.0
 40
16.0
 40
16.0
 40
17.0
 40
17.0
 40
17.0
 40
18.0
 40
18.0
 40
18.0
 40
18.0
 10
720.6954277271136
 20
45.71394009376627
 30
0.0
 10
720.6954277271136
 20
45.71394009376627
 30
0.0
 10
720.5369054216789
 20
45.71394009376627
 30
0.0
 10
720.5369054216789
 20
45.71394009376627
 30
0.0
 10
720.5369054216789
 20
45.71394009376627
 30
0.0
 10
720.5369054216789
 20
43.36625527450725
 30
0.0
 10
720.5369054216789
 20
43.36625527450725
 30
0.0
 10
720.5369054216789
 20
43.36625527450725
 30
0.0
 10
735.0969007897139
 20
43.36625527450725
 30
0.0
 10
735.0969007897139
 20
43.36625527450725
 30
0.0
 10
734.9276632588723
 20
40.53480955526802
 30
0.0
 10
732.1510542099396
 20
37.20573617409379
 30
0.0
 10
729.6751017800544
 20
36.26342666860287
 30
0.0
 10
729.6817200075177
 20
36.41270446205506
 30
0.0
 10
729.6751017800544
 20
36.9169503512852
 30
0.0
 10
729.6751017800544
 20
36.9169503512852
 30
0.0
 10
729.6751017800544
 20
36.9169503512852
 30
0.0
 10
729.6751017800544
 20
40.23310243154242
 30
0.0
 10
729.6751017800544
 20
40.23310243154242
 30
0.0
 10
729.6751017800544
 20
40.23310243154242
 30
0.0
 10
727.0995607845342
 20
40.23310243154242
 30
0.0
 10
727.0995607845342
 20
40.23310243154242
 30
0.0
 10
727.0995607845342
 20
40.23310243154242
 30
0.0
 10
727.0995607845342
 20
37.66586054801572
 30
0.0
 10
727.0995607845342
 20
37.66586054801572
 30
0.0
 10
727.0995607845342
 20
32.17892991462248
 30
0.0
 10
726.344977802493
 20
29.75467733472263
 30
0.0
 10
720.8318892743303
 20
27.85325007938677
 30
0.0
 10
720.8318892743303
 20
27.85325007938677
 30
0.0
 10
720.7415452168957
 20
27.83013880888376
 30
0.0
 10
720.7415452168957
 20
27.83013880888376
 30
0.0
 10
720.7415452168957
 20
27.83013880888376
 30
0.0
 10
720.6251484545232
 20
27.79524726637897
 30
0.0
 10
720.6251484545232
 20
27.79524726637897
 30
0.0
 10
720.6251484545232
 20
27.79524726637897
 30
0.0
 10
720.6251484545232
 20
25.57372897064796
 30
0.0
 10
720.6251484545232
 20
25.57372897064796
 30
0.0
 10
720.6251484545232
 20
25.57372897064796
 30
0.0
 10
720.9801165592593
 20
25.6639824550199
 30
0.0
 10
720.9801165592593
 20
25.6639824550199
 30
0.0
 10
725.8848534169422
 20
27.01040955003764
 30
0.0
 10
728.445056932947
 20
28.82369877794994
 30
0.0
 10
729.4683609602538
 20
33.50688247414715
 30
0.0
 10
734.5326706356641
 20
35.19810217638077
 30
0.0
 10
737.9436840600052
 20
40.1987506803403
 30
0.0
 10
737.9436840600052
 20
44.52908226233284
 30
0.0
 10
737.9545043366503
 20
44.52497030745877
 30
0.0
 10
738.0037733633216
 20
44.9594621820152
 30
0.0
 10
737.7000702586154
 20
45.31390502164493
 30
0.0
 10
737.4703232195369
 20
45.57854404579511
 30
0.0
 10
737.112728834056
 20
45.71394009376627
 30
0.0
 10
736.639262942356
 20
45.71394009376627
 30
0.0
 10
736.639262942356
 20
45.71394009376627
 30
0.0
 10
720.6954277271136
 20
45.71394009376627
 30
0.0
 10
720.6954277271136
 20
45.71394009376627
 30
0.0
  0
HATCH
  5
EADA
330
1F
100
AcDbEntity
  8
図枠
100
AcDbHatch
 10
0.0
 20
0.0
 30
0.0
210
0.0
220
0.0
230
1.0
  2
SOLID
 70
     1
 71
     0
 91
        1
 92
        1
 93
        1
 72
     4
 94
        3
 73
     0
 74
     1
 95
       59
 96
       55
 40
0.0
 40
0.0
 40
0.0
 40
0.0
 40
1.0
 40
1.0
 40
1.0
 40
2.0
 40
2.0
 40
2.0
 40
3.0
 40
3.0
 40
3.0
 40
4.0
 40
4.0
 40
4.0
 40
5.0
 40
5.0
 40
5.0
 40
6.0
 40
6.0
 40
6.0
 40
7.0
 40
7.0
 40
7.0
 40
8.0
 40
8.0
 40
8.0
 40
9.0
 40
9.0
 40
9.0
 40
10.0
 40
10.0
 40
10.0
 40
11.0
 40
11.0
 40
11.0
 40
12.0
 40
12.0
 40
12.0
 40
13.0
 40
13.0
 40
13.0
 40
14.0
 40
14.0
 40
14.0
 40
15.0
 40
15.0
 40
15.0
 40
16.0
 40
16.0
 40
16.0
 40
17.0
 40
17.0
 40
17.0
 40
18.0
 40
18.0
 40
18.0
 40
18.0
 10
720.6954277271136
 20
45.71394009376627
 10
720.6954277271136
 20
45.71394009376627
 10
720.5369054216789
 20
45.71394009376627
 10
720.5369054216789
 20
45.71394009376627
 10
720.5369054216789
 20
45.71394009376627
 10
720.5369054216789
 20
43.36625527450725
 10
720.5369054216789
 20
43.36625527450725
 10
720.5369054216789
 20
43.36625527450725
 10
735.0969007897139
 20
43.36625527450725
 10
735.0969007897139
 20
43.36625527450725
 10
734.9276632588723
 20
40.53480955526802
 10
732.1510542099396
 20
37.20573617409379
 10
729.6751017800544
 20
36.26342666860287
 10
729.6817200075177
 20
36.41270446205506
 10
729.6751017800544
 20
36.9169503512852
 10
729.6751017800544
 20
36.9169503512852
 10
729.6751017800544
 20
36.9169503512852
 10
729.6751017800544
 20
40.23310243154242
 10
729.6751017800544
 20
40.23310243154242
 10
729.6751017800544
 20
40.23310243154242
 10
727.0995607845342
 20
40.23310243154242
 10
727.0995607845342
 20
40.23310243154242
 10
727.0995607845342
 20
40.23310243154242
 10
727.0995607845342
 20
37.66586054801572
 10
727.0995607845342
 20
37.66586054801572
 10
727.0995607845342
 20
32.17892991462248
 10
726.344977802493
 20
29.75467733472263
 10
720.8318892743303
 20
27.85325007938677
 10
720.8318892743303
 20
27.85325007938677
 10
720.7415452168957
 20
27.83013880888376
 10
720.7415452168957
 20
27.83013880888376
 10
720.7415452168957
 20
27.83013880888376
 10
720.6251484545232
 20
27.79524726637897
 10
720.6251484545232
 20
27.79524726637897
 10
720.6251484545232
 20
27.79524726637897
 10
720.6251484545232
 20
25.57372897064796
 10
720.6251484545232
 20
25.57372897064796
 10
720.6251484545232
 20
25.57372897064796
 10
720.9801165592593
 20
25.6639824550199
 10
720.9801165592593
 20
25.6639824550199
 10
725.8848534169422
 20
27.01040955003764
 10
728.445056932947
 20
28.82369877794994
 10
729.4683609602538
 20
33.50688247414715
 10
734.5326706356641
 20
35.19810217638077
 10
737.9436840600052
 20
40.1987506803403
 10
737.9436840600052
 20
44.52908226233284
 10
737.9545043366503
 20
44.52497030745877
 10
738.0037733633216
 20
44.9594621820152
 10
737.7000702586154
 20
45.31390502164493
 10
737.4703232195369
 20
45.57854404579511
 10
737.112728834056
 20
45.71394009376627
 10
736.639262942356
 20
45.71394009376627
 10
736.639262942356
 20
45.71394009376627
 10
720.6954277271136
 20
45.71394009376627
 10
720.6954277271136
 20
45.71394009376627
 97
        0
 97
        0
 75
     2
 76
     1
 98
        0
  0
SPLINE
  5
EADB
330
1F
100
AcDbEntity
  8
図枠
100
AcDbSpline
210
0.0
220
0.0
230
1.0
 70
    11
 71
     3
 72
    35
 73
    31
 74
     0
 42
0.000000001
 43
0.0000000001
 40
0.0
 40
0.0
 40
0.0
 40
0.0
 40
1.0
 40
1.0
 40
1.0
 40
2.0
 40
2.0
 40
2.0
 40
3.0
 40
3.0
 40
3.0
 40
4.0
 40
4.0
 40
4.0
 40
5.0
 40
5.0
 40
5.0
 40
6.0
 40
6.0
 40
6.0
 40
7.0
 40
7.0
 40
7.0
 40
8.0
 40
8.0
 40
8.0
 40
9.0
 40
9.0
 40
9.0
 40
10.0
 40
10.0
 40
10.0
 40
10.0
 10
742.9357184894717
 20
45.68168936710049
 30
0.0
 10
742.9357184894717
 20
45.68168936710049
 30
0.0
 10
740.4428528116251
 20
45.68168936710049
 30
0.0
 10
740.4428528116251
 20
45.68168936710049
 30
0.0
 10
740.4428528116251
 20
45.68168936710049
 30
0.0
 10
740.4428528116251
 20
36.07780115063106
 30
0.0
 10
740.4428528116251
 20
36.07780115063106
 30
0.0
 10
740.4428528116251
 20
31.74139155449322
 30
0.0
 10
739.0373724111201
 20
29.17814161757967
 30
0.0
 10
737.0265868258032
 20
28.23992910994003
 30
0.0
 10
737.0265868258032
 20
28.23992910994003
 30
0.0
 10
736.9552570409202
 20
28.20662787100222
 30
0.0
 10
736.9552570409202
 20
28.20662787100222
 30
0.0
 10
736.9552570409202
 20
28.20662787100222
 30
0.0
 10
736.8582947560222
 20
28.16555284127584
 30
0.0
 10
736.8582947560222
 20
28.16555284127584
 30
0.0
 10
736.8582947560222
 20
28.16555284127584
 30
0.0
 10
736.8582947560222
 20
25.5152154372509
 30
0.0
 10
736.8582947560222
 20
25.5152154372509
 30
0.0
 10
736.8582947560222
 20
25.5152154372509
 30
0.0
 10
737.3261929325516
 20
25.67678422425946
 30
0.0
 10
737.3261929325516
 20
25.67678422425946
 30
0.0
 10
741.0439559472567
 20
27.18531984286433
 30
0.0
 10
743.0177634997681
 20
30.1024873632761
 30
0.0
 10
743.0952913071926
 20
35.43299671977508
 30
0.0
 10
743.0952913071926
 20
35.43299671977508
 30
0.0
 10
743.0952913071926
 20
45.68168936710049
 30
0.0
 10
743.0952913071926
 20
45.68168936710049
 30
0.0
 10
743.0952913071926
 20
45.68168936710049
 30
0.0
 10
742.9357184894717
 20
45.68168936710049
 30
0.0
 10
742.9357184894717
 20
45.68168936710049
 30
0.0
  0
HATCH
  5
EADC
330
1F
100
AcDbEntity
  8
図枠
100
AcDbHatch
 10
0.0
 20
0.0
 30
0.0
210
0.0
220
0.0
230
1.0
  2
SOLID
 70
     1
 71
     0
 91
        1
 92
        1
 93
        1
 72
     4
 94
        3
 73
     0
 74
     1
 95
       35
 96
       31
 40
0.0
 40
0.0
 40
0.0
 40
0.0
 40
1.0
 40
1.0
 40
1.0
 40
2.0
 40
2.0
 40
2.0
 40
3.0
 40
3.0
 40
3.0
 40
4.0
 40
4.0
 40
4.0
 40
5.0
 40
5.0
 40
5.0
 40
6.0
 40
6.0
 40
6.0
 40
7.0
 40
7.0
 40
7.0
 40
8.0
 40
8.0
 40
8.0
 40
9.0
 40
9.0
 40
9.0
 40
10.0
 40
10.0
 40
10.0
 40
10.0
 10
742.9357184894717
 20
45.68168936710049
 10
742.9357184894717
 20
45.68168936710049
 10
740.4428528116251
 20
45.68168936710049
 10
740.4428528116251
 20
45.68168936710049
 10
740.4428528116251
 20
45.68168936710049
 10
740.4428528116251
 20
36.07780115063106
 10
740.4428528116251
 20
36.07780115063106
 10
740.4428528116251
 20
31.74139155449322
 10
739.0373724111201
 20
29.17814161757967
 10
737.0265868258032
 20
28.23992910994003
 10
737.0265868258032
 20
28.23992910994003
 10
736.9552570409202
 20
28.20662787100222
 10
736.9552570409202
 20
28.20662787100222
 10
736.9552570409202
 20
28.20662787100222
 10
736.8582947560222
 20
28.16555284127584
 10
736.8582947560222
 20
28.16555284127584
 10
736.8582947560222
 20
28.16555284127584
 10
736.8582947560222
 20
25.5152154372509
 10
736.8582947560222
 20
25.5152154372509
 10
736.8582947560222
 20
25.5152154372509
 10
737.3261929325516
 20
25.67678422425946
 10
737.3261929325516
 20
25.67678422425946
 10
741.0439559472567
 20
27.18531984286433
 10
743.0177634997681
 20
30.1024873632761
 10
743.0952913071926
 20
35.43299671977508
 10
743.0952913071926
 20
35.43299671977508
 10
743.0952913071926
 20
45.68168936710049
 10
743.0952913071926
 20
45.68168936710049
 10
743.0952913071926
 20
45.68168936710049
 10
742.9357184894717
 20
45.68168936710049
 10
742.9357184894717
 20
45.68168936710049
 97
        0
 97
        0
 75
     2
 76
     1
 98
        0
  0
SPLINE
  5
EADD
330
1F
100
AcDbEntity
  8
図枠
100
AcDbSpline
210
0.0
220
0.0
230
1.0
 70
    11
 71
     3
 72
    38
 73
    34
 74
     0
 42
0.000000001
 43
0.0000000001
 40
0.0
 40
0.0
 40
0.0
 40
0.0
 40
1.0
 40
1.0
 40
1.0
 40
2.0
 40
2.0
 40
2.0
 40
3.0
 40
3.0
 40
3.0
 40
4.0
 40
4.0
 40
4.0
 40
5.0
 40
5.0
 40
5.0
 40
6.0
 40
6.0
 40
6.0
 40
7.0
 40
7.0
 40
7.0
 40
8.0
 40
8.0
 40
8.0
 40
9.0
 40
9.0
 40
9.0
 40
10.0
 40
10.0
 40
10.0
 40
11.0
 40
11.0
 40
11.0
 40
11.0
 10
748.1574999580114
 20
45.68168936710049
 30
0.0
 10
748.1574999580114
 20
45.68168936710049
 30
0.0
 10
745.6646342801713
 20
45.68168936710049
 30
0.0
 10
745.6646342801713
 20
45.68168936710049
 30
0.0
 10
745.6646342801713
 20
45.68168936710049
 30
0.0
 10
745.6646342801713
 20
27.05306034816758
 30
0.0
 10
745.6646342801713
 20
27.05306034816758
 30
0.0
 10
745.6646342801713
 20
26.60007945767744
 30
0.0
 10
745.7938472925473
 20
26.24511136190848
 30
0.0
 10
746.0482813705823
 20
25.99279280359542
 30
0.0
 10
746.3790876925228
 20
25.67058620187312
 30
0.0
 10
746.795090561636
 20
25.65367295433398
 30
0.0
 10
746.8746143424269
 20
25.65367295433398
 30
0.0
 10
751.7440539869806
 20
25.65367295433398
 30
0.0
 10
756.6580353528703
 20
29.4366726870374
 30
0.0
 10
756.6580353528703
 20
38.20499824184235
 30
0.0
 10
756.6580353528703
 20
38.20499824184235
 30
0.0
 10
756.6580353528703
 20
38.63170152833835
 30
0.0
 10
756.6580353528703
 20
38.63170152833835
 30
0.0
 10
756.6580353528703
 20
38.63170152833835
 30
0.0
 10
754.2107619086588
 20
38.63170152833835
 30
0.0
 10
754.2107619086588
 20
38.63170152833835
 30
0.0
 10
754.2107619086588
 20
38.63170152833835
 30
0.0
 10
754.2107619086588
 20
38.41729197418755
 30
0.0
 10
754.2107619086588
 20
38.41729197418755
 30
0.0
 10
754.2107619086588
 20
32.26664768910607
 30
0.0
 10
751.2941195707051
 20
28.97245131527061
 30
0.0
 10
748.3170727757388
 20
28.50056120393281
 30
0.0
 10
748.3170727757388
 20
28.50056120393281
 30
0.0
 10
748.3170727757388
 20
45.68168936710049
 30
0.0
 10
748.3170727757388
 20
45.68168936710049
 30
0.0
 10
748.3170727757388
 20
45.68168936710049
 30
0.0
 10
748.1574999580114
 20
45.68168936710049
 30
0.0
 10
748.1574999580114
 20
45.68168936710049
 30
0.0
  0
HATCH
  5
EADE
330
1F
100
AcDbEntity
  8
図枠
100
AcDbHatch
 10
0.0
 20
0.0
 30
0.0
210
0.0
220
0.0
230
1.0
  2
SOLID
 70
     1
 71
     0
 91
        1
 92
        1
 93
        1
 72
     4
 94
        3
 73
     0
 74
     1
 95
       38
 96
       34
 40
0.0
 40
0.0
 40
0.0
 40
0.0
 40
1.0
 40
1.0
 40
1.0
 40
2.0
 40
2.0
 40
2.0
 40
3.0
 40
3.0
 40
3.0
 40
4.0
 40
4.0
 40
4.0
 40
5.0
 40
5.0
 40
5.0
 40
6.0
 40
6.0
 40
6.0
 40
7.0
 40
7.0
 40
7.0
 40
8.0
 40
8.0
 40
8.0
 40
9.0
 40
9.0
 40
9.0
 40
10.0
 40
10.0
 40
10.0
 40
11.0
 40
11.0
 40
11.0
 40
11.0
 10
748.1574999580114
 20
45.68168936710049
 10
748.1574999580114
 20
45.68168936710049
 10
745.6646342801713
 20
45.68168936710049
 10
745.6646342801713
 20
45.68168936710049
 10
745.6646342801713
 20
45.68168936710049
 10
745.6646342801713
 20
27.05306034816758
 10
745.6646342801713
 20
27.05306034816758
 10
745.6646342801713
 20
26.60007945767744
 10
745.7938472925473
 20
26.24511136190848
 10
746.0482813705823
 20
25.99279280359542
 10
746.3790876925228
 20
25.67058620187312
 10
746.795090561636
 20
25.65367295433398
 10
746.8746143424269
 20
25.65367295433398
 10
751.7440539869806
 20
25.65367295433398
 10
756.6580353528703
 20
29.4366726870374
 10
756.6580353528703
 20
38.20499824184235
 10
756.6580353528703
 20
38.20499824184235
 10
756.6580353528703
 20
38.63170152833835
 10
756.6580353528703
 20
38.63170152833835
 10
756.6580353528703
 20
38.63170152833835
 10
754.2107619086588
 20
38.63170152833835
 10
754.2107619086588
 20
38.63170152833835
 10
754.2107619086588
 20
38.63170152833835
 10
754.2107619086588
 20
38.41729197418755
 10
754.2107619086588
 20
38.41729197418755
 10
754.2107619086588
 20
32.26664768910607
 10
751.2941195707051
 20
28.97245131527061
 10
748.3170727757388
 20
28.50056120393281
 10
748.3170727757388
 20
28.50056120393281
 10
748.3170727757388
 20
45.68168936710049
 10
748.3170727757388
 20
45.68168936710049
 10
748.3170727757388
 20
45.68168936710049
 10
748.1574999580114
 20
45.68168936710049
 10
748.1574999580114
 20
45.68168936710049
 97
        0
 97
        0
 75
     2
 76
     1
 98
        0
  0
SPLINE
  5
EADF
330
1F
100
AcDbEntity
  8
図枠
100
AcDbSpline
210
0.0
220
0.0
230
1.0
 70
    11
 71
     3
 72
    35
 73
    31
 74
     0
 42
0.000000001
 43
0.0000000001
 40
0.0
 40
0.0
 40
0.0
 40
0.0
 40
1.0
 40
1.0
 40
1.0
 40
2.0
 40
2.0
 40
2.0
 40
3.0
 40
3.0
 40
3.0
 40
4.0
 40
4.0
 40
4.0
 40
5.0
 40
5.0
 40
5.0
 40
6.0
 40
6.0
 40
6.0
 40
7.0
 40
7.0
 40
7.0
 40
8.0
 40
8.0
 40
8.0
 40
9.0
 40
9.0
 40
9.0
 40
10.0
 40
10.0
 40
10.0
 40
10.0
 10
758.6092568910179
 20
45.60626258617198
 30
0.0
 10
758.6092568910179
 20
45.60626258617198
 30
0.0
 10
758.3204710609068
 20
45.60626258617198
 30
0.0
 10
758.3204710609068
 20
45.60626258617198
 30
0.0
 10
758.3204710609068
 20
45.60626258617198
 30
0.0
 10
758.3204710609068
 20
43.08923518911453
 30
0.0
 10
758.3204710609068
 20
43.08923518911453
 30
0.0
 10
758.3204710609068
 20
43.08923518911453
 30
0.0
 10
762.3573770192032
 20
43.08923518911453
 30
0.0
 10
762.3573770192032
 20
43.08923518911453
 30
0.0
 10
768.061868743546
 20
43.08923518911453
 30
0.0
 10
771.7447546569945
 20
41.44833502457993
 30
0.0
 10
772.1427937558074
 20
41.26113373820586
 30
0.0
 10
772.1427937558074
 20
41.26113373820586
 30
0.0
 10
772.5388368812962
 20
41.07750419354384
 30
0.0
 10
772.5388368812962
 20
41.07750419354384
 30
0.0
 10
772.5388368812962
 20
41.07750419354384
 30
0.0
 10
772.5587966144146
 20
41.50936978742599
 30
0.0
 10
772.5587966144146
 20
41.50936978742599
 30
0.0
 10
772.5587966144146
 20
41.50936978742599
 30
0.0
 10
772.5614258447266
 20
43.52425231979607
 30
0.0
 10
772.5614258447266
 20
43.52425231979607
 30
0.0
 10
772.5614258447266
 20
43.52425231979607
 30
0.0
 10
772.4182380727965
 20
43.6073478402956
 30
0.0
 10
772.4182380727965
 20
43.6073478402956
 30
0.0
 10
772.3844115777272
 20
43.62573180500403
 30
0.0
 10
768.8846328095609
 20
45.60626258617198
 30
0.0
 10
761.8249774011585
 20
45.60626258617198
 30
0.0
 10
761.8249774011585
 20
45.60626258617198
 30
0.0
 10
758.6092568910179
 20
45.60626258617198
 30
0.0
 10
758.6092568910179
 20
45.60626258617198
 30
0.0
  0
HATCH
  5
EAE0
330
1F
100
AcDbEntity
  8
図枠
100
AcDbHatch
 10
0.0
 20
0.0
 30
0.0
210
0.0
220
0.0
230
1.0
  2
SOLID
 70
     1
 71
     0
 91
        1
 92
        1
 93
        1
 72
     4
 94
        3
 73
     0
 74
     1
 95
       35
 96
       31
 40
0.0
 40
0.0
 40
0.0
 40
0.0
 40
1.0
 40
1.0
 40
1.0
 40
2.0
 40
2.0
 40
2.0
 40
3.0
 40
3.0
 40
3.0
 40
4.0
 40
4.0
 40
4.0
 40
5.0
 40
5.0
 40
5.0
 40
6.0
 40
6.0
 40
6.0
 40
7.0
 40
7.0
 40
7.0
 40
8.0
 40
8.0
 40
8.0
 40
9.0
 40
9.0
 40
9.0
 40
10.0
 40
10.0
 40
10.0
 40
10.0
 10
758.6092568910179
 20
45.60626258617198
 10
758.6092568910179
 20
45.60626258617198
 10
758.3204710609068
 20
45.60626258617198
 10
758.3204710609068
 20
45.60626258617198
 10
758.3204710609068
 20
45.60626258617198
 10
758.3204710609068
 20
43.08923518911453
 10
758.3204710609068
 20
43.08923518911453
 10
758.3204710609068
 20
43.08923518911453
 10
762.3573770192032
 20
43.08923518911453
 10
762.3573770192032
 20
43.08923518911453
 10
768.061868743546
 20
43.08923518911453
 10
771.7447546569945
 20
41.44833502457993
 10
772.1427937558074
 20
41.26113373820586
 10
772.1427937558074
 20
41.26113373820586
 10
772.5388368812962
 20
41.07750419354384
 10
772.5388368812962
 20
41.07750419354384
 10
772.5388368812962
 20
41.07750419354384
 10
772.5587966144146
 20
41.50936978742599
 10
772.5587966144146
 20
41.50936978742599
 10
772.5587966144146
 20
41.50936978742599
 10
772.5614258447266
 20
43.52425231979607
 10
772.5614258447266
 20
43.52425231979607
 10
772.5614258447266
 20
43.52425231979607
 10
772.4182380727965
 20
43.6073478402956
 10
772.4182380727965
 20
43.6073478402956
 10
772.3844115777272
 20
43.62573180500403
 10
768.8846328095609
 20
45.60626258617198
 10
761.8249774011585
 20
45.60626258617198
 10
761.8249774011585
 20
45.60626258617198
 10
758.6092568910179
 20
45.60626258617198
 10
758.6092568910179
 20
45.60626258617198
 97
        0
 97
        0
 75
     2
 76
     1
 98
        0
  0
SPLINE
  5
EAE1
330
1F
100
AcDbEntity
  8
図枠
100
AcDbSpline
210
0.0
220
0.0
230
1.0
 70
    11
 71
     3
 72
    35
 73
    31
 74
     0
 42
0.000000001
 43
0.0000000001
 40
0.0
 40
0.0
 40
0.0
 40
0.0
 40
1.0
 40
1.0
 40
1.0
 40
2.0
 40
2.0
 40
2.0
 40
3.0
 40
3.0
 40
3.0
 40
4.0
 40
4.0
 40
4.0
 40
5.0
 40
5.0
 40
5.0
 40
6.0
 40
6.0
 40
6.0
 40
7.0
 40
7.0
 40
7.0
 40
8.0
 40
8.0
 40
8.0
 40
9.0
 40
9.0
 40
9.0
 40
10.0
 40
10.0
 40
10.0
 40
10.0
 10
759.1181250470853
 20
38.66762904794916
 30
0.0
 10
759.1181250470853
 20
38.66762904794916
 30
0.0
 10
758.8334362149333
 20
38.66762904794916
 30
0.0
 10
758.8334362149333
 20
38.66762904794916
 30
0.0
 10
758.8334362149333
 20
38.66762904794916
 30
0.0
 10
758.8334362149333
 20
36.21983040942747
 30
0.0
 10
758.8334362149333
 20
36.21983040942747
 30
0.0
 10
758.8334362149333
 20
36.21983040942747
 30
0.0
 10
761.7552233864849
 20
36.21983040942747
 30
0.0
 10
761.7552233864849
 20
36.21983040942747
 30
0.0
 10
767.4919658374947
 20
36.21983040942747
 30
0.0
 10
771.231789515929
 20
34.60718902493714
 30
0.0
 10
771.6381276616632
 20
34.42250896801208
 30
0.0
 10
771.6381276616632
 20
34.42250896801208
 30
0.0
 10
772.0381627337858
 20
34.24602290678057
 30
0.0
 10
772.0381627337858
 20
34.24602290678057
 30
0.0
 10
772.0381627337858
 20
34.24602290678057
 30
0.0
 10
772.0468819856212
 20
34.67694303961855
 30
0.0
 10
772.0468819856212
 20
34.67694303961855
 30
0.0
 10
772.0468819856212
 20
34.67694303961855
 30
0.0
 10
772.0509789834724
 20
36.55736000152576
 30
0.0
 10
772.0509789834724
 20
36.55736000152576
 30
0.0
 10
772.0509789834724
 20
36.55736000152576
 30
0.0
 10
771.9438267320097
 20
36.6409807781568
 30
0.0
 10
771.9438267320097
 20
36.6409807781568
 30
0.0
 10
771.8427674517156
 20
36.72512681092065
 30
0.0
 10
769.3867776869347
 20
38.66762904794916
 30
0.0
 10
761.3134829772778
 20
38.66762904794916
 30
0.0
 10
761.3134829772778
 20
38.66762904794916
 30
0.0
 10
759.1181250470853
 20
38.66762904794916
 30
0.0
 10
759.1181250470853
 20
38.66762904794916
 30
0.0
  0
HATCH
  5
EAE2
330
1F
100
AcDbEntity
  8
図枠
100
AcDbHatch
 10
0.0
 20
0.0
 30
0.0
210
0.0
220
0.0
230
1.0
  2
SOLID
 70
     1
 71
     0
 91
        1
 92
        1
 93
        1
 72
     4
 94
        3
 73
     0
 74
     1
 95
       35
 96
       31
 40
0.0
 40
0.0
 40
0.0
 40
0.0
 40
1.0
 40
1.0
 40
1.0
 40
2.0
 40
2.0
 40
2.0
 40
3.0
 40
3.0
 40
3.0
 40
4.0
 40
4.0
 40
4.0
 40
5.0
 40
5.0
 40
5.0
 40
6.0
 40
6.0
 40
6.0
 40
7.0
 40
7.0
 40
7.0
 40
8.0
 40
8.0
 40
8.0
 40
9.0
 40
9.0
 40
9.0
 40
10.0
 40
10.0
 40
10.0
 40
10.0
 10
759.1181250470853
 20
38.66762904794916
 10
759.1181250470853
 20
38.66762904794916
 10
758.8334362149333
 20
38.66762904794916
 10
758.8334362149333
 20
38.66762904794916
 10
758.8334362149333
 20
38.66762904794916
 10
758.8334362149333
 20
36.21983040942747
 10
758.8334362149333
 20
36.21983040942747
 10
758.8334362149333
 20
36.21983040942747
 10
761.7552233864849
 20
36.21983040942747
 10
761.7552233864849
 20
36.21983040942747
 10
767.4919658374947
 20
36.21983040942747
 10
771.231789515929
 20
34.60718902493714
 10
771.6381276616632
 20
34.42250896801208
 10
771.6381276616632
 20
34.42250896801208
 10
772.0381627337858
 20
34.24602290678057
 10
772.0381627337858
 20
34.24602290678057
 10
772.0381627337858
 20
34.24602290678057
 10
772.0468819856212
 20
34.67694303961855
 10
772.0468819856212
 20
34.67694303961855
 10
772.0468819856212
 20
34.67694303961855
 10
772.0509789834724
 20
36.55736000152576
 10
772.0509789834724
 20
36.55736000152576
 10
772.0509789834724
 20
36.55736000152576
 10
771.9438267320097
 20
36.6409807781568
 10
771.9438267320097
 20
36.6409807781568
 10
771.8427674517156
 20
36.72512681092065
 10
769.3867776869347
 20
38.66762904794916
 10
761.3134829772778
 20
38.66762904794916
 10
761.3134829772778
 20
38.66762904794916
 10
759.1181250470853
 20
38.66762904794916
 10
759.1181250470853
 20
38.66762904794916
 97
        0
 97
        0
 75
     2
 76
     1
 98
        0
  0
SPLINE
  5
EAE3
330
1F
100
AcDbEntity
  8
図枠
100
AcDbSpline
210
0.0
220
0.0
230
1.0
 70
    11
 71
     3
 72
    38
 73
    34
 74
     0
 42
0.000000001
 43
0.0000000001
 40
0.0
 40
0.0
 40
0.0
 40
0.0
 40
1.0
 40
1.0
 40
1.0
 40
2.0
 40
2.0
 40
2.0
 40
3.0
 40
3.0
 40
3.0
 40
4.0
 40
4.0
 40
4.0
 40
5.0
 40
5.0
 40
5.0
 40
6.0
 40
6.0
 40
6.0
 40
7.0
 40
7.0
 40
7.0
 40
8.0
 40
8.0
 40
8.0
 40
9.0
 40
9.0
 40
9.0
 40
10.0
 40
10.0
 40
10.0
 40
11.0
 40
11.0
 40
11.0
 40
11.0
 10
758.0676127513177
 20
30.07380837832108
 30
0.0
 10
758.0676127513177
 20
30.07380837832108
 30
0.0
 10
757.7788269212142
 20
30.07380837832108
 30
0.0
 10
757.7788269212142
 20
30.07380837832108
 30
0.0
 10
757.7788269212142
 20
30.07380837832108
 30
0.0
 10
757.7788269212142
 20
27.48954819603252
 30
0.0
 10
757.7788269212142
 20
27.48954819603252
 30
0.0
 10
757.7788269212142
 20
27.48954819603252
 30
0.0
 10
762.5974190727195
 20
27.48954819603252
 30
0.0
 10
762.5974190727195
 20
27.48954819603252
 30
0.0
 10
768.3163056575468
 20
27.48954819603252
 30
0.0
 10
772.578336142619
 20
25.86198953732374
 30
0.0
 10
773.0482302806485
 20
25.67625896812024
 30
0.0
 10
773.0415099638899
 20
25.67930545370076
 30
0.0
 10
773.2179960295787
 20
25.6080807218488
 30
0.0
 10
773.2179960295787
 20
25.6080807218488
 30
0.0
 10
773.2179960295787
 20
25.6080807218488
 30
0.0
 10
773.4334531297734
 20
25.51983769123368
 30
0.0
 10
773.4334531297734
 20
25.51983769123368
 30
0.0
 10
773.4334531297734
 20
25.51983769123368
 30
0.0
 10
773.4421723816087
 20
25.93783652315848
 30
0.0
 10
773.4421723816087
 20
25.93783652315848
 30
0.0
 10
773.4421723816087
 20
25.93783652315848
 30
0.0
 10
773.4421723816087
 20
27.99894159537696
 30
0.0
 10
773.4421723816087
 20
27.99894159537696
 30
0.0
 10
773.4421723816087
 20
27.99894159537696
 30
0.0
 10
773.2938400491943
 20
28.08707957476808
 30
0.0
 10
773.2938400491943
 20
28.08707957476808
 30
0.0
 10
773.1404652578818
 20
28.16712860967938
 30
0.0
 10
769.5247070784404
 20
30.07380837832108
 30
0.0
 10
762.3660962710373
 20
30.07380837832108
 30
0.0
 10
762.3660962710373
 20
30.07380837832108
 30
0.0
 10
758.0676127513177
 20
30.07380837832108
 30
0.0
 10
758.0676127513177
 20
30.07380837832108
 30
0.0
  0
HATCH
  5
EAE4
330
1F
100
AcDbEntity
  8
図枠
100
AcDbHatch
 10
0.0
 20
0.0
 30
0.0
210
0.0
220
0.0
230
1.0
  2
SOLID
 70
     1
 71
     0
 91
        1
 92
        1
 93
        1
 72
     4
 94
        3
 73
     0
 74
     1
 95
       38
 96
       34
 40
0.0
 40
0.0
 40
0.0
 40
0.0
 40
1.0
 40
1.0
 40
1.0
 40
2.0
 40
2.0
 40
2.0
 40
3.0
 40
3.0
 40
3.0
 40
4.0
 40
4.0
 40
4.0
 40
5.0
 40
5.0
 40
5.0
 40
6.0
 40
6.0
 40
6.0
 40
7.0
 40
7.0
 40
7.0
 40
8.0
 40
8.0
 40
8.0
 40
9.0
 40
9.0
 40
9.0
 40
10.0
 40
10.0
 40
10.0
 40
11.0
 40
11.0
 40
11.0
 40
11.0
 10
758.0676127513177
 20
30.07380837832108
 10
758.0676127513177
 20
30.07380837832108
 10
757.7788269212142
 20
30.07380837832108
 10
757.7788269212142
 20
30.07380837832108
 10
757.7788269212142
 20
30.07380837832108
 10
757.7788269212142
 20
27.48954819603252
 10
757.7788269212142
 20
27.48954819603252
 10
757.7788269212142
 20
27.48954819603252
 10
762.5974190727195
 20
27.48954819603252
 10
762.5974190727195
 20
27.48954819603252
 10
768.3163056575468
 20
27.48954819603252
 10
772.578336142619
 20
25.86198953732374
 10
773.0482302806485
 20
25.67625896812024
 10
773.0415099638899
 20
25.67930545370076
 10
773.2179960295787
 20
25.6080807218488
 10
773.2179960295787
 20
25.6080807218488
 10
773.2179960295787
 20
25.6080807218488
 10
773.4334531297734
 20
25.51983769123368
 10
773.4334531297734
 20
25.51983769123368
 10
773.4334531297734
 20
25.51983769123368
 10
773.4421723816087
 20
25.93783652315848
 10
773.4421723816087
 20
25.93783652315848
 10
773.4421723816087
 20
25.93783652315848
 10
773.4421723816087
 20
27.99894159537696
 10
773.4421723816087
 20
27.99894159537696
 10
773.4421723816087
 20
27.99894159537696
 10
773.2938400491943
 20
28.08707957476808
 10
773.2938400491943
 20
28.08707957476808
 10
773.1404652578818
 20
28.16712860967938
 10
769.5247070784404
 20
30.07380837832108
 10
762.3660962710373
 20
30.07380837832108
 10
762.3660962710373
 20
30.07380837832108
 10
758.0676127513177
 20
30.07380837832108
 10
758.0676127513177
 20
30.07380837832108
 97
        0
 97
        0
 75
     2
 76
     1
 98
        0
  0
TEXT
  5
EAE5
330
1F
100
AcDbEntity
  8
図枠
  6
Continuous
100
AcDbText
 10
465.9409953771229
 20
23.67844858147301
 30
0.0
 40
6.0
  1
2018/03/01
100
AcDbText
  0
LINE
  5
EAE6
330
1F
100
AcDbEntity
  8
0
370
    13
100
AcDbLine
 10
345.3227873763411
 20
230.120661158325
 30
0.0
 11
426.3486771130291
 21
230.120661158325
 31
0.0
  0
LWPOLYLINE
  5
EB04
330
1F
100
AcDbEntity
  8
0
  6
ByBlock
370
     9
100
AcDbPolyline
 90
        2
 70
     1
 43
0.8255
 10
373.9877835708084
 20
434.5896814078011
 42
1.0
 10
374.3324534714793
 20
433.8395794750136
 42
1.0
  0
LWPOLYLINE
  5
EB05
330
1F
100
AcDbEntity
  8
0
  6
ByBlock
370
     9
100
AcDbPolyline
 90
        2
 70
     1
 43
0.8255
 10
504.8097170439993
 20
435.5217965681773
 42
1.0
 10
505.1543869446701
 20
434.7716946353897
 42
1.0
  0
VIEWPORT
  5
3275
330
1B
100
AcDbEntity
 67
     1
  8
0
100
AcDbViewport
 10
0.0
 20
0.0
 30
0.0
 40
560.4066218034993
 41
249.48
 68
     1
 69
     1
 12
232.5307772543742
 22
120.4624125168237
 13
0.0
 23
0.0
 14
0.5
 24
0.5
 15
0.0
 25
0.0
 16
0.0
 26
0.0
 36
1.0
 17
0.0
 27
0.0
 37
0.0
 42
50.0
 43
0.0
 44
0.0
 45
249.48
 50
0.0
 51
0.0
 72
   100
 90
   557168
  1

281
     0
 71
     1
 74
     0
110
0.0
120
0.0
130
0.0
111
1.0
121
0.0
131
0.0
112
0.0
122
1.0
132
0.0
 79
     0
146
0.0
170
     0
 61
     5
348
E201
292
     1
282
     1
141
0.0
142
0.0
 63
   256
  0
VIEWPORT
  5
3276
102
{ACAD_XDICTIONARY
360
3277
102
}
330
1B
100
AcDbEntity
 67
     1
  8
0
100
AcDbViewport
 10
202.5
 20
128.5
 30
0.0
 40
324.0
 41
205.6
 68
     2
 69
     2
 12
210.0
 22
148.5
 13
0.0
 23
0.0
 14
0.5
 24
0.5
 15
0.0
 25
0.0
 16
0.0
 26
0.0
 36
1.0
 17
0.0
 27
0.0
 37
0.0
 42
50.0
 43
0.0
 44
0.0
 45
302.94
 50
0.0
 51
0.0
 72
   100
 90
   557152
  1

281
     0
 71
     1
 74
     0
110
0.0
120
0.0
130
0.0
111
1.0
121
0.0
131
0.0
112
0.0
122
1.0
132
0.0
 79
     0
146
0.0
170
     0
 61
     5
348
E201
292
     1
282
     1
141
0.0
142
0.0
 63
   256
  0
ENDSEC
  0
SECTION
  2
OBJECTS
  0
DICTIONARY
  5
C
330
0
100
AcDbDictionary
281
     1
  3
ACAD_DETAILVIEWSTYLE
350
3284
  3
ACAD_GROUP
350
D
  3
ACAD_IMAGE_DICT
350
97D
  3
ACAD_IMAGE_VARS
350
3AC
  3
ACAD_LAYOUT
350
E23A
  3
ACAD_MATERIAL
350
E23D
  3
ACAD_MLEADERSTYLE
350
E243
  3
ACAD_MLINESTYLE
350
17
  3
ACAD_PLOTSETTINGS
350
E215
  3
ACAD_PLOTSTYLENAME
350
E216
  3
ACAD_SCALELIST
350
E218
  3
ACAD_SECTIONVIEWSTYLE
350
3285
  3
ACAD_TABLESTYLE
350
E241
  3
ACAD_VISUALSTYLE
350
E1FC
  3
AcadDim
350
E559
  3
ACDB_RECOMPOSE_DATA
350
EB08
  3
ACDBVARIABLEDICTIONARY
350
327F
  3
APPDATA
350
3AA
  3
DIMOFFSETDICTIONARY
350
3784
  0
SUN
  5
E245
330
29
100
AcDbSun
 90
        1
290
     0
 63
     7
421
 16777215
 40
1.0
291
     1
 91
  2455826
 92
 54000000
292
     0
 70
     2
 71
   256
280
     1
  0
DICTIONARY
  5
3488
330
2
100
AcDbDictionary
280
     1
281
     1
  3
ACAD_LAYERSTATES
360
3489
  3
ACLYDICTIONARY
360
EAF5
  0
DICTIONARY
  5
E3A1
330
E3A0
100
AcDbDictionary
280
     1
281
     1
  0
DICTIONARY
  5
E3D8
330
E3D7
100
AcDbDictionary
280
     1
281
     1
  0
DICTIONARY
  5
E504
330
E502
100
AcDbDictionary
280
     1
281
     1
  0
DICTIONARY
  5
E556
330
E554
100
AcDbDictionary
280
     1
281
     1
  0
DICTIONARY
  5
E55A
330
E558
100
AcDbDictionary
280
     1
281
     1
  0
DICTIONARY
  5
3277
330
3276
100
AcDbDictionary
280
     1
281
     1
  3
ASDK_XREC_ANNOTATION_SCALE_INFO
360
3278
  0
DICTIONARY
  5
3284
102
{ACAD_REACTORS
330
C
102
}
330
C
100
AcDbDictionary
281
     1
  0
DICTIONARY
  5
D
102
{ACAD_REACTORS
330
C
102
}
330
C
100
AcDbDictionary
281
     1
  0
DICTIONARY
  5
97D
102
{ACAD_REACTORS
330
C
102
}
330
C
100
AcDbDictionary
281
     1
  3
\\192.168.192.119\DIGITE10
350
97E
  3
\\192.168.192.119\DIGITE11
350
97F
  3
\\192.168.192.119\DIGITE12
350
980
  3
\\192.168.192.119\DIGITE13
350
981
  3
\\192.168.192.119\DIGITEC-
350
97C
  3
\\192.168.192.119\DIGITEC0
350
982
  3
\\192.168.192.119\DIGITEC1
350
983
  3
\\192.168.192.119\DIGITEC2
350
984
  3
\\192.168.192.119\DIGITEC3
350
985
  3
\\192.168.192.119\DIGITEC4
350
986
  3
\\192.168.192.119\DIGITEC5
350
987
  3
\\192.168.192.119\DIGITEC6
350
988
  3
\\192.168.192.119\DIGITEC7
350
989
  3
\\192.168.192.119\DIGITEC8
350
98A
  3
\\192.168.192.119\DIGITEC9
350
98B
  0
RASTERVARIABLES
  5
3AC
102
{ACAD_REACTORS
330
C
102
}
330
C
100
AcDbRasterVariables
 90
        0
 70
     1
 71
     1
 72
     1
  0
DICTIONARY
  5
E23A
102
{ACAD_REACTORS
330
C
102
}
330
C
100
AcDbDictionary
281
     1
  3
Model
350
E23B
  3
シート 1
350
E23C
  0
DICTIONARY
  5
E23D
102
{ACAD_REACTORS
330
C
102
}
330
C
100
AcDbDictionary
281
     1
  3
ByBlock
350
E23F
  3
ByLayer
350
E23E
  3
Global
350
E240
  0
DICTIONARY
  5
E243
102
{ACAD_REACTORS
330
C
102
}
330
C
100
AcDbDictionary
281
     1
  3
Standard
350
E244
  0
DICTIONARY
  5
17
102
{ACAD_REACTORS
330
C
102
}
330
C
100
AcDbDictionary
281
     1
  3
STANDARD
350
18
  0
DICTIONARY
  5
E215
102
{ACAD_REACTORS
330
C
102
}
330
C
100
AcDbDictionary
281
     1
  0
ACDBDICTIONARYWDFLT
  5
E216
102
{ACAD_REACTORS
330
C
102
}
330
C
100
AcDbDictionary
281
     1
  3
Normal
350
E217
100
AcDbDictionaryWithDefault
340
E217
  0
DICTIONARY
  5
E218
102
{ACAD_REACTORS
330
C
102
}
330
C
100
AcDbDictionary
281
     1
  3
A0
350
E219
  3
A1
350
E21A
  3
A2
350
E21B
  3
A3
350
E21C
  3
A4
350
E21D
  3
A5
350
E21E
  3
A6
350
E21F
  3
A7
350
E220
  3
A8
350
E221
  3
A9
350
E222
  3
B0
350
E223
  3
B1
350
E224
  3
B2
350
E225
  3
B3
350
E226
  3
B4
350
E227
  3
B5
350
E228
  3
B6
350
E229
  3
B7
350
E22A
  3
B8
350
E22B
  3
B9
350
E22C
  3
C0
350
E22D
  3
C1
350
E22E
  3
C2
350
E22F
  3
C3
350
E230
  3
C4
350
E231
  3
C5
350
E232
  3
C6
350
E233
  3
C7
350
E234
  3
C8
350
E235
  3
C9
350
E236
  3
D0
350
E237
  3
D1
350
E238
  3
D2
350
E239
  0
DICTIONARY
  5
3285
102
{ACAD_REACTORS
330
C
102
}
330
C
100
AcDbDictionary
281
     1
  0
DICTIONARY
  5
E241
102
{ACAD_REACTORS
330
C
102
}
330
C
100
AcDbDictionary
281
     1
  3
Standard
350
E242
  0
DICTIONARY
  5
E1FC
102
{ACAD_REACTORS
330
C
102
}
330
C
100
AcDbDictionary
281
     1
  3
2dWireframe
350
E201
  3
Basic
350
E204
  3
Brighten
350
E208
  3
ColorChange
350
E20C
  3
Conceptual
350
E206
  3
Dim
350
E207
  3
EdgeColorOff
350
E20F
  3
Facepattern
350
E20B
  3
Flat
350
E1FD
  3
FlatWithEdges
350
E1FE
  3
Gouraud
350
E1FF
  3
GouraudWithEdges
350
E200
  3
Hidden
350
E203
  3
JitterOff
350
E20D
  3
Linepattern
350
E20A
  3
OverhangOff
350
E20E
  3
Realistic
350
E205
  3
Shaded
350
E214
  3
Shaded with edges
350
E213
  3
Shades of Gray
350
E210
  3
Sketchy
350
E211
  3
Thicken
350
E209
  3
Wireframe
350
E202
  3
X-Ray
350
E212
  0
XRECORD
  5
E559
102
{ACAD_REACTORS
330
C
102
}
330
C
100
AcDbXrecord
280
     1
340
0
 72
     0
 71
     0
 70
     0
 69
     0
 68
     1
 67
     3
 66
     0
 65
     0
 64
     0
 63
     3
 62
     1
 61
     0
 60
     0
 40
0.0
  0
XRECORD
  5
EB08
102
{ACAD_REACTORS
330
C
102
}
330
C
100
AcDbXrecord
280
     1
 90
        1
330
E242
  0
DICTIONARY
  5
327F
102
{ACAD_REACTORS
330
C
102
}
330
C
100
AcDbDictionary
281
     1
  3
CANNOSCALE
350
E246
  3
CMLEADERSTYLE
350
E248
  3
CTABLESTYLE
350
E247
  3
MSLTSCALE
350
E249
  0
DICTIONARY
  5
3AA
102
{ACAD_REACTORS
330
C
102
}
330
C
100
AcDbDictionary
281
     1
  0
DICTIONARY
  5
3784
102
{ACAD_REACTORS
330
C
102
}
330
C
100
AcDbDictionary
281
     1
  3
DIMRAILANGLE
350
3787
  3
DIMRAILFIRSTOFFSET
350
3785
  3
DIMRAILOFFSET
350
3786
  3
DIMRAILSENABLED
350
3788
  0
DICTIONARY
  5
3489
102
{ACAD_REACTORS
330
3488
102
}
330
3488
100
AcDbDictionary
281
     1
  0
DICTIONARY
  5
EAF5
102
{ACAD_REACTORS
330
3488
102
}
330
3488
100
AcDbDictionary
281
     1
1001
ACAD
1000
<All
  0
XRECORD
  5
3278
102
{ACAD_REACTORS
330
3277
102
}
330
3277
100
AcDbXrecord
280
     1
 90
        1
340
0
  0
IMAGEDEF
  5
97E
102
{ACAD_REACTORS
330
97D
102
}
330
97D
100
AcDbRasterImageDef
 90
        0
  1
\\192.168.192.119\digitec-common\デザイン制作部（仮）\★2017新商品\銘版シール\【2017銘版シール】outline_6.png
 10
220.0
 20
182.0
 11
0.3527777777777777
 21
0.3527777777777777
280
     1
281
     5
  0
IMAGEDEF
  5
97F
102
{ACAD_REACTORS
330
97D
102
}
330
97D
100
AcDbRasterImageDef
 90
        0
  1
\\192.168.192.119\digitec-common\デザイン制作部（仮）\★2017新商品\銘版シール\【2017銘版シール】outline_7.png
 10
220.0
 20
182.0
 11
0.3527777777777777
 21
0.3527777777777777
280
     1
281
     5
  0
IMAGEDEF
  5
980
102
{ACAD_REACTORS
330
97D
102
}
330
97D
100
AcDbRasterImageDef
 90
        0
  1
\\192.168.192.119\digitec-common\デザイン制作部（仮）\★2017新商品\銘版シール\【2017銘版シール】outline_8.png
 10
220.0
 20
182.0
 11
0.3527777777777777
 21
0.3527777777777777
280
     1
281
     5
  0
IMAGEDEF
  5
981
102
{ACAD_REACTORS
330
97D
102
}
330
97D
100
AcDbRasterImageDef
 90
        0
  1
\\192.168.192.119\digitec-common\デザイン制作部（仮）\★2017新商品\銘版シール\【2017銘版シール】outline_9.png
 10
220.0
 20
182.0
 11
0.3527777777777777
 21
0.3527777777777777
280
     1
281
     5
  0
IMAGEDEF
  5
97C
102
{ACAD_REACTORS
330
97D
102
}
330
97D
100
AcDbRasterImageDef
 90
        0
  1
\\192.168.192.119\digitec-common\デザイン制作部（仮）\★2017新商品\銘版シール\【2017銘版シール】outline_1.png
 10
220.0
 20
182.0
 11
0.3527777777777777
 21
0.3527777777777777
280
     1
281
     5
  0
IMAGEDEF
  5
982
102
{ACAD_REACTORS
330
97D
102
}
330
97D
100
AcDbRasterImageDef
 90
        0
  1
\\192.168.192.119\digitec-common\デザイン制作部（仮）\★2017新商品\銘版シール\【2017銘版シール】outline_10.png
 10
220.0
 20
182.0
 11
0.3527777777777777
 21
0.3527777777777777
280
     1
281
     5
  0
IMAGEDEF
  5
983
102
{ACAD_REACTORS
330
97D
102
}
330
97D
100
AcDbRasterImageDef
 90
        0
  1
\\192.168.192.119\digitec-common\デザイン制作部（仮）\★2017新商品\銘版シール\【2017銘版シール】outline_11.png
 10
220.0
 20
182.0
 11
0.3527777777777777
 21
0.3527777777777777
280
     1
281
     5
  0
IMAGEDEF
  5
984
102
{ACAD_REACTORS
330
97D
102
}
330
97D
100
AcDbRasterImageDef
 90
        0
  1
\\192.168.192.119\digitec-common\デザイン制作部（仮）\★2017新商品\銘版シール\【2017銘版シール】outline_12.png
 10
220.0
 20
182.0
 11
0.3527777777777777
 21
0.3527777777777777
280
     1
281
     5
  0
IMAGEDEF
  5
985
102
{ACAD_REACTORS
330
97D
102
}
330
97D
100
AcDbRasterImageDef
 90
        0
  1
\\192.168.192.119\digitec-common\デザイン制作部（仮）\★2017新商品\銘版シール\【2017銘版シール】outline_13.png
 10
220.0
 20
182.0
 11
0.3527777777777777
 21
0.3527777777777777
280
     1
281
     5
  0
IMAGEDEF
  5
986
102
{ACAD_REACTORS
330
97D
102
}
330
97D
100
AcDbRasterImageDef
 90
        0
  1
\\192.168.192.119\digitec-common\デザイン制作部（仮）\★2017新商品\銘版シール\【2017銘版シール】outline_14.png
 10
220.0
 20
182.0
 11
0.3527777777777777
 21
0.3527777777777777
280
     1
281
     5
  0
IMAGEDEF
  5
987
102
{ACAD_REACTORS
330
97D
102
}
330
97D
100
AcDbRasterImageDef
 90
        0
  1
\\192.168.192.119\digitec-common\デザイン制作部（仮）\★2017新商品\銘版シール\【2017銘版シール】outline_15.png
 10
220.0
 20
182.0
 11
0.3527777777777777
 21
0.3527777777777777
280
     1
281
     5
  0
IMAGEDEF
  5
988
102
{ACAD_REACTORS
330
97D
102
}
330
97D
100
AcDbRasterImageDef
 90
        0
  1
\\192.168.192.119\digitec-common\デザイン制作部（仮）\★2017新商品\銘版シール\【2017銘版シール】outline_2.png
 10
220.0
 20
182.0
 11
0.3527777777777777
 21
0.3527777777777777
280
     1
281
     5
  0
IMAGEDEF
  5
989
102
{ACAD_REACTORS
330
97D
102
}
330
97D
100
AcDbRasterImageDef
 90
        0
  1
\\192.168.192.119\digitec-common\デザイン制作部（仮）\★2017新商品\銘版シール\【2017銘版シール】outline_3.png
 10
220.0
 20
182.0
 11
0.3527777777777777
 21
0.3527777777777777
280
     1
281
     5
  0
IMAGEDEF
  5
98A
102
{ACAD_REACTORS
330
97D
102
}
330
97D
100
AcDbRasterImageDef
 90
        0
  1
\\192.168.192.119\digitec-common\デザイン制作部（仮）\★2017新商品\銘版シール\【2017銘版シール】outline_4.png
 10
220.0
 20
182.0
 11
0.3527777777777777
 21
0.3527777777777777
280
     1
281
     5
  0
IMAGEDEF
  5
98B
102
{ACAD_REACTORS
330
97D
102
}
330
97D
100
AcDbRasterImageDef
 90
        0
  1
\\192.168.192.119\digitec-common\デザイン制作部（仮）\★2017新商品\銘版シール\【2017銘版シール】outline_5.png
 10
220.0
 20
182.0
 11
0.3527777777777777
 21
0.3527777777777777
280
     1
281
     5
  0
LAYOUT
  5
E23B
102
{ACAD_REACTORS
330
E23A
102
}
330
E23A
100
AcDbPlotSettings
  1

  2
none_device
  4
Letter_(8.50_x_11.00_Inches)
  6

 40
6.35
 41
6.35
 42
6.35
 43
6.35
 44
215.9
 45
279.4
 46
0.0
 47
0.0
 48
0.0
 49
0.0
140
0.0
141
0.0
142
1.0
143
104.0053117408906
 70
  1712
 72
     0
 73
     0
 74
     0
  7

 75
     0
 76
     0
 77
     2
 78
   300
147
0.0096148935401618
148
-5623.535665308857
149
1173.376901875642
100
AcDbLayout
  1
Model
 70
     1
 71
     0
 10
0.0
 20
0.0
 11
420.0
 21
297.0
 12
0.0
 22
0.0
 32
0.0
 14
0.0
 24
0.0
 34
0.0
 15
840.0
 25
594.0
 35
0.0
146
0.0
 13
0.0
 23
0.0
 33
0.0
 16
1.0
 26
0.0
 36
0.0
 17
0.0
 27
1.0
 37
0.0
 76
     0
330
1F
331
29
  0
LAYOUT
  5
E23C
102
{ACAD_REACTORS
330
E23A
102
}
330
E23A
100
AcDbPlotSettings
  1

  2
none_device
  4

  6

 40
0.0
 41
0.0
 42
0.0
 43
0.0
 44
0.0
 45
0.0
 46
0.0
 47
0.0
 48
0.0
 49
0.0
140
0.0
141
0.0
142
1.0
143
1.0
 70
   688
 72
     1
 73
     0
 74
     5
  7

 75
    16
 76
     0
 77
     2
 78
   300
147
1.0
148
0.0
149
0.0
100
AcDbLayout
  1
シート 1
 70
     1
 71
     1
 10
0.0
 20
0.0
 11
0.0
 21
0.0
 12
0.0
 22
0.0
 32
0.0
 14
40.5
 24
25.69999999999999
 34
0.0
 15
364.5
 25
231.3
 35
0.0
146
0.0
 13
0.0
 23
0.0
 33
0.0
 16
1.0
 26
0.0
 36
0.0
 17
0.0
 27
1.0
 37
0.0
 76
     0
330
1B
331
3275
  0
MATERIAL
  5
E23F
102
{ACAD_REACTORS
330
E23D
102
}
330
E23D
100
AcDbMaterial
  1
ByBlock
 72
     1
 94
      127
  0
MATERIAL
  5
E23E
102
{ACAD_REACTORS
330
E23D
102
}
330
E23D
100
AcDbMaterial
  1
ByLayer
 72
     1
 94
      127
  0
MATERIAL
  5
E240
102
{ACAD_REACTORS
330
E23D
102
}
330
E23D
100
AcDbMaterial
  1
Global
 72
     1
 94
      127
  0
MLEADERSTYLE
  5
E244
102
{ACAD_REACTORS
330
E243
102
}
330
E243
100
AcDbMLeaderStyle
179
     2
170
     2
171
     1
172
     0
 90
        2
 40
0.0
 41
0.0
173
     1
 91
-1056964608
340
14
 92
       -2
290
     1
 42
2.0
291
     1
 43
8.0
  3
Standard
341
0
 44
4.0
300

342
11
174
     1
178
     1
175
     1
176
     0
 93
-1056964608
 45
4.0
292
     0
297
     0
 46
4.0
343
0
 94
-1056964608
 47
1.0
 49
1.0
140
1.0
293
     1
141
0.0
294
     1
177
     0
142
1.0
295
     0
296
     0
143
3.75
271
     0
272
     9
273
     9
298
     0
  0
MLINESTYLE
  5
18
102
{ACAD_REACTORS
330
17
102
}
330
17
100
AcDbMlineStyle
  2
Standard
 70
     0
  3

 62
   256
 51
90.0
 52
90.0
 71
     2
 49
0.5
 62
   256
  6
BYLAYER
 49
-0.5
 62
   256
  6
BYLAYER
  0
ACDBPLACEHOLDER
  5
E217
102
{ACAD_REACTORS
330
E216
102
}
330
E216
  0
SCALE
  5
E219
102
{ACAD_REACTORS
330
E218
102
}
330
E218
100
AcDbScale
 70
     0
300
1:1
140
1.0
141
1.0
290
     1
  0
SCALE
  5
E21A
102
{ACAD_REACTORS
330
E218
102
}
330
E218
100
AcDbScale
 70
     0
300
1:2
140
1.0
141
2.0
290
     0
  0
SCALE
  5
E21B
102
{ACAD_REACTORS
330
E218
102
}
330
E218
100
AcDbScale
 70
     0
300
1:4
140
1.0
141
4.0
290
     0
  0
SCALE
  5
E21C
102
{ACAD_REACTORS
330
E218
102
}
330
E218
100
AcDbScale
 70
     0
300
1:5
140
1.0
141
5.0
290
     0
  0
SCALE
  5
E21D
102
{ACAD_REACTORS
330
E218
102
}
330
E218
100
AcDbScale
 70
     0
300
1:8
140
1.0
141
8.0
290
     0
  0
SCALE
  5
E21E
102
{ACAD_REACTORS
330
E218
102
}
330
E218
100
AcDbScale
 70
     0
300
1:10
140
1.0
141
10.0
290
     0
  0
SCALE
  5
E21F
102
{ACAD_REACTORS
330
E218
102
}
330
E218
100
AcDbScale
 70
     0
300
1:16
140
1.0
141
16.0
290
     0
  0
SCALE
  5
E220
102
{ACAD_REACTORS
330
E218
102
}
330
E218
100
AcDbScale
 70
     0
300
1:20
140
1.0
141
20.0
290
     0
  0
SCALE
  5
E221
102
{ACAD_REACTORS
330
E218
102
}
330
E218
100
AcDbScale
 70
     0
300
1:30
140
1.0
141
30.0
290
     0
  0
SCALE
  5
E222
102
{ACAD_REACTORS
330
E218
102
}
330
E218
100
AcDbScale
 70
     0
300
1:40
140
1.0
141
40.0
290
     0
  0
SCALE
  5
E223
102
{ACAD_REACTORS
330
E218
102
}
330
E218
100
AcDbScale
 70
     0
300
1:50
140
1.0
141
50.0
290
     0
  0
SCALE
  5
E224
102
{ACAD_REACTORS
330
E218
102
}
330
E218
100
AcDbScale
 70
     0
300
1:100
140
1.0
141
100.0
290
     0
  0
SCALE
  5
E225
102
{ACAD_REACTORS
330
E218
102
}
330
E218
100
AcDbScale
 70
     0
300
2:1
140
2.0
141
1.0
290
     0
  0
SCALE
  5
E226
102
{ACAD_REACTORS
330
E218
102
}
330
E218
100
AcDbScale
 70
     0
300
4:1
140
4.0
141
1.0
290
     0
  0
SCALE
  5
E227
102
{ACAD_REACTORS
330
E218
102
}
330
E218
100
AcDbScale
 70
     0
300
8:1
140
8.0
141
1.0
290
     0
  0
SCALE
  5
E228
102
{ACAD_REACTORS
330
E218
102
}
330
E218
100
AcDbScale
 70
     0
300
10:1
140
10.0
141
1.0
290
     0
  0
SCALE
  5
E229
102
{ACAD_REACTORS
330
E218
102
}
330
E218
100
AcDbScale
 70
     0
300
100:1
140
100.0
141
1.0
290
     0
  0
SCALE
  5
E22A
102
{ACAD_REACTORS
330
E218
102
}
330
E218
100
AcDbScale
 70
     0
300
1/128" = 1'-0"
140
0.0078125
141
12.0
290
     0
  0
SCALE
  5
E22B
102
{ACAD_REACTORS
330
E218
102
}
330
E218
100
AcDbScale
 70
     0
300
1/64" = 1'-0"
140
0.015625
141
12.0
290
     0
  0
SCALE
  5
E22C
102
{ACAD_REACTORS
330
E218
102
}
330
E218
100
AcDbScale
 70
     0
300
1/32" = 1'-0"
140
0.03125
141
12.0
290
     0
  0
SCALE
  5
E22D
102
{ACAD_REACTORS
330
E218
102
}
330
E218
100
AcDbScale
 70
     0
300
1/16" = 1'-0"
140
0.0625
141
12.0
290
     0
  0
SCALE
  5
E22E
102
{ACAD_REACTORS
330
E218
102
}
330
E218
100
AcDbScale
 70
     0
300
3/32" = 1'-0"
140
0.09375
141
12.0
290
     0
  0
SCALE
  5
E22F
102
{ACAD_REACTORS
330
E218
102
}
330
E218
100
AcDbScale
 70
     0
300
1/8" = 1'-0"
140
0.125
141
12.0
290
     0
  0
SCALE
  5
E230
102
{ACAD_REACTORS
330
E218
102
}
330
E218
100
AcDbScale
 70
     0
300
3/16" = 1'-0"
140
0.1875
141
12.0
290
     0
  0
SCALE
  5
E231
102
{ACAD_REACTORS
330
E218
102
}
330
E218
100
AcDbScale
 70
     0
300
1/4" = 1'-0"
140
0.25
141
12.0
290
     0
  0
SCALE
  5
E232
102
{ACAD_REACTORS
330
E218
102
}
330
E218
100
AcDbScale
 70
     0
300
3/8" = 1'-0"
140
0.375
141
12.0
290
     0
  0
SCALE
  5
E233
102
{ACAD_REACTORS
330
E218
102
}
330
E218
100
AcDbScale
 70
     0
300
1/2" = 1'-0"
140
0.5
141
12.0
290
     0
  0
SCALE
  5
E234
102
{ACAD_REACTORS
330
E218
102
}
330
E218
100
AcDbScale
 70
     0
300
3/4" = 1'-0"
140
0.75
141
12.0
290
     0
  0
SCALE
  5
E235
102
{ACAD_REACTORS
330
E218
102
}
330
E218
100
AcDbScale
 70
     0
300
1" = 1'-0"
140
1.0
141
12.0
290
     0
  0
SCALE
  5
E236
102
{ACAD_REACTORS
330
E218
102
}
330
E218
100
AcDbScale
 70
     0
300
1-1/2" = 1'-0"
140
1.5
141
12.0
290
     0
  0
SCALE
  5
E237
102
{ACAD_REACTORS
330
E218
102
}
330
E218
100
AcDbScale
 70
     0
300
3" = 1'-0"
140
3.0
141
12.0
290
     0
  0
SCALE
  5
E238
102
{ACAD_REACTORS
330
E218
102
}
330
E218
100
AcDbScale
 70
     0
300
6" = 1'-0"
140
6.0
141
12.0
290
     0
  0
SCALE
  5
E239
102
{ACAD_REACTORS
330
E218
102
}
330
E218
100
AcDbScale
 70
     0
300
1'-0" = 1'-0"
140
12.0
141
12.0
290
     0
  0
TABLESTYLE
  5
E242
102
{ACAD_REACTORS
330
E241
102
}
102
{ACAD_XDICTIONARY
360
EB06
102
}
330
E241
100
AcDbTableStyle
  3
Standard
 70
     0
 71
     0
 40
1.5
 41
1.5
280
     0
281
     0
  7
STANDARD
140
4.5
170
     2
 62
     0
 63
   257
283
     0
 90
        4
 91
        0
  1

274
    -2
284
     1
 64
     0
275
    -2
285
     1
 65
     0
276
    -2
286
     1
 66
     0
277
    -2
287
     1
 67
     0
278
    -2
288
     1
 68
     0
279
    -2
289
     1
 69
     0
  7
STANDARD
140
6.0
170
     5
 62
     0
 63
   257
283
     0
 90
        4
 91
        0
  1

274
    -2
284
     1
 64
     0
275
    -2
285
     1
 65
     0
276
    -2
286
     1
 66
     0
277
    -2
287
     1
 67
     0
278
    -2
288
     1
 68
     0
279
    -2
289
     1
 69
     0
  7
STANDARD
140
4.5
170
     5
 62
     0
 63
   257
283
     0
 90
        4
 91
        0
  1

274
    -2
284
     1
 64
     0
275
    -2
285
     1
 65
     0
276
    -2
286
     1
 66
     0
277
    -2
287
     1
 67
     0
278
    -2
288
     1
 68
     0
279
    -2
289
     1
 69
     0
  0
VISUALSTYLE
  5
E201
102
{ACAD_REACTORS
330
E1FC
102
}
330
E1FC
100
AcDbVisualStyle
  2
2dWireframe
 70
     4
177
     3
291
     0
 70
    58
 90
        0
176
     1
 90
        2
176
     1
 90
        0
176
     1
 90
        0
176
     1
 40
0.6
176
     1
 40
30.0
176
     1
 62
     7
420
 16777215
176
     1
 90
        1
176
     1
 90
        4
176
     1
 62
     7
176
     1
 62
   257
176
     1
 90
        1
176
     1
 90
        1
176
     1
 40
1.0
176
     1
 90
        0
176
     1
 62
   257
176
     1
 40
1.0
176
     1
 90
        1
176
     1
 90
        6
176
     1
 90
        2
176
     1
 62
     7
176
     1
 90
        5
176
     1
 90
        0
176
     1
 90
        0
176
     1
290
     0
176
     1
 90
        1
176
     1
 40
0.0
176
     1
 90
        0
176
     1
290
     1
176
     1
290
     1
176
     1
290
     0
176
     1
290
     0
176
     1
290
     0
176
     1
290
     0
176
     1
290
     0
176
     1
290
     0
176
     1
290
     0
176
     1
 90
       50
176
     1
 40
0.0
176
     1
 40
1.0
176
     1
 90
        0
176
     1
 62
    18
420
        0
176
     1
 90
       50
176
     1
 90
        3
176
     1
 62
     5
420
      255
176
     1
290
     0
176
     1
 90
       50
176
     1
 90
       50
176
     1
 90
       50
176
     1
290
     0
176
     1
 90
       50
176
     1
 62
   256
176
     0
 40
1.0
176
     0
 90
        2
176
     1
  1
strokes_ogs.tif
176
     1
290
     0
176
     1
 40
1.0
176
     1
 40
1.0
176
     1
  0
VISUALSTYLE
  5
E204
102
{ACAD_REACTORS
330
E1FC
102
}
330
E1FC
100
AcDbVisualStyle
  2
Basic
 70
     7
177
     3
291
     1
 70
    58
 90
        1
176
     1
 90
        0
176
     1
 90
        1
176
     1
 90
        0
176
     1
 40
0.6
176
     1
 40
30.0
176
     1
 62
     7
420
 16777215
176
     1
 90
        0
176
     1
 90
        4
176
     1
 62
     7
176
     1
 62
   257
176
     1
 90
        1
176
     1
 90
        1
176
     1
 40
1.0
176
     1
 90
        8
176
     1
 62
     7
176
     1
 40
1.0
176
     1
 90
        1
176
     1
 90
        6
176
     1
 90
        2
176
     1
 62
     7
176
     1
 90
        5
176
     1
 90
        0
176
     1
 90
        0
176
     1
290
     0
176
     1
 90
        1
176
     1
 40
0.0
176
     1
 90
        0
176
     1
290
     0
176
     1
290
     1
176
     1
290
     1
176
     1
290
     0
176
     1
290
     0
176
     1
290
     0
176
     1
290
     0
176
     1
290
     0
176
     1
290
     0
176
     1
 90
       50
176
     1
 40
0.0
176
     1
 40
1.0
176
     1
 90
        0
176
     1
 62
    18
420
        0
176
     1
 90
       50
176
     1
 90
        3
176
     1
 62
     5
420
      255
176
     1
290
     0
176
     1
 90
       50
176
     1
 90
       50
176
     1
 90
       50
176
     1
290
     0
176
     1
 90
       50
176
     1
 62
   256
176
     0
 40
1.0
176
     0
 90
        2
176
     1
  1
strokes_ogs.tif
176
     1
290
     0
176
     1
 40
1.0
176
     1
 40
1.0
176
     1
  0
VISUALSTYLE
  5
E208
102
{ACAD_REACTORS
330
E1FC
102
}
330
E1FC
100
AcDbVisualStyle
  2
Brighten
 70
    12
177
     3
291
     1
 70
    58
 90
        2
176
     1
 90
        2
176
     1
 90
        0
176
     1
 90
        0
176
     1
 40
0.6
176
     1
 40
30.0
176
     1
 62
     7
420
 16777215
176
     1
 90
        1
176
     1
 90
        4
176
     1
 62
     7
176
     1
 62
   257
176
     1
 90
        1
176
     1
 90
        1
176
     1
 40
1.0
176
     1
 90
        8
176
     1
 62
     7
176
     1
 40
1.0
176
     1
 90
        1
176
     1
 90
        6
176
     1
 90
        2
176
     1
 62
     7
176
     1
 90
        5
176
     1
 90
        0
176
     1
 90
        0
176
     1
290
     0
176
     1
 90
        1
176
     1
 40
50.0
176
     1
 90
        0
176
     1
290
     0
176
     1
290
     1
176
     1
290
     1
176
     1
290
     0
176
     1
290
     0
176
     1
290
     0
176
     1
290
     0
176
     1
290
     0
176
     1
290
     0
176
     1
 90
       50
176
     1
 40
0.0
176
     1
 40
1.0
176
     1
 90
        0
176
     1
 62
    18
420
        0
176
     1
 90
       50
176
     1
 90
        3
176
     1
 62
     5
420
      255
176
     1
290
     0
176
     1
 90
       50
176
     1
 90
       50
176
     1
 90
       50
176
     1
290
     0
176
     1
 90
       50
176
     1
 62
   256
176
     0
 40
1.0
176
     0
 90
        2
176
     1
  1
strokes_ogs.tif
176
     1
290
     0
176
     1
 40
1.0
176
     1
 40
1.0
176
     1
  0
VISUALSTYLE
  5
E20C
102
{ACAD_REACTORS
330
E1FC
102
}
330
E1FC
100
AcDbVisualStyle
  2
ColorChange
 70
    16
177
     3
291
     1
 70
    58
 90
        2
176
     1
 90
        2
176
     1
 90
        3
176
     1
 90
        0
176
     1
 40
0.6
176
     1
 40
30.0
176
     1
 62
     8
420
  8421504
176
     1
 90
        1
176
     1
 90
        4
176
     1
 62
     7
176
     1
 62
   257
176
     1
 90
        1
176
     1
 90
        1
176
     1
 40
1.0
176
     1
 90
        8
176
     1
 62
     8
420
  8421504
176
     1
 40
1.0
176
     1
 90
        1
176
     1
 90
        6
176
     1
 90
        2
176
     1
 62
     7
176
     1
 90
        5
176
     1
 90
        0
176
     1
 90
        0
176
     1
290
     0
176
     1
 90
        1
176
     1
 40
0.0
176
     1
 90
        0
176
     1
290
     0
176
     1
290
     1
176
     1
290
     1
176
     1
290
     0
176
     1
290
     0
176
     1
290
     0
176
     1
290
     0
176
     1
290
     0
176
     1
290
     0
176
     1
 90
       50
176
     1
 40
0.0
176
     1
 40
1.0
176
     1
 90
        0
176
     1
 62
    18
420
        0
176
     1
 90
       50
176
     1
 90
        3
176
     1
 62
     5
420
      255
176
     1
290
     0
176
     1
 90
       50
176
     1
 90
       50
176
     1
 90
       50
176
     1
290
     0
176
     1
 90
       50
176
     1
 62
   256
176
     0
 40
1.0
176
     0
 90
        2
176
     1
  1
strokes_ogs.tif
176
     1
290
     0
176
     1
 40
1.0
176
     1
 40
1.0
176
     1
  0
VISUALSTYLE
  5
E206
102
{ACAD_REACTORS
330
E1FC
102
}
330
E1FC
100
AcDbVisualStyle
  2
Conceptual
 70
     9
177
     3
291
     0
 70
    58
 90
        3
176
     1
 90
        2
176
     1
 90
        0
176
     1
 90
        0
176
     1
 40
0.6
176
     1
 40
30.0
176
     1
 62
     7
420
 16777215
176
     1
 90
        2
176
     1
 90
        2
176
     1
 62
     7
176
     1
 62
   257
176
     1
 90
        1
176
     1
 90
        1
176
     1
 40
179.0
176
     1
 90
        8
176
     1
 62
     7
176
     1
 40
1.0
176
     1
 90
        1
176
     1
 90
        6
176
     1
 90
        2
176
     1
 62
     7
176
     1
 90
        3
176
     1
 90
        0
176
     1
 90
        0
176
     1
290
     0
176
     1
 90
        1
176
     1
 40
0.0
176
     1
 90
        0
176
     1
290
     0
176
     1
290
     1
176
     1
290
     1
176
     1
290
     0
176
     1
290
     0
176
     1
290
     0
176
     1
290
     0
176
     1
290
     0
176
     1
290
     0
176
     1
 90
       50
176
     1
 40
0.0
176
     1
 40
1.0
176
     1
 90
        0
176
     1
 62
    18
420
        0
176
     1
 90
       50
176
     1
 90
        3
176
     1
 62
     5
420
      255
176
     1
290
     0
176
     1
 90
       50
176
     1
 90
       50
176
     1
 90
       50
176
     1
290
     0
176
     1
 90
       50
176
     1
 62
   256
176
     0
 40
1.0
176
     0
 90
        2
176
     1
  1
strokes_ogs.tif
176
     1
290
     0
176
     1
 40
1.0
176
     1
 40
1.0
176
     1
  0
VISUALSTYLE
  5
E207
102
{ACAD_REACTORS
330
E1FC
102
}
330
E1FC
100
AcDbVisualStyle
  2
Dim
 70
    11
177
     3
291
     1
 70
    58
 90
        2
176
     1
 90
        2
176
     1
 90
        0
176
     1
 90
        0
176
     1
 40
0.6
176
     1
 40
30.0
176
     1
 62
     7
420
 16777215
176
     1
 90
        1
176
     1
 90
        4
176
     1
 62
     7
176
     1
 62
   257
176
     1
 90
        1
176
     1
 90
        1
176
     1
 40
1.0
176
     1
 90
        8
176
     1
 62
     7
176
     1
 40
1.0
176
     1
 90
        1
176
     1
 90
        6
176
     1
 90
        2
176
     1
 62
     7
176
     1
 90
        5
176
     1
 90
        0
176
     1
 90
        0
176
     1
290
     0
176
     1
 90
        1
176
     1
 40
-50.0
176
     1
 90
        0
176
     1
290
     0
176
     1
290
     1
176
     1
290
     1
176
     1
290
     0
176
     1
290
     0
176
     1
290
     0
176
     1
290
     0
176
     1
290
     0
176
     1
290
     0
176
     1
 90
       50
176
     1
 40
0.0
176
     1
 40
1.0
176
     1
 90
        0
176
     1
 62
    18
420
        0
176
     1
 90
       50
176
     1
 90
        3
176
     1
 62
     5
420
      255
176
     1
290
     0
176
     1
 90
       50
176
     1
 90
       50
176
     1
 90
       50
176
     1
290
     0
176
     1
 90
       50
176
     1
 62
   256
176
     0
 40
1.0
176
     0
 90
        2
176
     1
  1
strokes_ogs.tif
176
     1
290
     0
176
     1
 40
1.0
176
     1
 40
1.0
176
     1
  0
VISUALSTYLE
  5
E20F
102
{ACAD_REACTORS
330
E1FC
102
}
330
E1FC
100
AcDbVisualStyle
  2
EdgeColorOff
 70
    22
177
     3
291
     1
 70
    58
 90
        2
176
     0
 90
        2
176
     0
 90
        0
176
     0
 90
        0
176
     0
 40
0.6
176
     0
 40
30.0
176
     0
 62
     7
420
 16777215
176
     0
 90
        1
176
     0
 90
        4
176
     0
 62
     7
176
     0
 62
   257
176
     0
 90
        1
176
     0
 90
        1
176
     0
 40
1.0
176
     0
 90
        8
176
     2
 62
     7
176
     0
 40
1.0
176
     0
 90
        1
176
     0
 90
        6
176
     0
 90
        2
176
     0
 62
     7
176
     0
 90
        5
176
     0
 90
        0
176
     0
 90
        0
176
     0
290
     0
176
     0
 90
        1
176
     0
 40
0.0
176
     0
 90
        0
176
     0
290
     0
176
     0
290
     1
176
     0
290
     1
176
     0
290
     0
176
     0
290
     0
176
     0
290
     0
176
     0
290
     0
176
     0
290
     0
176
     0
290
     0
176
     0
 90
       50
176
     0
 40
0.0
176
     0
 40
1.0
176
     0
 90
        0
176
     0
 62
    18
420
        0
176
     0
 90
       50
176
     0
 90
        3
176
     0
 62
     5
420
      255
176
     0
290
     0
176
     0
 90
       50
176
     0
 90
       50
176
     0
 90
       50
176
     0
290
     0
176
     0
 90
       50
176
     0
 62
   256
176
     0
 40
1.0
176
     0
 90
        2
176
     0
  1
strokes_ogs.tif
176
     0
290
     0
176
     0
 40
1.0
176
     0
 40
1.0
176
     0
  0
VISUALSTYLE
  5
E20B
102
{ACAD_REACTORS
330
E1FC
102
}
330
E1FC
100
AcDbVisualStyle
  2
Facepattern
 70
    15
177
     3
291
     1
 70
    58
 90
        2
176
     1
 90
        2
176
     1
 90
        0
176
     1
 90
        0
176
     1
 40
0.6
176
     1
 40
30.0
176
     1
 62
     7
420
 16777215
176
     1
 90
        1
176
     1
 90
        4
176
     1
 62
     7
176
     1
 62
   257
176
     1
 90
        1
176
     1
 90
        1
176
     1
 40
1.0
176
     1
 90
        8
176
     1
 62
     7
176
     1
 40
1.0
176
     1
 90
        1
176
     1
 90
        6
176
     1
 90
        2
176
     1
 62
     7
176
     1
 90
        5
176
     1
 90
        0
176
     1
 90
        0
176
     1
290
     0
176
     1
 90
        1
176
     1
 40
0.0
176
     1
 90
        0
176
     1
290
     0
176
     1
290
     1
176
     1
290
     1
176
     1
290
     0
176
     1
290
     0
176
     1
290
     0
176
     1
290
     0
176
     1
290
     0
176
     1
290
     0
176
     1
 90
       50
176
     1
 40
0.0
176
     1
 40
1.0
176
     1
 90
        0
176
     1
 62
    18
420
        0
176
     1
 90
       50
176
     1
 90
        3
176
     1
 62
     5
420
      255
176
     1
290
     0
176
     1
 90
       50
176
     1
 90
       50
176
     1
 90
       50
176
     1
290
     0
176
     1
 90
       50
176
     1
 62
   256
176
     0
 40
1.0
176
     0
 90
        2
176
     1
  1
strokes_ogs.tif
176
     1
290
     0
176
     1
 40
1.0
176
     1
 40
1.0
176
     1
  0
VISUALSTYLE
  5
E1FD
102
{ACAD_REACTORS
330
E1FC
102
}
330
E1FC
100
AcDbVisualStyle
  2
Flat
 70
     0
177
     3
291
     1
 70
    58
 90
        2
176
     1
 90
        1
176
     1
 90
        1
176
     1
 90
        2
176
     1
 40
0.6
176
     1
 40
30.0
176
     1
 62
     7
420
 16777215
176
     1
 90
        0
176
     1
 90
        0
176
     1
 62
     7
176
     1
 62
   257
176
     1
 90
        1
176
     1
 90
        1
176
     1
 40
1.0
176
     1
 90
        8
176
     1
 62
     7
176
     1
 40
1.0
176
     1
 90
        1
176
     1
 90
        6
176
     1
 90
        2
176
     1
 62
     7
176
     1
 90
        5
176
     1
 90
        0
176
     1
 90
        0
176
     1
290
     0
176
     1
 90
       13
176
     1
 40
0.0
176
     1
 90
        0
176
     1
290
     0
176
     1
290
     1
176
     1
290
     1
176
     1
290
     0
176
     1
290
     0
176
     1
290
     0
176
     1
290
     0
176
     1
290
     0
176
     1
290
     0
176
     1
 90
       50
176
     1
 40
0.0
176
     1
 40
1.0
176
     1
 90
        0
176
     1
 62
    18
420
        0
176
     1
 90
       50
176
     1
 90
        3
176
     1
 62
     5
420
      255
176
     1
290
     0
176
     1
 90
       50
176
     1
 90
       50
176
     1
 90
       50
176
     1
290
     0
176
     1
 90
       50
176
     1
 62
   256
176
     0
 40
1.0
176
     0
 90
        2
176
     1
  1
strokes_ogs.tif
176
     1
290
     0
176
     1
 40
1.0
176
     1
 40
1.0
176
     1
  0
VISUALSTYLE
  5
E1FE
102
{ACAD_REACTORS
330
E1FC
102
}
330
E1FC
100
AcDbVisualStyle
  2
FlatWithEdges
 70
     1
177
     3
291
     1
 70
    58
 90
        2
176
     1
 90
        1
176
     1
 90
        1
176
     1
 90
        2
176
     1
 40
0.6
176
     1
 40
30.0
176
     1
 62
     7
420
 16777215
176
     1
 90
        1
176
     1
 90
        0
176
     1
 62
     7
176
     1
 62
   257
176
     1
 90
        1
176
     1
 90
        1
176
     1
 40
1.0
176
     1
 90
        0
176
     1
 62
   257
176
     1
 40
1.0
176
     1
 90
        1
176
     1
 90
        6
176
     1
 90
        2
176
     1
 62
     7
176
     1
 90
        5
176
     1
 90
        0
176
     1
 90
        0
176
     1
290
     0
176
     1
 90
       13
176
     1
 40
0.0
176
     1
 90
        0
176
     1
290
     0
176
     1
290
     1
176
     1
290
     1
176
     1
290
     0
176
     1
290
     0
176
     1
290
     0
176
     1
290
     0
176
     1
290
     0
176
     1
290
     0
176
     1
 90
       50
176
     1
 40
0.0
176
     1
 40
1.0
176
     1
 90
        0
176
     1
 62
    18
420
        0
176
     1
 90
       50
176
     1
 90
        3
176
     1
 62
     5
420
      255
176
     1
290
     0
176
     1
 90
       50
176
     1
 90
       50
176
     1
 90
       50
176
     1
290
     0
176
     1
 90
       50
176
     1
 62
   256
176
     0
 40
1.0
176
     0
 90
        2
176
     1
  1
strokes_ogs.tif
176
     1
290
     0
176
     1
 40
1.0
176
     1
 40
1.0
176
     1
  0
VISUALSTYLE
  5
E1FF
102
{ACAD_REACTORS
330
E1FC
102
}
330
E1FC
100
AcDbVisualStyle
  2
Gouraud
 70
     2
177
     3
291
     1
 70
    58
 90
        2
176
     1
 90
        2
176
     1
 90
        1
176
     1
 90
        2
176
     1
 40
0.6
176
     1
 40
30.0
176
     1
 62
     7
420
 16777215
176
     1
 90
        0
176
     1
 90
        0
176
     1
 62
     7
176
     1
 62
   257
176
     1
 90
        1
176
     1
 90
        1
176
     1
 40
1.0
176
     1
 90
        0
176
     1
 62
     7
176
     1
 40
1.0
176
     1
 90
        1
176
     1
 90
        6
176
     1
 90
        2
176
     1
 62
     7
176
     1
 90
        5
176
     1
 90
        0
176
     1
 90
        0
176
     1
290
     0
176
     1
 90
       13
176
     1
 40
0.0
176
     1
 90
        0
176
     1
290
     0
176
     1
290
     1
176
     1
290
     1
176
     1
290
     0
176
     1
290
     0
176
     1
290
     0
176
     1
290
     0
176
     1
290
     0
176
     1
290
     0
176
     1
 90
       50
176
     1
 40
0.0
176
     1
 40
1.0
176
     1
 90
        0
176
     1
 62
    18
420
        0
176
     1
 90
       50
176
     1
 90
        3
176
     1
 62
     5
420
      255
176
     1
290
     0
176
     1
 90
       50
176
     1
 90
       50
176
     1
 90
       50
176
     1
290
     0
176
     1
 90
       50
176
     1
 62
   256
176
     0
 40
1.0
176
     0
 90
        2
176
     1
  1
strokes_ogs.tif
176
     1
290
     0
176
     1
 40
1.0
176
     1
 40
1.0
176
     1
  0
VISUALSTYLE
  5
E200
102
{ACAD_REACTORS
330
E1FC
102
}
330
E1FC
100
AcDbVisualStyle
  2
GouraudWithEdges
 70
     3
177
     3
291
     1
 70
    58
 90
        2
176
     1
 90
        2
176
     1
 90
        1
176
     1
 90
        2
176
     1
 40
0.6
176
     1
 40
30.0
176
     1
 62
     7
420
 16777215
176
     1
 90
        1
176
     1
 90
        0
176
     1
 62
     7
176
     1
 62
   257
176
     1
 90
        1
176
     1
 90
        1
176
     1
 40
1.0
176
     1
 90
        0
176
     1
 62
   257
176
     1
 40
1.0
176
     1
 90
        1
176
     1
 90
        6
176
     1
 90
        2
176
     1
 62
     7
176
     1
 90
        5
176
     1
 90
        0
176
     1
 90
        0
176
     1
290
     0
176
     1
 90
       13
176
     1
 40
0.0
176
     1
 90
        0
176
     1
290
     0
176
     1
290
     1
176
     1
290
     1
176
     1
290
     0
176
     1
290
     0
176
     1
290
     0
176
     1
290
     0
176
     1
290
     0
176
     1
290
     0
176
     1
 90
       50
176
     1
 40
0.0
176
     1
 40
1.0
176
     1
 90
        0
176
     1
 62
    18
420
        0
176
     1
 90
       50
176
     1
 90
        3
176
     1
 62
     5
420
      255
176
     1
290
     0
176
     1
 90
       50
176
     1
 90
       50
176
     1
 90
       50
176
     1
290
     0
176
     1
 90
       50
176
     1
 62
   256
176
     0
 40
1.0
176
     0
 90
        2
176
     1
  1
strokes_ogs.tif
176
     1
290
     0
176
     1
 40
1.0
176
     1
 40
1.0
176
     1
  0
VISUALSTYLE
  5
E203
102
{ACAD_REACTORS
330
E1FC
102
}
330
E1FC
100
AcDbVisualStyle
  2
Hidden
 70
     6
177
     3
291
     0
 70
    58
 90
        1
176
     1
 90
        2
176
     1
 90
        2
176
     1
 90
        0
176
     1
 40
0.6
176
     1
 40
30.0
176
     1
 62
     7
420
 16777215
176
     1
 90
        2
176
     1
 90
        2
176
     1
 62
     7
176
     1
 62
   257
176
     1
 90
        2
176
     1
 90
        1
176
     1
 40
40.0
176
     1
 90
        0
176
     1
 62
   257
176
     1
 40
1.0
176
     1
 90
        1
176
     1
 90
        6
176
     1
 90
        2
176
     1
 62
     7
176
     1
 90
        3
176
     1
 90
        0
176
     1
 90
        0
176
     1
290
     0
176
     1
 90
        1
176
     1
 40
0.0
176
     1
 90
        0
176
     1
290
     0
176
     1
290
     1
176
     1
290
     1
176
     1
290
     0
176
     1
290
     0
176
     1
290
     0
176
     1
290
     0
176
     1
290
     0
176
     1
290
     0
176
     1
 90
       50
176
     1
 40
0.0
176
     1
 40
1.0
176
     1
 90
        0
176
     1
 62
    18
420
        0
176
     1
 90
       50
176
     1
 90
        3
176
     1
 62
     5
420
      255
176
     1
290
     0
176
     1
 90
       50
176
     1
 90
       50
176
     1
 90
       50
176
     1
290
     0
176
     1
 90
       50
176
     1
 62
   256
176
     0
 40
1.0
176
     0
 90
        2
176
     1
  1
strokes_ogs.tif
176
     1
290
     0
176
     1
 40
1.0
176
     1
 40
1.0
176
     1
  0
VISUALSTYLE
  5
E20D
102
{ACAD_REACTORS
330
E1FC
102
}
330
E1FC
100
AcDbVisualStyle
  2
JitterOff
 70
    20
177
     3
291
     1
 70
    58
 90
        2
176
     0
 90
        2
176
     0
 90
        0
176
     0
 90
        0
176
     0
 40
0.6
176
     0
 40
30.0
176
     0
 62
     7
420
 16777215
176
     0
 90
        1
176
     0
 90
        4
176
     0
 62
     7
176
     0
 62
   257
176
     0
 90
        1
176
     0
 90
        1
176
     0
 40
1.0
176
     0
 90
       10
176
     2
 62
     7
176
     0
 40
1.0
176
     0
 90
        1
176
     0
 90
        6
176
     0
 90
        2
176
     0
 62
     7
176
     0
 90
        5
176
     0
 90
        0
176
     0
 90
        0
176
     0
290
     0
176
     0
 90
        1
176
     0
 40
0.0
176
     0
 90
        0
176
     0
290
     0
176
     0
290
     1
176
     0
290
     1
176
     0
290
     0
176
     0
290
     0
176
     0
290
     0
176
     0
290
     0
176
     0
290
     0
176
     0
290
     0
176
     0
 90
       50
176
     0
 40
0.0
176
     0
 40
1.0
176
     0
 90
        0
176
     0
 62
    18
420
        0
176
     0
 90
       50
176
     0
 90
        3
176
     0
 62
     5
420
      255
176
     0
290
     0
176
     0
 90
       50
176
     0
 90
       50
176
     0
 90
       50
176
     0
290
     0
176
     0
 90
       50
176
     0
 62
   256
176
     0
 40
1.0
176
     0
 90
        2
176
     0
  1
strokes_ogs.tif
176
     0
290
     0
176
     0
 40
1.0
176
     0
 40
1.0
176
     0
  0
VISUALSTYLE
  5
E20A
102
{ACAD_REACTORS
330
E1FC
102
}
330
E1FC
100
AcDbVisualStyle
  2
Linepattern
 70
    14
177
     3
291
     1
 70
    58
 90
        2
176
     1
 90
        2
176
     1
 90
        0
176
     1
 90
        0
176
     1
 40
0.6
176
     1
 40
30.0
176
     1
 62
     7
420
 16777215
176
     1
 90
        1
176
     1
 90
        4
176
     1
 62
     7
176
     1
 62
   257
176
     1
 90
        7
176
     1
 90
        7
176
     1
 40
1.0
176
     1
 90
        8
176
     1
 62
     7
176
     1
 40
1.0
176
     1
 90
        1
176
     1
 90
        6
176
     1
 90
        2
176
     1
 62
     7
176
     1
 90
        5
176
     1
 90
        0
176
     1
 90
        0
176
     1
290
     0
176
     1
 90
        1
176
     1
 40
0.0
176
     1
 90
        0
176
     1
290
     0
176
     1
290
     1
176
     1
290
     1
176
     1
290
     0
176
     1
290
     0
176
     1
290
     0
176
     1
290
     0
176
     1
290
     0
176
     1
290
     0
176
     1
 90
       50
176
     1
 40
0.0
176
     1
 40
1.0
176
     1
 90
        0
176
     1
 62
    18
420
        0
176
     1
 90
       50
176
     1
 90
        3
176
     1
 62
     5
420
      255
176
     1
290
     0
176
     1
 90
       50
176
     1
 90
       50
176
     1
 90
       50
176
     1
290
     0
176
     1
 90
       50
176
     1
 62
   256
176
     0
 40
1.0
176
     0
 90
        2
176
     1
  1
strokes_ogs.tif
176
     1
290
     0
176
     1
 40
1.0
176
     1
 40
1.0
176
     1
  0
VISUALSTYLE
  5
E20E
102
{ACAD_REACTORS
330
E1FC
102
}
330
E1FC
100
AcDbVisualStyle
  2
OverhangOff
 70
    21
177
     3
291
     1
 70
    58
 90
        2
176
     0
 90
        2
176
     0
 90
        0
176
     0
 90
        0
176
     0
 40
0.6
176
     0
 40
30.0
176
     0
 62
     7
420
 16777215
176
     0
 90
        1
176
     0
 90
        4
176
     0
 62
     7
176
     0
 62
   257
176
     0
 90
        1
176
     0
 90
        1
176
     0
 40
1.0
176
     0
 90
        9
176
     2
 62
     7
176
     0
 40
1.0
176
     0
 90
        1
176
     0
 90
        6
176
     0
 90
        2
176
     0
 62
     7
176
     0
 90
        5
176
     0
 90
        0
176
     0
 90
        0
176
     0
290
     0
176
     0
 90
        1
176
     0
 40
0.0
176
     0
 90
        0
176
     0
290
     0
176
     0
290
     1
176
     0
290
     1
176
     0
290
     0
176
     0
290
     0
176
     0
290
     0
176
     0
290
     0
176
     0
290
     0
176
     0
290
     0
176
     0
 90
       50
176
     0
 40
0.0
176
     0
 40
1.0
176
     0
 90
        0
176
     0
 62
    18
420
        0
176
     0
 90
       50
176
     0
 90
        3
176
     0
 62
     5
420
      255
176
     0
290
     0
176
     0
 90
       50
176
     0
 90
       50
176
     0
 90
       50
176
     0
290
     0
176
     0
 90
       50
176
     0
 62
   256
176
     0
 40
1.0
176
     0
 90
        2
176
     0
  1
strokes_ogs.tif
176
     0
290
     0
176
     0
 40
1.0
176
     0
 40
1.0
176
     0
  0
VISUALSTYLE
  5
E205
102
{ACAD_REACTORS
330
E1FC
102
}
330
E1FC
100
AcDbVisualStyle
  2
Realistic
 70
     8
177
     3
291
     0
 70
    58
 90
        2
176
     1
 90
        3
176
     1
 90
        0
176
     1
 90
        2
176
     1
 40
0.6
176
     1
 40
30.0
176
     1
 62
     7
420
 16777215
176
     1
 90
        0
176
     1
 90
        0
176
     1
 62
     7
176
     1
 62
   257
176
     1
 90
        1
176
     1
 90
        1
176
     1
 40
1.0
176
     1
 90
        8
176
     1
 62
   257
176
     1
 40
1.0
176
     1
 90
        1
176
     1
 90
        6
176
     1
 90
        2
176
     1
 62
     7
176
     1
 90
        3
176
     1
 90
        0
176
     1
 90
        0
176
     1
290
     0
176
     1
 90
       13
176
     1
 40
0.0
176
     1
 90
        0
176
     1
290
     0
176
     1
290
     1
176
     1
290
     1
176
     1
290
     0
176
     1
290
     0
176
     1
290
     0
176
     1
290
     0
176
     1
290
     0
176
     1
290
     0
176
     1
 90
       50
176
     1
 40
0.0
176
     1
 40
1.0
176
     1
 90
        0
176
     1
 62
    18
420
        0
176
     1
 90
       50
176
     1
 90
        3
176
     1
 62
     5
420
      255
176
     1
290
     0
176
     1
 90
       50
176
     1
 90
       50
176
     1
 90
       50
176
     1
290
     0
176
     1
 90
       50
176
     1
 62
   256
176
     0
 40
1.0
176
     0
 90
        2
176
     1
  1
strokes_ogs.tif
176
     1
290
     0
176
     1
 40
1.0
176
     1
 40
1.0
176
     1
  0
VISUALSTYLE
  5
E214
102
{ACAD_REACTORS
330
E1FC
102
}
330
E1FC
100
AcDbVisualStyle
  2
Shaded
 70
    27
177
     3
291
     0
 70
    58
 90
        2
176
     1
 90
        2
176
     1
 90
        1
176
     1
 90
        2
176
     1
 40
0.6
176
     1
 40
30.0
176
     1
 62
     7
420
 16777215
176
     1
 90
        0
176
     1
 90
        4
176
     1
 62
     7
176
     1
 62
   257
176
     1
 90
        1
176
     1
 90
        1
176
     1
 40
1.0
176
     1
 90
        8
176
     1
 62
   257
176
     1
 40
1.0
176
     1
 90
        1
176
     1
 90
        6
176
     1
 90
        2
176
     1
 62
     8
420
  7895160
176
     1
 90
        3
176
     1
 90
        0
176
     1
 90
        0
176
     1
290
     0
176
     1
 90
        5
176
     1
 40
0.0
176
     1
 90
        0
176
     1
290
     0
176
     1
290
     1
176
     1
290
     1
176
     1
290
     0
176
     1
290
     0
176
     1
290
     0
176
     1
290
     0
176
     1
290
     0
176
     1
290
     0
176
     1
 90
       50
176
     1
 40
0.0
176
     1
 40
1.0
176
     1
 90
        0
176
     1
 62
    18
420
        0
176
     1
 90
       50
176
     1
 90
        3
176
     1
 62
     5
420
      255
176
     1
290
     0
176
     1
 90
       50
176
     1
 90
       50
176
     1
 90
       50
176
     1
290
     0
176
     1
 90
       50
176
     1
 62
   256
176
     0
 40
1.0
176
     0
 90
        2
176
     1
  1
strokes_ogs.tif
176
     1
290
     0
176
     1
 40
1.0
176
     1
 40
1.0
176
     1
  0
VISUALSTYLE
  5
E213
102
{ACAD_REACTORS
330
E1FC
102
}
330
E1FC
100
AcDbVisualStyle
  2
Shaded with edges
 70
    26
177
     3
291
     0
 70
    58
 90
        2
176
     1
 90
        2
176
     1
 90
        1
176
     1
 90
        2
176
     1
 40
0.6
176
     1
 40
30.0
176
     1
 62
     7
420
 16777215
176
     1
 90
        1
176
     1
 90
       10
176
     1
 62
     7
176
     1
 62
   257
176
     1
 90
        2
176
     1
 90
        1
176
     1
 40
1.0
176
     1
 90
        8
176
     1
 62
   257
176
     1
 40
1.0
176
     1
 90
        1
176
     1
 90
        6
176
     1
 90
        2
176
     1
 62
     7
176
     1
 90
        3
176
     1
 90
        0
176
     1
 90
        0
176
     1
290
     0
176
     1
 90
        5
176
     1
 40
0.0
176
     1
 90
        0
176
     1
290
     0
176
     1
290
     1
176
     1
290
     1
176
     1
290
     0
176
     1
290
     0
176
     1
290
     0
176
     1
290
     0
176
     1
290
     0
176
     1
290
     0
176
     1
 90
       50
176
     1
 40
0.0
176
     1
 40
1.0
176
     1
 90
        0
176
     1
 62
    18
420
        0
176
     1
 90
       50
176
     1
 90
        3
176
     1
 62
     5
420
      255
176
     1
290
     0
176
     1
 90
       50
176
     1
 90
       50
176
     1
 90
       50
176
     1
290
     0
176
     1
 90
       50
176
     1
 62
   256
176
     0
 40
1.0
176
     0
 90
        2
176
     1
  1
strokes_ogs.tif
176
     1
290
     0
176
     1
 40
1.0
176
     1
 40
1.0
176
     1
  0
VISUALSTYLE
  5
E210
102
{ACAD_REACTORS
330
E1FC
102
}
330
E1FC
100
AcDbVisualStyle
  2
Shades of Gray
 70
    23
177
     3
291
     0
 70
    58
 90
        2
176
     1
 90
        2
176
     1
 90
        3
176
     1
 90
        0
176
     1
 40
0.6
176
     1
 40
30.0
176
     1
 62
     7
420
 16777215
176
     1
 90
        2
176
     1
 90
        2
176
     1
 62
     7
176
     1
 62
     7
176
     1
 90
        1
176
     1
 90
        1
176
     1
 40
40.0
176
     1
 90
        8
176
     1
 62
     7
176
     1
 40
1.0
176
     1
 90
        1
176
     1
 90
        6
176
     1
 90
        2
176
     1
 62
     7
176
     1
 90
        3
176
     1
 90
        0
176
     1
 90
        0
176
     1
290
     0
176
     1
 90
        1
176
     1
 40
0.0
176
     1
 90
        0
176
     1
290
     0
176
     1
290
     1
176
     1
290
     1
176
     1
290
     0
176
     1
290
     0
176
     1
290
     0
176
     1
290
     0
176
     1
290
     0
176
     1
290
     0
176
     1
 90
       50
176
     1
 40
0.0
176
     1
 40
1.0
176
     1
 90
        0
176
     1
 62
    18
420
        0
176
     1
 90
       50
176
     1
 90
        3
176
     1
 62
     5
420
      255
176
     1
290
     0
176
     1
 90
       50
176
     1
 90
       50
176
     1
 90
       50
176
     1
290
     0
176
     1
 90
       50
176
     1
 62
   256
176
     0
 40
1.0
176
     0
 90
        2
176
     1
  1
strokes_ogs.tif
176
     1
290
     0
176
     1
 40
1.0
176
     1
 40
1.0
176
     1
  0
VISUALSTYLE
  5
E211
102
{ACAD_REACTORS
330
E1FC
102
}
330
E1FC
100
AcDbVisualStyle
  2
Sketchy
 70
    24
177
     3
291
     0
 70
    58
 90
        1
176
     1
 90
        2
176
     1
 90
        2
176
     1
 90
        0
176
     1
 40
0.6
176
     1
 40
30.0
176
     1
 62
     7
420
 16777215
176
     1
 90
        2
176
     1
 90
        2
176
     1
 62
     7
176
     1
 62
     7
176
     1
 90
        1
176
     1
 90
        1
176
     1
 40
40.0
176
     1
 90
       11
176
     1
 62
     7
176
     1
 40
1.0
176
     1
 90
        1
176
     1
 90
        6
176
     1
 90
        2
176
     1
 62
     7
176
     1
 90
        6
176
     1
 90
        0
176
     1
 90
        0
176
     1
290
     0
176
     1
 90
        1
176
     1
 40
0.0
176
     1
 90
        0
176
     1
290
     0
176
     1
290
     1
176
     1
290
     1
176
     1
290
     0
176
     1
290
     0
176
     1
290
     0
176
     1
290
     0
176
     1
290
     0
176
     1
290
     0
176
     1
 90
       50
176
     1
 40
0.0
176
     1
 40
1.0
176
     1
 90
        0
176
     1
 62
    18
420
        0
176
     1
 90
       50
176
     1
 90
        3
176
     1
 62
     5
420
      255
176
     1
290
     0
176
     1
 90
       50
176
     1
 90
       50
176
     1
 90
       50
176
     1
290
     0
176
     1
 90
       50
176
     1
 62
   256
176
     0
 40
1.0
176
     0
 90
        2
176
     1
  1
strokes_ogs.tif
176
     1
290
     0
176
     1
 40
1.0
176
     1
 40
1.0
176
     1
  0
VISUALSTYLE
  5
E209
102
{ACAD_REACTORS
330
E1FC
102
}
330
E1FC
100
AcDbVisualStyle
  2
Thicken
 70
    13
177
     3
291
     1
 70
    58
 90
        2
176
     1
 90
        2
176
     1
 90
        0
176
     1
 90
        0
176
     1
 40
0.6
176
     1
 40
30.0
176
     1
 62
     7
420
 16777215
176
     1
 90
        1
176
     1
 90
        4
176
     1
 62
     7
176
     1
 62
   257
176
     1
 90
        1
176
     1
 90
        1
176
     1
 40
1.0
176
     1
 90
       12
176
     1
 62
     7
176
     1
 40
1.0
176
     1
 90
        1
176
     1
 90
        6
176
     1
 90
        2
176
     1
 62
     7
176
     1
 90
        5
176
     1
 90
        0
176
     1
 90
        0
176
     1
290
     0
176
     1
 90
        1
176
     1
 40
0.0
176
     1
 90
        0
176
     1
290
     0
176
     1
290
     1
176
     1
290
     1
176
     1
290
     0
176
     1
290
     0
176
     1
290
     0
176
     1
290
     0
176
     1
290
     0
176
     1
290
     0
176
     1
 90
       50
176
     1
 40
0.0
176
     1
 40
1.0
176
     1
 90
        0
176
     1
 62
    18
420
        0
176
     1
 90
       50
176
     1
 90
        3
176
     1
 62
     5
420
      255
176
     1
290
     0
176
     1
 90
       50
176
     1
 90
       50
176
     1
 90
       50
176
     1
290
     0
176
     1
 90
       50
176
     1
 62
   256
176
     0
 40
1.0
176
     0
 90
        2
176
     1
  1
strokes_ogs.tif
176
     1
290
     0
176
     1
 40
1.0
176
     1
 40
1.0
176
     1
  0
VISUALSTYLE
  5
E202
102
{ACAD_REACTORS
330
E1FC
102
}
330
E1FC
100
AcDbVisualStyle
  2
Wireframe
 70
     5
177
     3
291
     0
 70
    58
 90
        0
176
     1
 90
        2
176
     1
 90
        0
176
     1
 90
        0
176
     1
 40
0.6
176
     1
 40
30.0
176
     1
 62
     7
420
 16777215
176
     1
 90
        1
176
     1
 90
        4
176
     1
 62
     7
176
     1
 62
   257
176
     1
 90
        1
176
     1
 90
        1
176
     1
 40
1.0
176
     1
 90
        0
176
     1
 62
   257
176
     1
 40
1.0
176
     1
 90
        1
176
     1
 90
        6
176
     1
 90
        2
176
     1
 62
     7
176
     1
 90
        3
176
     1
 90
        0
176
     1
 90
        0
176
     1
290
     0
176
     1
 90
        1
176
     1
 40
0.0
176
     1
 90
        0
176
     1
290
     0
176
     1
290
     1
176
     1
290
     1
176
     1
290
     0
176
     1
290
     0
176
     1
290
     0
176
     1
290
     0
176
     1
290
     0
176
     1
290
     0
176
     1
 90
       50
176
     1
 40
0.0
176
     1
 40
1.0
176
     1
 90
        0
176
     1
 62
    18
420
        0
176
     1
 90
       50
176
     1
 90
        3
176
     1
 62
     5
420
      255
176
     1
290
     0
176
     1
 90
       50
176
     1
 90
       50
176
     1
 90
       50
176
     1
290
     0
176
     1
 90
       50
176
     1
 62
   256
176
     0
 40
1.0
176
     0
 90
        2
176
     1
  1
strokes_ogs.tif
176
     1
290
     0
176
     1
 40
1.0
176
     1
 40
1.0
176
     1
  0
VISUALSTYLE
  5
E212
102
{ACAD_REACTORS
330
E1FC
102
}
330
E1FC
100
AcDbVisualStyle
  2
X-Ray
 70
    25
177
     3
291
     0
 70
    58
 90
        2
176
     1
 90
        2
176
     1
 90
        1
176
     1
 90
        1
176
     1
 40
0.5
176
     1
 40
30.0
176
     1
 62
     7
420
 16777215
176
     1
 90
        1
176
     1
 90
        0
176
     1
 62
     7
176
     1
 62
   257
176
     1
 90
        1
176
     1
 90
        1
176
     1
 40
1.0
176
     1
 90
        8
176
     1
 62
     7
176
     1
 40
1.0
176
     1
 90
        1
176
     1
 90
        6
176
     1
 90
        2
176
     1
 62
     7
176
     1
 90
        3
176
     1
 90
        0
176
     1
 90
        0
176
     1
290
     0
176
     1
 90
       13
176
     1
 40
0.0
176
     1
 90
        0
176
     1
290
     0
176
     1
290
     1
176
     1
290
     1
176
     1
290
     0
176
     1
290
     0
176
     1
290
     0
176
     1
290
     0
176
     1
290
     0
176
     1
290
     0
176
     1
 90
       50
176
     1
 40
0.0
176
     1
 40
1.0
176
     1
 90
        0
176
     1
 62
    18
420
        0
176
     1
 90
       50
176
     1
 90
        3
176
     1
 62
     5
420
      255
176
     1
290
     0
176
     1
 90
       50
176
     1
 90
       50
176
     1
 90
       50
176
     1
290
     0
176
     1
 90
       50
176
     1
 62
   256
176
     0
 40
1.0
176
     0
 90
        2
176
     1
  1
strokes_ogs.tif
176
     1
290
     0
176
     1
 40
1.0
176
     1
 40
1.0
176
     1
  0
DICTIONARYVAR
  5
E246
102
{ACAD_REACTORS
330
327F
102
}
330
327F
100
DictionaryVariables
280
     0
  1
1:1
  0
DICTIONARYVAR
  5
E248
102
{ACAD_REACTORS
330
327F
102
}
330
327F
100
DictionaryVariables
280
     0
  1
Standard
  0
DICTIONARYVAR
  5
E247
102
{ACAD_REACTORS
330
327F
102
}
330
327F
100
DictionaryVariables
280
     0
  1
Standard
  0
DICTIONARYVAR
  5
E249
102
{ACAD_REACTORS
330
327F
102
}
330
327F
100
DictionaryVariables
280
     0
  1
0
  0
DICTIONARYVAR
  5
3787
102
{ACAD_REACTORS
330
3784
102
}
330
3784
100
DictionaryVariables
280
     0
  1
0.261799
  0
DICTIONARYVAR
  5
3785
102
{ACAD_REACTORS
330
3784
102
}
330
3784
100
DictionaryVariables
280
     0
  1
10.000000
  0
DICTIONARYVAR
  5
3786
102
{ACAD_REACTORS
330
3784
102
}
330
3784
100
DictionaryVariables
280
     0
  1
6.000000
  0
DICTIONARYVAR
  5
3788
102
{ACAD_REACTORS
330
3784
102
}
330
3784
100
DictionaryVariables
280
     0
  1
0
  0
DICTIONARY
  5
EB06
330
E242
100
AcDbDictionary
280
     1
281
     1
  3
ACAD_ROUNDTRIP_2008_TABLESTYLE_CELLSTYLEMAP
360
EB07
  0
CELLSTYLEMAP
  5
EB07
102
{ACAD_REACTORS
330
EB06
102
}
330
EB06
100
AcDbCellStyleMap
 90
        3
300
CELLSTYLE
  1
TABLEFORMAT_BEGIN
 90
        5
170
     1
 91
        0
 92
    32768
 62
   257
 93
        1
300
CONTENTFORMAT
  1
CONTENTFORMAT_BEGIN
 90
        0
 91
        0
 92
        4
 93
        0
300

 40
0.0
140
1.0
 94
        5
 62
     0
340
11
144
6.0
309
CONTENTFORMAT_END
171
     1
301
MARGIN
  1
CELLMARGIN_BEGIN
 40
1.5
 40
1.5
 40
1.5
 40
1.5
 40
1.5
 40
1.5
309
CELLMARGIN_END
 94
        6
 95
        1
302
GRIDFORMAT
  1
GRIDFORMAT_BEGIN
 90
        0
 91
        1
 62
     0
 92
       -2
340
14
 93
        0
 40
0.045
309
GRIDFORMAT_END
 95
        2
302
GRIDFORMAT
  1
GRIDFORMAT_BEGIN
 90
        0
 91
        1
 62
     0
 92
       -2
340
14
 93
        0
 40
0.045
309
GRIDFORMAT_END
 95
        4
302
GRIDFORMAT
  1
GRIDFORMAT_BEGIN
 90
        0
 91
        1
 62
     0
 92
       -2
340
14
 93
        0
 40
0.045
309
GRIDFORMAT_END
 95
        8
302
GRIDFORMAT
  1
GRIDFORMAT_BEGIN
 90
        0
 91
        1
 62
     0
 92
       -2
340
14
 93
        0
 40
0.045
309
GRIDFORMAT_END
 95
       16
302
GRIDFORMAT
  1
GRIDFORMAT_BEGIN
 90
        0
 91
        1
 62
     0
 92
       -2
340
14
 93
        0
 40
0.045
309
GRIDFORMAT_END
 95
       32
302
GRIDFORMAT
  1
GRIDFORMAT_BEGIN
 90
        0
 91
        1
 62
     0
 92
       -2
340
14
 93
        0
 40
0.045
309
GRIDFORMAT_END
309
TABLEFORMAT_END
  1
CELLSTYLE_BEGIN
 90
        1
 91
        1
300
_TITLE
309
CELLSTYLE_END
300
CELLSTYLE
  1
TABLEFORMAT_BEGIN
 90
        5
170
     1
 91
        0
 92
        0
 62
   257
 93
        1
300
CONTENTFORMAT
  1
CONTENTFORMAT_BEGIN
 90
        0
 91
        0
 92
        4
 93
        0
300

 40
0.0
140
1.0
 94
        5
 62
     0
340
11
144
4.5
309
CONTENTFORMAT_END
171
     1
301
MARGIN
  1
CELLMARGIN_BEGIN
 40
1.5
 40
1.5
 40
1.5
 40
1.5
 40
1.5
 40
1.5
309
CELLMARGIN_END
 94
        6
 95
        1
302
GRIDFORMAT
  1
GRIDFORMAT_BEGIN
 90
        0
 91
        1
 62
     0
 92
       -2
340
14
 93
        0
 40
0.045
309
GRIDFORMAT_END
 95
        2
302
GRIDFORMAT
  1
GRIDFORMAT_BEGIN
 90
        0
 91
        1
 62
     0
 92
       -2
340
14
 93
        0
 40
0.045
309
GRIDFORMAT_END
 95
        4
302
GRIDFORMAT
  1
GRIDFORMAT_BEGIN
 90
        0
 91
        1
 62
     0
 92
       -2
340
14
 93
        0
 40
0.045
309
GRIDFORMAT_END
 95
        8
302
GRIDFORMAT
  1
GRIDFORMAT_BEGIN
 90
        0
 91
        1
 62
     0
 92
       -2
340
14
 93
        0
 40
0.045
309
GRIDFORMAT_END
 95
       16
302
GRIDFORMAT
  1
GRIDFORMAT_BEGIN
 90
        0
 91
        1
 62
     0
 92
       -2
340
14
 93
        0
 40
0.045
309
GRIDFORMAT_END
 95
       32
302
GRIDFORMAT
  1
GRIDFORMAT_BEGIN
 90
        0
 91
        1
 62
     0
 92
       -2
340
14
 93
        0
 40
0.045
309
GRIDFORMAT_END
309
TABLEFORMAT_END
  1
CELLSTYLE_BEGIN
 90
        2
 91
        1
300
_HEADER
309
CELLSTYLE_END
300
CELLSTYLE
  1
TABLEFORMAT_BEGIN
 90
        5
170
     1
 91
        0
 92
        0
 62
   257
 93
        1
300
CONTENTFORMAT
  1
CONTENTFORMAT_BEGIN
 90
        0
 91
        0
 92
        4
 93
        0
300

 40
0.0
140
1.0
 94
        2
 62
     0
340
11
144
4.5
309
CONTENTFORMAT_END
171
     1
301
MARGIN
  1
CELLMARGIN_BEGIN
 40
1.5
 40
1.5
 40
1.5
 40
1.5
 40
1.5
 40
1.5
309
CELLMARGIN_END
 94
        6
 95
        1
302
GRIDFORMAT
  1
GRIDFORMAT_BEGIN
 90
        0
 91
        1
 62
     0
 92
       -2
340
14
 93
        0
 40
0.045
309
GRIDFORMAT_END
 95
        2
302
GRIDFORMAT
  1
GRIDFORMAT_BEGIN
 90
        0
 91
        1
 62
     0
 92
       -2
340
14
 93
        0
 40
0.045
309
GRIDFORMAT_END
 95
        4
302
GRIDFORMAT
  1
GRIDFORMAT_BEGIN
 90
        0
 91
        1
 62
     0
 92
       -2
340
14
 93
        0
 40
0.045
309
GRIDFORMAT_END
 95
        8
302
GRIDFORMAT
  1
GRIDFORMAT_BEGIN
 90
        0
 91
        1
 62
     0
 92
       -2
340
14
 93
        0
 40
0.045
309
GRIDFORMAT_END
 95
       16
302
GRIDFORMAT
  1
GRIDFORMAT_BEGIN
 90
        0
 91
        1
 62
     0
 92
       -2
340
14
 93
        0
 40
0.045
309
GRIDFORMAT_END
 95
       32
302
GRIDFORMAT
  1
GRIDFORMAT_BEGIN
 90
        0
 91
        1
 62
     0
 92
       -2
340
14
 93
        0
 40
0.045
309
GRIDFORMAT_END
309
TABLEFORMAT_END
  1
CELLSTYLE_BEGIN
 90
        3
 91
        2
300
_DATA
309
CELLSTYLE_END
  0
ENDSEC
  0
EOF
