  0
SECTION
  2
HEADER
  9
$ACADVER
  1
AC1027
  9
$ACADMAINTVER
 70
   105
  9
$DWGCODEPAGE
  3
ANSI_932
  9
$REQUIREDVERSIONS
160
                 0
  9
$LASTSAVEDBY
  1
9128
  9
$INSBASE
 10
0.0
 20
0.0
 30
0.0
  9
$EXTMIN
 10
0.0
 20
0.0
 30
0.0
  9
$EXTMAX
 10
420.0
 20
297.0
 30
0.0
  9
$LIMMIN
 10
0.0
 20
0.0
  9
$LIMMAX
 10
420.0
 20
297.0
  9
$ORTHOMODE
 70
     0
  9
$REGENMODE
 70
     1
  9
$FILLMODE
 70
     1
  9
$QTEXTMODE
 70
     0
  9
$MIRRTEXT
 70
     1
  9
$LTSCALE
 40
1.0
  9
$ATTMODE
 70
     1
  9
$TEXTSIZE
 40
3.5
  9
$TRACEWID
 40
1.0
  9
$TEXTSTYLE
  7
STANDARD
  9
$CLAYER
  8
図枠
  9
$CELTYPE
  6
BYLAYER
  9
$CECOLOR
 62
     7
  9
$CELTSCALE
 40
1.0
  9
$DISPSILH
 70
     0
  9
$DIMSCALE
 40
1.0
  9
$DIMASZ
 40
3.302
  9
$DIMEXO
 40
1.0
  9
$DIMDLI
 40
3.75
  9
$DIMRND
 40
0.0
  9
$DIMDLE
 40
0.0
  9
$DIMEXE
 40
1.0
  9
$DIMTP
 40
0.0
  9
$DIMTM
 40
0.0
  9
$DIMTXT
 40
3.5
  9
$DIMCEN
 40
2.5
  9
$DIMTSZ
 40
0.0
  9
$DIMTOL
 70
     0
  9
$DIMLIM
 70
     0
  9
$DIMTIH
 70
     1
  9
$DIMTOH
 70
     1
  9
$DIMSE1
 70
     0
  9
$DIMSE2
 70
     0
  9
$DIMTAD
 70
     1
  9
$DIMZIN
 70
     0
  9
$DIMBLK
  1

  9
$DIMASO
 70
     1
  9
$DIMSHO
 70
     1
  9
$DIMPOST
  1

  9
$DIMAPOST
  1

  9
$DIMALT
 70
     0
  9
$DIMALTD
 70
     3
  9
$DIMALTF
 40
0.0393700787
  9
$DIMLFAC
 40
1.0
  9
$DIMTOFL
 70
     1
  9
$DIMTVP
 40
0.0
  9
$DIMTIX
 70
     0
  9
$DIMSOXD
 70
     0
  9
$DIMSAH
 70
     0
  9
$DIMBLK1
  1

  9
$DIMBLK2
  1

  9
$DIMSTYLE
  2
ISO-25
  9
$DIMCLRD
 70
     0
  9
$DIMCLRE
 70
     0
  9
$DIMCLRT
 70
     0
  9
$DIMTFAC
 40
1.0
  9
$DIMGAP
 40
1.524
  9
$DIMJUST
 70
     0
  9
$DIMSD1
 70
     0
  9
$DIMSD2
 70
     0
  9
$DIMTOLJ
 70
     0
  9
$DIMTZIN
 70
     0
  9
$DIMALTZ
 70
     0
  9
$DIMALTTZ
 70
     0
  9
$DIMUPT
 70
     0
  9
$DIMDEC
 70
     2
  9
$DIMTDEC
 70
     2
  9
$DIMALTU
 70
     2
  9
$DIMALTTD
 70
     3
  9
$DIMTXSTY
  7
STANDARD
  9
$DIMAUNIT
 70
     0
  9
$DIMADEC
 70
     0
  9
$DIMALTRND
 40
0.0
  9
$DIMAZIN
 70
     0
  9
$DIMDSEP
 70
    46
  9
$DIMATFIT
 70
     3
  9
$DIMFRAC
 70
     0
  9
$DIMLDRBLK
  1

  9
$DIMLUNIT
 70
     2
  9
$DIMLWD
 70
    -2
  9
$DIMLWE
 70
    -2
  9
$DIMTMOVE
 70
     0
  9
$DIMFXL
 40
1.0
  9
$DIMFXLON
 70
     0
  9
$DIMJOGANG
 40
0.7853981633974483
  9
$DIMTFILL
 70
     0
  9
$DIMTFILLCLR
 70
     0
  9
$DIMARCSYM
 70
     0
  9
$DIMLTYPE
  6

  9
$DIMLTEX1
  6

  9
$DIMLTEX2
  6

  9
$DIMTXTDIRECTION
 70
     0
  9
$LUNITS
 70
     2
  9
$LUPREC
 70
     2
  9
$SKETCHINC
 40
1.0
  9
$FILLETRAD
 40
10.0
  9
$AUNITS
 70
     0
  9
$AUPREC
 70
     2
  9
$MENU
  1
.
  9
$ELEVATION
 40
0.0
  9
$PELEVATION
 40
0.0
  9
$THICKNESS
 40
0.0
  9
$LIMCHECK
 70
     0
  9
$CHAMFERA
 40
0.0
  9
$CHAMFERB
 40
0.0
  9
$CHAMFERC
 40
0.0
  9
$CHAMFERD
 40
0.0
  9
$SKPOLY
 70
     0
  9
$TDCREATE
 40
2457711.397066366
  9
$TDUCREATE
 40
2457711.022066366
  9
$TDUPDATE
 40
2458194.669487975
  9
$TDUUPDATE
 40
2458194.294487975
  9
$TDINDWG
 40
0.2128767014
  9
$TDUSRTIMER
 40
2458194.294098218
  9
$USRTIMER
 70
     1
  9
$ANGBASE
 50
0.0
  9
$ANGDIR
 70
     0
  9
$PDMODE
 70
     0
  9
$PDSIZE
 40
-1.0
  9
$PLINEWID
 40
0.0
  9
$SPLFRAME
 70
     0
  9
$SPLINETYPE
 70
     6
  9
$SPLINESEGS
 70
     8
  9
$HANDSEED
  5
9620
  9
$SURFTAB1
 70
     6
  9
$SURFTAB2
 70
     6
  9
$SURFTYPE
 70
     6
  9
$SURFU
 70
     6
  9
$SURFV
 70
     6
  9
$UCSBASE
  2

  9
$UCSNAME
  2

  9
$UCSORG
 10
0.0
 20
0.0
 30
0.0
  9
$UCSXDIR
 10
1.0
 20
0.0
 30
0.0
  9
$UCSYDIR
 10
0.0
 20
1.0
 30
0.0
  9
$UCSORTHOREF
  2

  9
$UCSORTHOVIEW
 70
     0
  9
$UCSORGTOP
 10
0.0
 20
0.0
 30
0.0
  9
$UCSORGBOTTOM
 10
0.0
 20
0.0
 30
0.0
  9
$UCSORGLEFT
 10
0.0
 20
0.0
 30
0.0
  9
$UCSORGRIGHT
 10
0.0
 20
0.0
 30
0.0
  9
$UCSORGFRONT
 10
0.0
 20
0.0
 30
0.0
  9
$UCSORGBACK
 10
0.0
 20
0.0
 30
0.0
  9
$PUCSBASE
  2

  9
$PUCSNAME
  2

  9
$PUCSORG
 10
0.0
 20
0.0
 30
0.0
  9
$PUCSXDIR
 10
1.0
 20
0.0
 30
0.0
  9
$PUCSYDIR
 10
0.0
 20
1.0
 30
0.0
  9
$PUCSORTHOREF
  2

  9
$PUCSORTHOVIEW
 70
     0
  9
$PUCSORGTOP
 10
0.0
 20
0.0
 30
0.0
  9
$PUCSORGBOTTOM
 10
0.0
 20
0.0
 30
0.0
  9
$PUCSORGLEFT
 10
0.0
 20
0.0
 30
0.0
  9
$PUCSORGRIGHT
 10
0.0
 20
0.0
 30
0.0
  9
$PUCSORGFRONT
 10
0.0
 20
0.0
 30
0.0
  9
$PUCSORGBACK
 10
0.0
 20
0.0
 30
0.0
  9
$USERI1
 70
     0
  9
$USERI2
 70
     0
  9
$USERI3
 70
     0
  9
$USERI4
 70
     0
  9
$USERI5
 70
     0
  9
$USERR1
 40
0.0
  9
$USERR2
 40
0.0
  9
$USERR3
 40
0.0
  9
$USERR4
 40
0.0
  9
$USERR5
 40
0.0
  9
$WORLDVIEW
 70
     1
  9
$SHADEDGE
 70
     3
  9
$SHADEDIF
 70
    70
  9
$TILEMODE
 70
     1
  9
$MAXACTVP
 70
    64
  9
$PINSBASE
 10
0.0
 20
0.0
 30
0.0
  9
$PLIMCHECK
 70
     0
  9
$PEXTMIN
 10
40.5
 20
25.69999999999999
 30
0.0
  9
$PEXTMAX
 10
364.5
 20
231.3
 30
0.0
  9
$PLIMMIN
 10
0.0
 20
0.0
  9
$PLIMMAX
 10
0.0
 20
0.0
  9
$UNITMODE
 70
     0
  9
$VISRETAIN
 70
     1
  9
$PLINEGEN
 70
     0
  9
$PSLTSCALE
 70
     1
  9
$TREEDEPTH
 70
  3020
  9
$CMLSTYLE
  2
STANDARD
  9
$CMLJUST
 70
     0
  9
$CMLSCALE
 40
20.0
  9
$PROXYGRAPHICS
 70
     1
  9
$MEASUREMENT
 70
     1
  9
$CELWEIGHT
370
    -1
  9
$ENDCAPS
280
     0
  9
$JOINSTYLE
280
     0
  9
$LWDISPLAY
290
     0
  9
$INSUNITS
 70
     0
  9
$HYPERLINKBASE
  1

  9
$STYLESHEET
  1

  9
$XEDIT
290
     1
  9
$CEPSNTYPE
380
     0
  9
$PSTYLEMODE
290
     1
  9
$FINGERPRINTGUID
  2
{4772A952-AE0E-4617-A95A-48C41B7D9A10}
  9
$VERSIONGUID
  2
{FAEB1C32-E019-11D5-929B-00C0DF256EC4}
  9
$EXTNAMES
290
     1
  9
$PSVPSCALE
 40
0.0
  9
$OLESTARTUP
290
     0
  9
$SORTENTS
280
   127
  9
$INDEXCTL
280
     0
  9
$HIDETEXT
280
     1
  9
$XCLIPFRAME
280
     2
  9
$HALOGAP
280
     0
  9
$OBSCOLOR
 70
   257
  9
$OBSLTYPE
280
     0
  9
$INTERSECTIONDISPLAY
280
     0
  9
$INTERSECTIONCOLOR
 70
   257
  9
$DIMASSOC
280
     2
  9
$PROJECTNAME
  1

  9
$CAMERADISPLAY
290
     0
  9
$LENSLENGTH
 40
50.0
  9
$CAMERAHEIGHT
 40
0.0
  9
$STEPSPERSEC
 40
2.0
  9
$STEPSIZE
 40
6.0
  9
$3DDWFPREC
 40
2.0
  9
$PSOLWIDTH
 40
0.25
  9
$PSOLHEIGHT
 40
4.0
  9
$LOFTANG1
 40
1.570796326794897
  9
$LOFTANG2
 40
1.570796326794897
  9
$LOFTMAG1
 40
0.0
  9
$LOFTMAG2
 40
0.0
  9
$LOFTPARAM
 70
     7
  9
$LOFTNORMALS
280
     1
  9
$LATITUDE
 40
37.795
  9
$LONGITUDE
 40
-122.394
  9
$NORTHDIRECTION
 40
0.0
  9
$TIMEZONE
 70
 -8000
  9
$LIGHTGLYPHDISPLAY
280
     1
  9
$TILEMODELIGHTSYNCH
280
     1
  9
$SOLIDHIST
280
     0
  9
$SHOWHIST
280
     1
  9
$DWFFRAME
280
     2
  9
$DGNFRAME
280
     2
  9
$REALWORLDSCALE
290
     1
  9
$INTERFERECOLOR
 62
   256
  9
$CSHADOW
280
     0
  9
$SHADOWPLANELOCATION
 40
0.0
  0
ENDSEC
  0
SECTION
  2
CLASSES
  0
CLASS
  1
ACDBDICTIONARYWDFLT
  2
AcDbDictionaryWithDefault
  3
ObjectDBX Classes
 90
        0
 91
        5
280
     0
281
     0
  0
CLASS
  1
VISUALSTYLE
  2
AcDbVisualStyle
  3
ObjectDBX Classes
 90
     4095
 91
        5
280
     0
281
     0
  0
CLASS
  1
MATERIAL
  2
AcDbMaterial
  3
ObjectDBX Classes
 90
     1153
 91
        5
280
     0
281
     0
  0
CLASS
  1
SCALE
  2
AcDbScale
  3
ObjectDBX Classes
 90
     1153
 91
        5
280
     0
281
     0
  0
CLASS
  1
TABLESTYLE
  2
AcDbTableStyle
  3
ObjectDBX Classes
 90
     4095
 91
        5
280
     0
281
     0
  0
CLASS
  1
MLEADERSTYLE
  2
AcDbMLeaderStyle
  3
ACDB_MLEADERSTYLE_CLASS
 90
     4095
 91
        5
280
     0
281
     0
  0
CLASS
  1
SUN
  2
AcDbSun
  3
SCENEOE
 90
     1153
 91
        5
280
     0
281
     0
  0
CLASS
  1
ACDBPLACEHOLDER
  2
AcDbPlaceHolder
  3
ObjectDBX Classes
 90
        0
 91
        1
280
     0
281
     0
  0
CLASS
  1
LAYOUT
  2
AcDbLayout
  3
ObjectDBX Classes
 90
        0
 91
        1
280
     0
281
     0
  0
CLASS
  1
RASTERVARIABLES
  2
AcDbRasterVariables
  3
ISM
 90
        0
 91
        5
280
     0
281
     0
  0
CLASS
  1
DIMASSOC
  2
AcDbDimAssoc
  3
"AcDbDimAssoc|Product Desc:     AcDim ARX App For Dimension|Company:          Autodesk, Inc.|WEB Address:      www.autodesk.com"
 90
        0
 91
        5
280
     0
281
     0
  0
CLASS
  1
IMAGE
  2
AcDbRasterImage
  3
ISM
 90
      127
 91
        6
280
     0
281
     1
  0
CLASS
  1
IMAGEDEF
  2
AcDbRasterImageDef
  3
ISM
 90
        0
 91
        5
280
     0
281
     0
  0
CLASS
  1
IMAGEDEF_REACTOR
  2
AcDbRasterImageDefReactor
  3
ISM
 90
        1
 91
        5
280
     0
281
     0
  0
CLASS
  1
DICTIONARYVAR
  2
AcDbDictionaryVar
  3
ObjectDBX Classes
 90
        0
 91
        5
280
     0
281
     0
  0
CLASS
  1
ACDB_ALDIMOBJECTCONTEXTDATA_CLASS
  2
AcDbAlignedDimensionObjectContextData
  3
ObjectDBX Classes
 90
     1153
 91
        5
280
     0
281
     0
  0
CLASS
  1
LARGE_RADIAL_DIMENSION
  2
AcDbRadialDimensionLarge
  3
ObjectDBX Classes
 90
     1025
 91
        5
280
     0
281
     1
  0
CLASS
  1
XRECORD
  2
AcDbXrecord
  3
ObjectDBX Classes
 90
        0
 91
        1
280
     0
281
     0
  0
CLASS
  1
LWPOLYLINE
  2
AcDbPolyline
  3
ObjectDBX Classes
 90
        0
 91
        1
280
     0
281
     1
  0
CLASS
  1
HATCH
  2
AcDbHatch
  3
ObjectDBX Classes
 90
        0
 91
        1
280
     0
281
     1
  0
CLASS
  1
CELLSTYLEMAP
  2
AcDbCellStyleMap
  3
ObjectDBX Classes
 90
     1152
 91
        4
280
     0
281
     0
  0
ENDSEC
  0
SECTION
  2
TABLES
  0
TABLE
  2
VPORT
  5
8
330
0
100
AcDbSymbolTable
 70
     1
  0
VPORT
  5
29
330
8
100
AcDbSymbolTableRecord
100
AcDbViewportTableRecord
  2
*ACTIVE
 70
     0
 10
0.0
 20
0.0
 11
1.0
 21
1.0
 12
230.3799106163756
 22
136.8229543641351
 13
0.0
 23
0.0
 14
10.0
 24
10.0
 15
10.0
 25
10.0
 16
0.0
 26
0.0
 36
1.0
 17
0.0
 27
0.0
 37
0.0
 40
377.3151821284046
 41
1.765557163531114
 42
50.0
 43
0.0
 44
0.0
 50
0.0
 51
0.0
 71
    16
 72
  2000
 73
     1
 74
     3
 75
     0
 76
     0
 77
     0
 78
     0
281
     0
 65
     1
110
0.0
120
0.0
130
0.0
111
1.0
121
0.0
131
0.0
112
0.0
122
1.0
132
0.0
 79
     0
146
0.0
348
92CB
 60
     3
 61
     5
292
     1
282
     1
141
0.0
142
0.0
 63
   256
361
930F
  0
ENDTAB
  0
TABLE
  2
LTYPE
  5
5
330
0
100
AcDbSymbolTable
 70
     5
  0
LTYPE
  5
14
330
5
100
AcDbSymbolTableRecord
100
AcDbLinetypeTableRecord
  2
BYBLOCK
 70
     0
  3

 72
    65
 73
     0
 40
0.0
  0
LTYPE
  5
15
330
5
100
AcDbSymbolTableRecord
100
AcDbLinetypeTableRecord
  2
BYLAYER
 70
     0
  3
Solid line
 72
    65
 73
     0
 40
0.0
  0
LTYPE
  5
16
330
5
100
AcDbSymbolTableRecord
100
AcDbLinetypeTableRecord
  2
CONTINUOUS
 70
     0
  3
Solid line
 72
    65
 73
     0
 40
0.0
  0
LTYPE
  5
70
330
5
100
AcDbSymbolTableRecord
100
AcDbLinetypeTableRecord
  2
CENTER
 70
     0
  3
Center ____ _ ____ _ ____ _ ____ _ ____ _ ____
 72
    65
 73
     4
 40
10.16
 49
6.35
 74
     0
 49
-1.27
 74
     0
 49
1.27
 74
     0
 49
-1.27
 74
     0
  0
LTYPE
  5
71
330
5
100
AcDbSymbolTableRecord
100
AcDbLinetypeTableRecord
  2
CENTERX2
 70
     0
  3
Center (2x) ________  __  ________  __  _____
 72
    65
 73
     4
 40
20.32
 49
12.7
 74
     0
 49
-2.54
 74
     0
 49
2.54
 74
     0
 49
-2.54
 74
     0
  0
ENDTAB
  0
TABLE
  2
LAYER
  5
2
102
{ACAD_XDICTIONARY
360
3488
102
}
330
0
100
AcDbSymbolTable
 70
    24
  0
LAYER
  5
10
330
2
100
AcDbSymbolTableRecord
100
AcDbLayerTableRecord
  2
0
 70
     0
 62
     7
  6
CONTINUOUS
370
    -3
390
92E1
347
930A
348
0
  0
LAYER
  5
74
330
2
100
AcDbSymbolTableRecord
100
AcDbLayerTableRecord
  2
レイヤー_1
 70
     0
 62
  -179
  6
CONTINUOUS
370
    -3
390
92E1
347
930A
348
0
  0
LAYER
  5
51A
330
2
100
AcDbSymbolTableRecord
100
AcDbLayerTableRecord
  2
DEFPOINTS
 70
     4
 62
     7
  6
CONTINUOUS
290
     0
370
    -3
390
92E1
347
930A
348
0
  0
LAYER
  5
960C
330
2
100
AcDbSymbolTableRecord
100
AcDbLayerTableRecord
  2
図枠
 70
     0
 62
     7
  6
CONTINUOUS
370
    -3
390
92E1
347
930A
348
0
1001
ACAECLAYERSTANDARD
1000

1000

  0
ENDTAB
  0
TABLE
  2
STYLE
  5
3
330
0
100
AcDbSymbolTable
 70
     7
  0
STYLE
  5
11
330
3
100
AcDbSymbolTableRecord
100
AcDbTextStyleTableRecord
  2
STANDARD
 70
     0
 40
0.0
 41
1.0
 50
0.0
 71
     0
 42
3.5
  3
msgothic.ttc
  4

1001
ACAD
1000
MS PGothic
1071
        0
  0
STYLE
  5
33F
330
3
100
AcDbSymbolTableRecord
100
AcDbTextStyleTableRecord
  2
SLDTEXTSTYLE0
 70
     0
 40
0.0
 41
0.75
 50
0.0
 71
     0
 42
3.5
  3
TXT
  4
bigfont
  0
STYLE
  5
35D
330
3
100
AcDbSymbolTableRecord
100
AcDbTextStyleTableRecord
  2
SLDTEXTSTYLE1
 70
     0
 40
0.0
 41
0.7
 50
0.0
 71
     0
 42
3.5
  3
TXT
  4
bigfont
  0
STYLE
  5
35F
330
3
100
AcDbSymbolTableRecord
100
AcDbTextStyleTableRecord
  2
SLDTEXTSTYLE2
 70
     0
 40
0.0
 41
0.605
 50
0.0
 71
     0
 42
3.5
  3
TXT
  4
bigfont
  0
STYLE
  5
84A8
330
3
100
AcDbSymbolTableRecord
100
AcDbTextStyleTableRecord
  2
MDRAFSTD
 70
     0
 40
0.0
 41
1.0
 50
0.0
 71
     0
 42
3.5
  3
TXT
  4
BIGFONT
  0
STYLE
  5
8F7A
330
3
100
AcDbSymbolTableRecord
100
AcDbTextStyleTableRecord
  2
STANDARD2
 70
     0
 40
0.0
 41
1.0
 50
0.0
 71
     0
 42
3.5
  3
msgothic.ttc
  4

1001
ACAD
1000
MS PGothic
1071
        0
  0
STYLE
  5
91C4
330
3
100
AcDbSymbolTableRecord
100
AcDbTextStyleTableRecord
  2
ＭＳ_Ｐゴシック
 70
     0
 40
0.0
 41
1.0
 50
0.0
 71
     0
 42
3.5
  3
msgothic.ttc
  4
ＭＳ Ｐゴシック
1001
ACAD
1000
ＭＳ Ｐゴシック
1071
        0
  0
ENDTAB
  0
TABLE
  2
VIEW
  5
6
330
0
100
AcDbSymbolTable
 70
     0
  0
ENDTAB
  0
TABLE
  2
UCS
  5
7
330
0
100
AcDbSymbolTable
 70
     0
  0
ENDTAB
  0
TABLE
  2
APPID
  5
9
330
0
100
AcDbSymbolTable
 70
     7
  0
APPID
  5
12
330
9
100
AcDbSymbolTableRecord
100
AcDbRegAppTableRecord
  2
ACAD
 70
     0
  0
APPID
  5
3289
330
9
100
AcDbSymbolTableRecord
100
AcDbRegAppTableRecord
  2
ACAECLAYERSTANDARD
 70
     0
  0
APPID
  5
36A2
330
9
100
AcDbSymbolTableRecord
100
AcDbRegAppTableRecord
  2
ACADANNOTATIVE
 70
     0
  0
APPID
  5
3793
330
9
100
AcDbSymbolTableRecord
100
AcDbRegAppTableRecord
  2
ACAD_DSTYLE_DIMRADIAL_EXTE
 70
     0
  0
APPID
  5
8F27
330
9
100
AcDbSymbolTableRecord
100
AcDbRegAppTableRecord
  2
ACAD_SPLINE_DATA
 70
     0
  0
APPID
  5
8F28
330
9
100
AcDbSymbolTableRecord
100
AcDbRegAppTableRecord
  2
ACAD_SPLINE_DATA2
 70
     0
  0
APPID
  5
91C3
330
9
100
AcDbSymbolTableRecord
100
AcDbRegAppTableRecord
  2
PLOTTRANSPARENCY
 70
     0
  0
ENDTAB
  0
TABLE
  2
DIMSTYLE
  5
A
330
0
100
AcDbSymbolTable
 70
     5
100
AcDbDimStyleTable
  0
DIMSTYLE
105
27
102
{ACAD_REACTORS
330
9230
102
}
330
A
100
AcDbSymbolTableRecord
100
AcDbDimStyleTableRecord
  2
ISO-25
 70
     0
 41
2.5
 42
0.625
 43
3.75
 44
1.25
 73
     0
 74
     0
 77
     1
 78
     8
140
2.5
141
2.5
143
0.0393700787
147
0.625
171
     3
172
     1
178
     0
271
     2
272
     2
274
     3
283
     0
284
     8
340
11
  0
DIMSTYLE
105
3B1
102
{ACAD_REACTORS
330
8EBA
102
}
330
A
100
AcDbSymbolTableRecord
100
AcDbDimStyleTableRecord
  2
SLDDIMSTYLE0
 70
     0
 41
3.0
 44
0.0
 45
0.000000001
 73
     0
 74
     0
 77
     3
 78
    12
140
3.5
144
2.0
147
0.875
173
     1
178
     0
271
     1
272
     1
284
    12
340
33F
341
3B3
343
3B3
344
3B3
  0
DIMSTYLE
105
935
330
A
100
AcDbSymbolTableRecord
100
AcDbDimStyleTableRecord
  2
STANDARD
 70
     0
178
     0
340
11
  0
DIMSTYLE
105
328C
102
{ACAD_REACTORS
330
93BB
102
}
330
A
100
AcDbSymbolTableRecord
100
AcDbDimStyleTableRecord
  2
JIS-1
 70
     0
 41
2.5
 42
0.625
 43
3.75
 44
1.25
 73
     0
 74
     0
 77
     1
 78
     8
140
2.5
141
2.5
143
0.03937007874016
147
0.625
171
     3
172
     1
178
     0
271
     2
272
     2
274
     3
283
     0
284
     8
340
11
341
328E
342
328E
  0
DIMSTYLE
105
8D89
102
{ACAD_REACTORS
330
8EBD
102
}
330
A
100
AcDbSymbolTableRecord
100
AcDbDimStyleTableRecord
  2
SLDDIMSTYLE1
 70
     0
 41
3.302
 44
0.0
 45
0.000000001
 73
     0
 74
     0
 77
     3
 78
    12
140
3.5
141
0.0
147
0.875
172
     1
173
     1
178
     0
271
     2
272
     2
284
    12
340
33F
341
3B3
343
3B3
344
3B3
  0
ENDTAB
  0
TABLE
  2
BLOCK_RECORD
  5
1
330
0
100
AcDbSymbolTable
 70
   487
  0
BLOCK_RECORD
  5
1F
330
1
100
AcDbSymbolTableRecord
100
AcDbBlockTableRecord
  2
*MODEL_SPACE
340
9305
 70
     0
280
     1
281
     0
  0
BLOCK_RECORD
  5
1B
330
1
100
AcDbSymbolTableRecord
100
AcDbBlockTableRecord
  2
*PAPER_SPACE
340
9306
 70
     0
280
     1
281
     0
  0
BLOCK_RECORD
  5
383
330
1
100
AcDbSymbolTableRecord
100
AcDbBlockTableRecord
  2
SW_NOTE_0
340
0
102
{BLKREFS
331
8C24
102
}
 70
     0
280
     1
281
     0
  0
BLOCK_RECORD
  5
3B3
330
1
100
AcDbSymbolTableRecord
100
AcDbBlockTableRecord
  2
_OPEN30
340
0
102
{BLKREFS
331
8EC5
331
8EC6
331
8ED0
102
}
 70
     0
280
     1
281
     0
  0
BLOCK_RECORD
  5
328E
330
1
100
AcDbSymbolTableRecord
100
AcDbBlockTableRecord
  2
_OPEN
340
0
102
{BLKREFS
331
93C4
331
93C5
102
}
 70
     0
280
     1
281
     0
  0
BLOCK_RECORD
  5
7DFF
330
1
100
AcDbSymbolTableRecord
100
AcDbBlockTableRecord
  2
SW_CENTERMARKSYMBOL_0
340
0
102
{BLKREFS
331
8EBE
102
}
 70
     0
280
     1
281
     0
  0
BLOCK_RECORD
  5
80DA
330
1
100
AcDbSymbolTableRecord
100
AcDbBlockTableRecord
  2
SW_CENTERMARKSYMBOL_1
340
0
 70
     0
280
     1
281
     0
  0
BLOCK_RECORD
  5
80E6
330
1
100
AcDbSymbolTableRecord
100
AcDbBlockTableRecord
  2
SW_CENTERMARKSYMBOL_2
340
0
 70
     0
280
     1
281
     0
  0
BLOCK_RECORD
  5
80F2
330
1
100
AcDbSymbolTableRecord
100
AcDbBlockTableRecord
  2
SW_CENTERMARKSYMBOL_3
340
0
 70
     0
280
     1
281
     0
  0
BLOCK_RECORD
  5
80FE
330
1
100
AcDbSymbolTableRecord
100
AcDbBlockTableRecord
  2
SW_CENTERMARKSYMBOL_4
340
0
 70
     0
280
     1
281
     0
  0
BLOCK_RECORD
  5
810A
330
1
100
AcDbSymbolTableRecord
100
AcDbBlockTableRecord
  2
SW_CENTERMARKSYMBOL_5
340
0
 70
     0
280
     1
281
     0
  0
BLOCK_RECORD
  5
8116
330
1
100
AcDbSymbolTableRecord
100
AcDbBlockTableRecord
  2
SW_CENTERMARKSYMBOL_6
340
0
 70
     0
280
     1
281
     0
  0
BLOCK_RECORD
  5
8EBF
330
1
100
AcDbSymbolTableRecord
100
AcDbBlockTableRecord
  2
*D478
340
0
 70
     0
280
     1
281
     0
  0
BLOCK_RECORD
  5
8ECB
330
1
100
AcDbSymbolTableRecord
100
AcDbBlockTableRecord
  2
*D479
340
0
 70
     0
280
     1
281
     0
  0
BLOCK_RECORD
  5
93BE
330
1
100
AcDbSymbolTableRecord
100
AcDbBlockTableRecord
  2
*D486
340
0
 70
     0
280
     1
281
     0
  0
ENDTAB
  0
ENDSEC
  0
SECTION
  2
BLOCKS
  0
BLOCK
  5
20
330
1F
100
AcDbEntity
  8
0
100
AcDbBlockBegin
  2
*MODEL_SPACE
 70
     0
 10
0.0
 20
0.0
 30
0.0
  3
*MODEL_SPACE
  1

  0
ENDBLK
  5
21
330
1F
100
AcDbEntity
  8
0
100
AcDbBlockEnd
  0
BLOCK
  5
1C
330
1B
100
AcDbEntity
 67
     1
  8
0
100
AcDbBlockBegin
  2
*PAPER_SPACE
 70
     0
 10
0.0
 20
0.0
 30
0.0
  3
*PAPER_SPACE
  1

  0
ENDBLK
  5
1D
330
1B
100
AcDbEntity
 67
     1
  8
0
100
AcDbBlockEnd
  0
BLOCK
  5
384
330
383
100
AcDbEntity
  8
0
100
AcDbBlockBegin
  2
SW_NOTE_0
 70
     0
 10
0.0
 20
0.0
 30
0.0
  3
SW_NOTE_0
  1

  0
MTEXT
  5
386
330
383
100
AcDbEntity
  8
0
  6
Continuous
 62
     0
100
AcDbMText
 10
12.2369791667
 20
3.4106583948
 30
0.0
 40
2.6458333333
 41
0.0
 46
0.0
 71
     3
 72
     1
  1
角度公差
  7
SLDTEXTSTYLE1
 73
     1
 44
1.0
  0
MTEXT
  5
387
330
383
100
AcDbEntity
  8
0
  6
Continuous
 62
     0
100
AcDbMText
 10
13.4594520976
 20
-0.1171193403
 30
0.0
 40
2.6458333333
 41
0.0
 46
0.0
 71
     3
 72
     1
  1
(°)
  7
SLDTEXTSTYLE1
 73
     1
 44
1.0
  0
ENDBLK
  5
385
330
383
100
AcDbEntity
  8
0
100
AcDbBlockEnd
  0
BLOCK
  5
3B4
330
3B3
100
AcDbEntity
  8
0
100
AcDbBlockBegin
  2
_OPEN30
 70
     0
 10
0.0
 20
0.0
 30
0.0
  3
_OPEN30
  1

  0
LINE
  5
3B5
330
3B3
100
AcDbEntity
  8
0
  6
ByBlock
 62
     0
100
AcDbLine
 10
-1.0
 20
0.267949
 30
0.0
 11
0.0
 21
0.0
 31
0.0
  0
LINE
  5
3B6
330
3B3
100
AcDbEntity
  8
0
  6
ByBlock
 62
     0
100
AcDbLine
 10
0.0
 20
0.0
 30
0.0
 11
-1.0
 21
-0.267949
 31
0.0
  0
LINE
  5
3B7
330
3B3
100
AcDbEntity
  8
0
  6
ByBlock
 62
     0
100
AcDbLine
 10
0.0
 20
0.0
 30
0.0
 11
-1.0
 21
0.0
 31
0.0
  0
ENDBLK
  5
3B8
330
3B3
100
AcDbEntity
  8
0
100
AcDbBlockEnd
  0
BLOCK
  5
328F
330
328E
100
AcDbEntity
  8
0
100
AcDbBlockBegin
  2
_OPEN
 70
     0
 10
0.0
 20
0.0
 30
0.0
  3
_OPEN
  1

  0
LINE
  5
3290
330
328E
100
AcDbEntity
  8
0
  6
ByBlock
 62
     0
100
AcDbLine
 10
-1.0
 20
0.166667
 30
0.0
 11
0.0
 21
0.0
 31
0.0
  0
LINE
  5
3291
330
328E
100
AcDbEntity
  8
0
  6
ByBlock
 62
     0
100
AcDbLine
 10
-1.0
 20
-0.166667
 30
0.0
 11
0.0
 21
0.0
 31
0.0
  0
LINE
  5
3292
330
328E
100
AcDbEntity
  8
0
  6
ByBlock
 62
     0
100
AcDbLine
 10
0.0
 20
0.0
 30
0.0
 11
-1.0
 21
0.0
 31
0.0
  0
ENDBLK
  5
3293
330
328E
100
AcDbEntity
  8
0
100
AcDbBlockEnd
  0
BLOCK
  5
7E00
330
7DFF
100
AcDbEntity
  8
0
100
AcDbBlockBegin
  2
SW_CENTERMARKSYMBOL_0
 70
     0
 10
0.0
 20
0.0
 30
0.0
  3
SW_CENTERMARKSYMBOL_0
  1

  0
LINE
  5
7E01
330
7DFF
100
AcDbEntity
  8
レイヤー_1
 62
     0
100
AcDbLine
 10
0.0
 20
0.0
 30
0.0
 11
0.0
 21
2.5
 31
0.0
  0
LINE
  5
7E02
330
7DFF
100
AcDbEntity
  8
レイヤー_1
 62
     0
100
AcDbLine
 10
0.0
 20
0.0
 30
0.0
 11
-2.5
 21
0.0
 31
0.0
  0
LINE
  5
7E03
330
7DFF
100
AcDbEntity
  8
レイヤー_1
 62
     0
100
AcDbLine
 10
0.0
 20
0.0
 30
0.0
 11
0.0
 21
-2.5
 31
0.0
  0
LINE
  5
7E04
330
7DFF
100
AcDbEntity
  8
レイヤー_1
 62
     0
100
AcDbLine
 10
0.0
 20
0.0
 30
0.0
 11
2.5
 21
0.0
 31
0.0
  0
LINE
  5
7E05
330
7DFF
100
AcDbEntity
  8
レイヤー_1
 62
     0
100
AcDbLine
 10
0.0
 20
2.5
 30
0.0
 11
0.0
 21
4.9
 31
0.0
  0
LINE
  5
7E06
330
7DFF
100
AcDbEntity
  8
レイヤー_1
 62
     0
100
AcDbLine
 10
-2.5
 20
0.0
 30
0.0
 11
-4.9
 21
0.0
 31
0.0
  0
LINE
  5
7E07
330
7DFF
100
AcDbEntity
  8
レイヤー_1
 62
     0
100
AcDbLine
 10
0.0
 20
-2.5
 30
0.0
 11
0.0
 21
-4.9
 31
0.0
  0
LINE
  5
7E08
330
7DFF
100
AcDbEntity
  8
レイヤー_1
 62
     0
100
AcDbLine
 10
2.5
 20
0.0
 30
0.0
 11
4.9
 21
0.0
 31
0.0
  0
ENDBLK
  5
7E09
330
7DFF
100
AcDbEntity
  8
0
100
AcDbBlockEnd
  0
BLOCK
  5
80DB
330
80DA
100
AcDbEntity
  8
0
100
AcDbBlockBegin
  2
SW_CENTERMARKSYMBOL_1
 70
     0
 10
0.0
 20
0.0
 30
0.0
  3
SW_CENTERMARKSYMBOL_1
  1

  0
LINE
  5
80DC
330
80DA
100
AcDbEntity
  8
レイヤー_1
 62
     0
100
AcDbLine
 10
0.0
 20
0.0
 30
0.0
 11
0.0
 21
2.5
 31
0.0
  0
LINE
  5
80DD
330
80DA
100
AcDbEntity
  8
レイヤー_1
 62
     0
100
AcDbLine
 10
0.0
 20
0.0
 30
0.0
 11
-2.5
 21
0.0
 31
0.0
  0
LINE
  5
80DE
330
80DA
100
AcDbEntity
  8
レイヤー_1
 62
     0
100
AcDbLine
 10
0.0
 20
0.0
 30
0.0
 11
0.0
 21
-2.5
 31
0.0
  0
LINE
  5
80DF
330
80DA
100
AcDbEntity
  8
レイヤー_1
 62
     0
100
AcDbLine
 10
0.0
 20
0.0
 30
0.0
 11
2.5
 21
0.0
 31
0.0
  0
LINE
  5
80E0
330
80DA
100
AcDbEntity
  8
レイヤー_1
 62
     0
100
AcDbLine
 10
0.0
 20
5.0
 30
0.0
 11
0.0
 21
14.0
 31
0.0
  0
LINE
  5
80E1
330
80DA
100
AcDbEntity
  8
レイヤー_1
 62
     0
100
AcDbLine
 10
-5.0
 20
0.0
 30
0.0
 11
-14.0
 21
0.0
 31
0.0
  0
LINE
  5
80E2
330
80DA
100
AcDbEntity
  8
レイヤー_1
 62
     0
100
AcDbLine
 10
0.0
 20
-5.0
 30
0.0
 11
0.0
 21
-14.0
 31
0.0
  0
LINE
  5
80E3
330
80DA
100
AcDbEntity
  8
レイヤー_1
 62
     0
100
AcDbLine
 10
5.0
 20
0.0
 30
0.0
 11
14.0
 21
0.0
 31
0.0
  0
ENDBLK
  5
80E4
330
80DA
100
AcDbEntity
  8
0
100
AcDbBlockEnd
  0
BLOCK
  5
80E7
330
80E6
100
AcDbEntity
  8
0
100
AcDbBlockBegin
  2
SW_CENTERMARKSYMBOL_2
 70
     0
 10
0.0
 20
0.0
 30
0.0
  3
SW_CENTERMARKSYMBOL_2
  1

  0
LINE
  5
80E8
330
80E6
100
AcDbEntity
  8
レイヤー_1
 62
     0
100
AcDbLine
 10
0.0
 20
0.0
 30
0.0
 11
0.0
 21
2.5
 31
0.0
  0
LINE
  5
80E9
330
80E6
100
AcDbEntity
  8
レイヤー_1
 62
     0
100
AcDbLine
 10
0.0
 20
0.0
 30
0.0
 11
-2.5
 21
0.0
 31
0.0
  0
LINE
  5
80EA
330
80E6
100
AcDbEntity
  8
レイヤー_1
 62
     0
100
AcDbLine
 10
0.0
 20
0.0
 30
0.0
 11
0.0
 21
-2.5
 31
0.0
  0
LINE
  5
80EB
330
80E6
100
AcDbEntity
  8
レイヤー_1
 62
     0
100
AcDbLine
 10
0.0
 20
0.0
 30
0.0
 11
2.5
 21
0.0
 31
0.0
  0
LINE
  5
80EC
330
80E6
100
AcDbEntity
  8
レイヤー_1
 62
     0
100
AcDbLine
 10
0.0
 20
5.0
 30
0.0
 11
0.0
 21
6.9
 31
0.0
  0
LINE
  5
80ED
330
80E6
100
AcDbEntity
  8
レイヤー_1
 62
     0
100
AcDbLine
 10
-5.0
 20
0.0
 30
0.0
 11
-6.9
 21
0.0
 31
0.0
  0
LINE
  5
80EE
330
80E6
100
AcDbEntity
  8
レイヤー_1
 62
     0
100
AcDbLine
 10
0.0
 20
-5.0
 30
0.0
 11
0.0
 21
-6.9
 31
0.0
  0
LINE
  5
80EF
330
80E6
100
AcDbEntity
  8
レイヤー_1
 62
     0
100
AcDbLine
 10
5.0
 20
0.0
 30
0.0
 11
6.9
 21
0.0
 31
0.0
  0
ENDBLK
  5
80F0
330
80E6
100
AcDbEntity
  8
0
100
AcDbBlockEnd
  0
BLOCK
  5
80F3
330
80F2
100
AcDbEntity
  8
0
100
AcDbBlockBegin
  2
SW_CENTERMARKSYMBOL_3
 70
     0
 10
0.0
 20
0.0
 30
0.0
  3
SW_CENTERMARKSYMBOL_3
  1

  0
LINE
  5
80F4
330
80F2
100
AcDbEntity
  8
レイヤー_1
 62
     0
100
AcDbLine
 10
0.0
 20
0.0
 30
0.0
 11
0.0
 21
2.5
 31
0.0
  0
LINE
  5
80F5
330
80F2
100
AcDbEntity
  8
レイヤー_1
 62
     0
100
AcDbLine
 10
0.0
 20
0.0
 30
0.0
 11
-2.5
 21
0.0
 31
0.0
  0
LINE
  5
80F6
330
80F2
100
AcDbEntity
  8
レイヤー_1
 62
     0
100
AcDbLine
 10
0.0
 20
0.0
 30
0.0
 11
0.0
 21
-2.5
 31
0.0
  0
LINE
  5
80F7
330
80F2
100
AcDbEntity
  8
レイヤー_1
 62
     0
100
AcDbLine
 10
0.0
 20
0.0
 30
0.0
 11
2.5
 21
0.0
 31
0.0
  0
LINE
  5
80F8
330
80F2
100
AcDbEntity
  8
レイヤー_1
 62
     0
100
AcDbLine
 10
0.0
 20
5.0
 30
0.0
 11
0.0
 21
15.0
 31
0.0
  0
LINE
  5
80F9
330
80F2
100
AcDbEntity
  8
レイヤー_1
 62
     0
100
AcDbLine
 10
-5.0
 20
0.0
 30
0.0
 11
-15.0
 21
0.0
 31
0.0
  0
LINE
  5
80FA
330
80F2
100
AcDbEntity
  8
レイヤー_1
 62
     0
100
AcDbLine
 10
0.0
 20
-5.0
 30
0.0
 11
0.0
 21
-15.0
 31
0.0
  0
LINE
  5
80FB
330
80F2
100
AcDbEntity
  8
レイヤー_1
 62
     0
100
AcDbLine
 10
5.0
 20
0.0
 30
0.0
 11
15.0
 21
0.0
 31
0.0
  0
ENDBLK
  5
80FC
330
80F2
100
AcDbEntity
  8
0
100
AcDbBlockEnd
  0
BLOCK
  5
80FF
330
80FE
100
AcDbEntity
  8
0
100
AcDbBlockBegin
  2
SW_CENTERMARKSYMBOL_4
 70
     0
 10
0.0
 20
0.0
 30
0.0
  3
SW_CENTERMARKSYMBOL_4
  1

  0
LINE
  5
8100
330
80FE
100
AcDbEntity
  8
レイヤー_1
 62
     0
100
AcDbLine
 10
0.0
 20
0.0
 30
0.0
 11
0.0
 21
2.5
 31
0.0
  0
LINE
  5
8101
330
80FE
100
AcDbEntity
  8
レイヤー_1
 62
     0
100
AcDbLine
 10
0.0
 20
0.0
 30
0.0
 11
-2.5
 21
0.0
 31
0.0
  0
LINE
  5
8102
330
80FE
100
AcDbEntity
  8
レイヤー_1
 62
     0
100
AcDbLine
 10
0.0
 20
0.0
 30
0.0
 11
0.0
 21
-2.5
 31
0.0
  0
LINE
  5
8103
330
80FE
100
AcDbEntity
  8
レイヤー_1
 62
     0
100
AcDbLine
 10
0.0
 20
0.0
 30
0.0
 11
2.5
 21
0.0
 31
0.0
  0
LINE
  5
8104
330
80FE
100
AcDbEntity
  8
レイヤー_1
 62
     0
100
AcDbLine
 10
0.0
 20
5.0
 30
0.0
 11
0.0
 21
6.4
 31
0.0
  0
LINE
  5
8105
330
80FE
100
AcDbEntity
  8
レイヤー_1
 62
     0
100
AcDbLine
 10
-5.0
 20
0.0
 30
0.0
 11
-6.4
 21
0.0
 31
0.0
  0
LINE
  5
8106
330
80FE
100
AcDbEntity
  8
レイヤー_1
 62
     0
100
AcDbLine
 10
0.0
 20
-5.0
 30
0.0
 11
0.0
 21
-6.4
 31
0.0
  0
LINE
  5
8107
330
80FE
100
AcDbEntity
  8
レイヤー_1
 62
     0
100
AcDbLine
 10
5.0
 20
0.0
 30
0.0
 11
6.4
 21
0.0
 31
0.0
  0
ENDBLK
  5
8108
330
80FE
100
AcDbEntity
  8
0
100
AcDbBlockEnd
  0
BLOCK
  5
810B
330
810A
100
AcDbEntity
  8
0
100
AcDbBlockBegin
  2
SW_CENTERMARKSYMBOL_5
 70
     0
 10
0.0
 20
0.0
 30
0.0
  3
SW_CENTERMARKSYMBOL_5
  1

  0
LINE
  5
810C
330
810A
100
AcDbEntity
  8
レイヤー_1
 62
     0
100
AcDbLine
 10
0.0
 20
0.0
 30
0.0
 11
0.0
 21
2.5
 31
0.0
  0
LINE
  5
810D
330
810A
100
AcDbEntity
  8
レイヤー_1
 62
     0
100
AcDbLine
 10
0.0
 20
0.0
 30
0.0
 11
-2.5
 21
0.0
 31
0.0
  0
LINE
  5
810E
330
810A
100
AcDbEntity
  8
レイヤー_1
 62
     0
100
AcDbLine
 10
0.0
 20
0.0
 30
0.0
 11
0.0
 21
-2.5
 31
0.0
  0
LINE
  5
810F
330
810A
100
AcDbEntity
  8
レイヤー_1
 62
     0
100
AcDbLine
 10
0.0
 20
0.0
 30
0.0
 11
2.5
 21
0.0
 31
0.0
  0
LINE
  5
8110
330
810A
100
AcDbEntity
  8
レイヤー_1
 62
     0
100
AcDbLine
 10
0.0
 20
5.0
 30
0.0
 11
0.0
 21
6.4
 31
0.0
  0
LINE
  5
8111
330
810A
100
AcDbEntity
  8
レイヤー_1
 62
     0
100
AcDbLine
 10
-5.0
 20
0.0
 30
0.0
 11
-6.4
 21
0.0
 31
0.0
  0
LINE
  5
8112
330
810A
100
AcDbEntity
  8
レイヤー_1
 62
     0
100
AcDbLine
 10
0.0
 20
-5.0
 30
0.0
 11
0.0
 21
-6.4
 31
0.0
  0
LINE
  5
8113
330
810A
100
AcDbEntity
  8
レイヤー_1
 62
     0
100
AcDbLine
 10
5.0
 20
0.0
 30
0.0
 11
6.4
 21
0.0
 31
0.0
  0
ENDBLK
  5
8114
330
810A
100
AcDbEntity
  8
0
100
AcDbBlockEnd
  0
BLOCK
  5
8117
330
8116
100
AcDbEntity
  8
0
100
AcDbBlockBegin
  2
SW_CENTERMARKSYMBOL_6
 70
     0
 10
0.0
 20
0.0
 30
0.0
  3
SW_CENTERMARKSYMBOL_6
  1

  0
LINE
  5
8118
330
8116
100
AcDbEntity
  8
レイヤー_1
 62
     0
100
AcDbLine
 10
0.0
 20
0.0
 30
0.0
 11
0.0
 21
2.5
 31
0.0
  0
LINE
  5
8119
330
8116
100
AcDbEntity
  8
レイヤー_1
 62
     0
100
AcDbLine
 10
0.0
 20
0.0
 30
0.0
 11
-2.5
 21
0.0
 31
0.0
  0
LINE
  5
811A
330
8116
100
AcDbEntity
  8
レイヤー_1
 62
     0
100
AcDbLine
 10
0.0
 20
0.0
 30
0.0
 11
0.0
 21
-2.5
 31
0.0
  0
LINE
  5
811B
330
8116
100
AcDbEntity
  8
レイヤー_1
 62
     0
100
AcDbLine
 10
0.0
 20
0.0
 30
0.0
 11
2.5
 21
0.0
 31
0.0
  0
LINE
  5
811C
330
8116
100
AcDbEntity
  8
レイヤー_1
 62
     0
100
AcDbLine
 10
0.0
 20
5.0
 30
0.0
 11
0.0
 21
6.9
 31
0.0
  0
LINE
  5
811D
330
8116
100
AcDbEntity
  8
レイヤー_1
 62
     0
100
AcDbLine
 10
-5.0
 20
0.0
 30
0.0
 11
-6.9
 21
0.0
 31
0.0
  0
LINE
  5
811E
330
8116
100
AcDbEntity
  8
レイヤー_1
 62
     0
100
AcDbLine
 10
0.0
 20
-5.0
 30
0.0
 11
0.0
 21
-6.9
 31
0.0
  0
LINE
  5
811F
330
8116
100
AcDbEntity
  8
レイヤー_1
 62
     0
100
AcDbLine
 10
5.0
 20
0.0
 30
0.0
 11
6.9
 21
0.0
 31
0.0
  0
ENDBLK
  5
8120
330
8116
100
AcDbEntity
  8
0
100
AcDbBlockEnd
  0
BLOCK
  5
8EC0
330
8EBF
100
AcDbEntity
  8
0
100
AcDbBlockBegin
  2
*D478
 70
     1
 10
0.0
 20
0.0
 30
0.0
  3
*D478
  1

  0
LINE
  5
8EC2
330
8EBF
100
AcDbEntity
  8
レイヤー_1
 62
     0
100
AcDbLine
 10
132.0763417786472
 20
189.4982410911913
 30
0.0
 11
132.0763417786472
 21
157.0607410911913
 31
0.0
  0
LINE
  5
8EC3
330
8EBF
100
AcDbEntity
  8
レイヤー_1
 62
     0
100
AcDbLine
 10
220.0763417786472
 20
189.4982410911913
 30
0.0
 11
220.0763417786472
 21
157.0607410911913
 31
0.0
  0
LINE
  5
8EC4
330
8EBF
100
AcDbEntity
  8
レイヤー_1
 62
     0
100
AcDbLine
 10
135.0763417786472
 20
157.0607410911913
 30
0.0
 11
217.0763417786472
 21
157.0607410911913
 31
0.0
  0
INSERT
  5
8EC5
330
8EBF
100
AcDbEntity
  8
レイヤー_1
 62
     0
100
AcDbBlockReference
  2
_OPEN30
 10
132.0763417786472
 20
157.0607410911913
 30
0.0
 41
3.0
 42
3.0
 43
3.0
 50
180.0
  0
INSERT
  5
8EC6
330
8EBF
100
AcDbEntity
  8
レイヤー_1
 62
     0
100
AcDbBlockReference
  2
_OPEN30
 10
220.0763417786472
 20
157.0607410911913
 30
0.0
 41
3.0
 42
3.0
 43
3.0
  0
MTEXT
  5
8EC7
330
8EBF
100
AcDbEntity
  8
レイヤー_1
 62
     0
100
AcDbMText
 10
175.9164873800472
 20
159.6857410911913
 30
0.0
 40
3.5
 41
0.0
 46
0.0
 71
     5
 72
     1
  1
\A1;176
  7
SLDTEXTSTYLE0
 73
     1
 44
1.0
  0
POINT
  5
8EC8
330
8EBF
100
AcDbEntity
  8
DEFPOINTS
 62
     0
100
AcDbPoint
 10
132.0763417786472
 20
189.5607410911913
 30
0.0
  0
POINT
  5
8EC9
330
8EBF
100
AcDbEntity
  8
DEFPOINTS
 62
     0
100
AcDbPoint
 10
220.0763417786472
 20
189.5607410911913
 30
0.0
  0
POINT
  5
8ECA
330
8EBF
100
AcDbEntity
  8
DEFPOINTS
 62
     0
100
AcDbPoint
 10
220.0763417786472
 20
157.0607410911913
 30
0.0
  0
ENDBLK
  5
8EC1
330
8EBF
100
AcDbEntity
  8
0
100
AcDbBlockEnd
  0
BLOCK
  5
8ECC
330
8ECB
100
AcDbEntity
  8
0
100
AcDbBlockBegin
  2
*D479
 70
     1
 10
0.0
 20
0.0
 30
0.0
  3
*D479
  1

  0
LINE
  5
8ECE
330
8ECB
100
AcDbEntity
  8
レイヤー_1
 62
     0
100
AcDbLine
 10
296.2619407892857
 20
203.0868473667488
 30
0.0
 11
270.3858756210701
 21
177.3963157051156
 31
0.0
  0
MTEXT
  5
8ECF
330
8ECB
100
AcDbEntity
  8
レイヤー_1
 62
     0
100
AcDbMText
 10
271.6411132565244
 20
182.341578941642
 30
0.0
 40
3.5
 41
0.0
 46
0.0
 71
     5
 72
     1
  1
\A1;%%c45
  7
SLDTEXTSTYLE0
 11
0.7096463155243977
 21
0.7045580933199527
 31
0.0
 73
     1
 44
1.0
  0
INSERT
  5
8ED0
330
8ECB
100
AcDbEntity
  8
レイヤー_1
 62
     0
100
AcDbBlockReference
  2
_OPEN30
 10
298.6051929231473
 20
205.4132981908913
 30
0.0
 41
3.302
 42
3.302
 43
3.302
 50
44.7938541290483
  0
POINT
  5
8ED1
330
8ECB
100
AcDbEntity
  8
DEFPOINTS
 62
     0
100
AcDbPoint
 10
298.6051929231473
 20
205.4132981908913
 30
0.0
  0
POINT
  5
8ED2
330
8ECB
100
AcDbEntity
  8
DEFPOINTS
 62
     0
100
AcDbPoint
 10
266.6711087245473
 20
173.7081839914913
 30
0.0
  0
ENDBLK
  5
8ECD
330
8ECB
100
AcDbEntity
  8
0
100
AcDbBlockEnd
  0
BLOCK
  5
93BF
330
93BE
100
AcDbEntity
  8
0
100
AcDbBlockBegin
  2
*D486
 70
     1
 10
0.0
 20
0.0
 30
0.0
  3
*D486
  1

  0
LINE
  5
93C1
330
93BE
100
AcDbEntity
  8
0
 62
     0
370
    -2
100
AcDbLine
 10
133.08
 20
190.1857410911913
 30
0.0
 11
133.08
 21
221.2423858557148
 31
0.0
  0
LINE
  5
93C2
330
93BE
100
AcDbEntity
  8
0
 62
     0
370
    -2
100
AcDbLine
 10
220.0763417786473
 20
190.1857410911913
 30
0.0
 11
220.0763417786473
 21
221.2423858557148
 31
0.0
  0
LINE
  5
93C3
330
93BE
100
AcDbEntity
  8
0
 62
     0
370
    -2
100
AcDbLine
 10
135.58
 20
219.9923858557148
 30
0.0
 11
217.5763417786473
 21
219.9923858557148
 31
0.0
  0
INSERT
  5
93C4
330
93BE
100
AcDbEntity
  8
0
 62
     0
370
    -2
100
AcDbBlockReference
  2
_OPEN
 10
133.08
 20
219.9923858557148
 30
0.0
 41
2.5
 42
2.5
 43
2.5
 50
180.0
  0
INSERT
  5
93C5
330
93BE
100
AcDbEntity
  8
0
 62
     0
370
    -2
100
AcDbBlockReference
  2
_OPEN
 10
220.0763417786473
 20
219.9923858557148
 30
0.0
 41
2.5
 42
2.5
 43
2.5
  0
MTEXT
  5
93C6
330
93BE
100
AcDbEntity
  8
0
 62
     0
370
     9
100
AcDbMText
 10
176.5781708893236
 20
221.8673858557148
 30
0.0
 40
2.5
 41
0.0
 46
0.0
 71
     5
 72
     1
  1
87
 73
     1
 44
1.0
  0
POINT
  5
93C7
330
93BE
100
AcDbEntity
  8
DEFPOINTS
 62
     0
100
AcDbPoint
 10
133.08
 20
189.5607410911913
 30
0.0
  0
POINT
  5
93C8
330
93BE
100
AcDbEntity
  8
DEFPOINTS
 62
     0
100
AcDbPoint
 10
220.0763417786473
 20
189.5607410911913
 30
0.0
  0
POINT
  5
93C9
330
93BE
100
AcDbEntity
  8
DEFPOINTS
 62
     0
100
AcDbPoint
 10
220.0763417786473
 20
219.9923858557148
 30
0.0
  0
ENDBLK
  5
93C0
330
93BE
100
AcDbEntity
  8
0
100
AcDbBlockEnd
  0
ENDSEC
  0
SECTION
  2
ENTITIES
  0
LINE
  5
34AF
330
1F
100
AcDbEntity
  8
図枠
 62
     7
100
AcDbLine
 10
410.0
 20
287.0
 30
0.0
 11
410.0
 21
10.0
 31
0.0
  0
LINE
  5
34B1
330
1F
100
AcDbEntity
  8
図枠
 62
     7
100
AcDbLine
 10
410.0
 20
71.4183039484
 30
0.0
 11
10.0
 21
71.4183039484
 31
0.0
  0
LINE
  5
34B3
330
1F
100
AcDbEntity
  8
図枠
  6
Continuous
 62
     7
100
AcDbLine
 10
420.0
 20
148.5
 30
0.0
 11
405.0
 21
148.5
 31
0.0
  0
LINE
  5
34B4
330
1F
100
AcDbEntity
  8
図枠
 62
     7
100
AcDbLine
 10
10.0
 20
10.0
 30
0.0
 11
410.0
 21
10.0
 31
0.0
  0
LINE
  5
34B6
330
1F
100
AcDbEntity
  8
図枠
  6
Continuous
 62
     7
100
AcDbLine
 10
60.0
 20
287.0
 30
0.0
 11
60.0
 21
297.0
 31
0.0
  0
LINE
  5
34B7
330
1F
100
AcDbEntity
  8
図枠
  6
Continuous
 62
     7
100
AcDbLine
 10
60.0
 20
10.0
 30
0.0
 11
60.0
 21
0.0
 31
0.0
  0
LINE
  5
34B8
330
1F
100
AcDbEntity
  8
図枠
  6
Continuous
 62
     7
100
AcDbLine
 10
110.0
 20
287.0
 30
0.0
 11
110.0
 21
297.0
 31
0.0
  0
LINE
  5
34B9
330
1F
100
AcDbEntity
  8
図枠
  6
Continuous
 62
     7
100
AcDbLine
 10
110.0
 20
10.0
 30
0.0
 11
110.0
 21
0.0
 31
0.0
  0
LINE
  5
34BA
330
1F
100
AcDbEntity
  8
図枠
  6
Continuous
 62
     7
100
AcDbLine
 10
160.0
 20
287.0
 30
0.0
 11
160.0
 21
297.0
 31
0.0
  0
LINE
  5
34BB
330
1F
100
AcDbEntity
  8
図枠
  6
Continuous
 62
     7
100
AcDbLine
 10
160.0
 20
10.0
 30
0.0
 11
160.0
 21
0.0
 31
0.0
  0
LINE
  5
34CA
330
1F
100
AcDbEntity
  8
図枠
 62
     7
100
AcDbLine
 10
410.0
 20
26.4821127524
 30
0.0
 11
260.0
 21
26.4821127524
 31
0.0
  0
LINE
  5
34CB
330
1F
100
AcDbEntity
  8
図枠
 62
     7
100
AcDbLine
 10
333.037196794
 20
10.0
 30
0.0
 11
333.037196794
 21
71.4183039484
 31
0.0
  0
LINE
  5
34D6
330
1F
100
AcDbEntity
  8
図枠
  6
Continuous
 62
     7
100
AcDbLine
 10
210.0
 20
282.0
 30
0.0
 11
210.0
 21
297.0
 31
0.0
  0
LINE
  5
34D7
330
1F
100
AcDbEntity
  8
図枠
  6
Continuous
 62
     7
100
AcDbLine
 10
210.0
 20
10.0
 30
0.0
 11
210.0
 21
0.0
 31
0.0
  0
LINE
  5
34D8
330
1F
100
AcDbEntity
  8
図枠
 62
     7
100
AcDbLine
 10
410.0
 20
287.0
 30
0.0
 11
10.0
 21
287.0
 31
0.0
  0
LINE
  5
34D9
330
1F
100
AcDbEntity
  8
図枠
  6
Continuous
 62
     7
100
AcDbLine
 10
260.0
 20
287.0
 30
0.0
 11
260.0
 21
297.0
 31
0.0
  0
LINE
  5
34DA
330
1F
100
AcDbEntity
  8
図枠
 62
     7
100
AcDbLine
 10
10.0
 20
287.0
 30
0.0
 11
10.0
 21
10.0
 31
0.0
  0
LINE
  5
34DB
330
1F
100
AcDbEntity
  8
図枠
  6
Continuous
 62
     7
100
AcDbLine
 10
260.0
 20
10.0
 30
0.0
 11
260.0
 21
0.0
 31
0.0
  0
LINE
  5
34DC
330
1F
100
AcDbEntity
  8
図枠
  6
Continuous
 62
     7
100
AcDbLine
 10
310.0
 20
287.0
 30
0.0
 11
310.0
 21
297.0
 31
0.0
  0
LINE
  5
34DD
330
1F
100
AcDbEntity
  8
図枠
  6
Continuous
 62
     7
100
AcDbLine
 10
309.9987854449
 20
10.0
 30
0.0
 11
309.9987854449
 21
0.0
 31
0.0
  0
LINE
  5
34DE
330
1F
100
AcDbEntity
  8
図枠
  6
Continuous
 62
     7
100
AcDbLine
 10
360.0
 20
287.0
 30
0.0
 11
360.0
 21
297.0
 31
0.0
  0
LINE
  5
34DF
330
1F
100
AcDbEntity
  8
図枠
  6
Continuous
 62
     7
100
AcDbLine
 10
360.0039151785
 20
10.0
 30
0.0
 11
360.0039151785
 21
0.0
 31
0.0
  0
LINE
  5
34E0
330
1F
100
AcDbEntity
  8
図枠
  6
Continuous
 62
     7
100
AcDbLine
 10
410.0
 20
248.5
 30
0.0
 11
420.0
 21
248.5
 31
0.0
  0
LINE
  5
34E1
330
1F
100
AcDbEntity
  8
図枠
  6
Continuous
 62
     7
100
AcDbLine
 10
10.0
 20
248.5
 30
0.0
 11
0.0
 21
248.5
 31
0.0
  0
LINE
  5
34E2
330
1F
100
AcDbEntity
  8
図枠
  6
Continuous
 62
     7
100
AcDbLine
 10
410.0
 20
198.5
 30
0.0
 11
420.0
 21
198.5
 31
0.0
  0
LINE
  5
34E3
330
1F
100
AcDbEntity
  8
図枠
  6
Continuous
 62
     7
100
AcDbLine
 10
10.0
 20
198.5
 30
0.0
 11
0.0
 21
198.5
 31
0.0
  0
LINE
  5
34E5
330
1F
100
AcDbEntity
  8
図枠
  6
Continuous
 62
     7
100
AcDbLine
 10
15.0
 20
148.5
 30
0.0
 11
0.0
 21
148.5
 31
0.0
  0
LINE
  5
34E6
330
1F
100
AcDbEntity
  8
図枠
  6
Continuous
 62
     7
100
AcDbLine
 10
410.0
 20
98.5
 30
0.0
 11
420.0
 21
98.5
 31
0.0
  0
LINE
  5
34E7
330
1F
100
AcDbEntity
  8
図枠
  6
Continuous
 62
     7
100
AcDbLine
 10
10.0
 20
98.5
 30
0.0
 11
0.0
 21
98.5
 31
0.0
  0
LINE
  5
34EA
330
1F
100
AcDbEntity
  8
図枠
  6
Continuous
 62
     7
100
AcDbLine
 10
410.0
 20
48.5
 30
0.0
 11
420.0
 21
48.5
 31
0.0
  0
LINE
  5
34EB
330
1F
100
AcDbEntity
  8
図枠
  6
Continuous
 62
     7
100
AcDbLine
 10
10.0
 20
48.5
 30
0.0
 11
0.0
 21
48.5
 31
0.0
  0
LINE
  5
3573
330
1F
100
AcDbEntity
  8
図枠
 62
     7
100
AcDbLine
 10
392.7629249112
 20
10.0
 30
0.0
 11
392.7558225395
 21
26.4821127524
 31
0.0
  0
LINE
  5
3574
330
1F
100
AcDbEntity
  8
図枠
 62
     7
100
AcDbLine
 10
333.037196794
 20
64.3897202375
 30
0.0
 11
410.0
 21
64.3897202375
 31
0.0
  0
LINE
  5
3575
330
1F
100
AcDbEntity
  8
図枠
 62
     7
100
AcDbLine
 10
260.0
 20
10.0
 30
0.0
 11
260.0
 21
71.4183039484
 31
0.0
  0
LINE
  5
3576
330
1F
100
AcDbEntity
  8
図枠
 62
     7
100
AcDbLine
 10
333.037196794
 20
64.3897202375
 30
0.0
 11
260.0
 21
64.3897202375
 31
0.0
  0
LINE
  5
3578
330
1F
100
AcDbEntity
  8
図枠
 62
     7
100
AcDbLine
 10
333.037196794
 20
19.4657688322
 30
0.0
 11
260.0
 21
19.4657688322
 31
0.0
  0
LINE
  5
3579
330
1F
100
AcDbEntity
  8
図枠
 62
     7
100
AcDbLine
 10
299.5921729633
 20
10.0
 30
0.0
 11
299.5850705916
 21
26.4821127524
 31
0.0
  0
LINE
  5
357A
330
1F
100
AcDbEntity
  8
図枠
 62
     7
100
AcDbLine
 10
210.0
 20
10.0
 30
0.0
 11
210.0
 21
71.4183039484
 31
0.0
  0
LINE
  5
357B
330
1F
100
AcDbEntity
  8
図枠
 62
     7
100
AcDbLine
 10
260.0
 20
64.3897202375
 30
0.0
 11
210.0
 21
64.3897202375
 31
0.0
  0
LINE
  5
357C
330
1F
100
AcDbEntity
  8
図枠
  6
Continuous
 62
     7
100
AcDbLine
 10
227.6777366283
 20
64.3897202375
 30
0.0
 11
227.6777366283
 21
10.0
 31
0.0
  0
LINE
  5
357D
330
1F
100
AcDbEntity
  8
図枠
 62
     7
100
AcDbLine
 10
210.0
 20
23.947130671
 30
0.0
 11
260.0
 21
23.947130671
 31
0.0
  0
LINE
  5
357E
330
1F
100
AcDbEntity
  8
図枠
 62
     7
100
AcDbLine
 10
210.0
 20
50.7133687799
 30
0.0
 11
260.0
 21
50.7133687799
 31
0.0
  0
LINE
  5
357F
330
1F
100
AcDbEntity
  8
図枠
 62
     7
100
AcDbLine
 10
260.0
 20
37.4806218497
 30
0.0
 11
210.0
 21
37.4806218497
 31
0.0
  0
LINE
  5
3580
330
1F
100
AcDbEntity
  8
図枠
 62
     7
100
AcDbLine
 10
260.0
 20
16.9562384825
 30
0.0
 11
210.0
 21
16.9562384825
 31
0.0
  0
LINE
  5
3581
330
1F
100
AcDbEntity
  8
図枠
 62
     7
100
AcDbLine
 10
210.0
 20
16.9562384825
 30
0.0
 11
10.0
 21
16.9562384825
 31
0.0
  0
LINE
  5
3582
330
1F
100
AcDbEntity
  8
図枠
 62
     7
100
AcDbLine
 10
210.0
 20
23.947130671
 30
0.0
 11
10.0
 21
23.947130671
 31
0.0
  0
LINE
  5
3583
330
1F
100
AcDbEntity
  8
図枠
 62
     7
100
AcDbLine
 10
210.0
 20
30.4849499307
 30
0.0
 11
10.0
 21
30.4849499307
 31
0.0
  0
LINE
  5
3584
330
1F
100
AcDbEntity
  8
図枠
 62
     7
100
AcDbLine
 10
210.0
 20
37.4806218497
 30
0.0
 11
10.0
 21
37.4806218497
 31
0.0
  0
LINE
  5
3585
330
1F
100
AcDbEntity
  8
図枠
 62
     7
100
AcDbLine
 10
210.0
 20
43.9342364428
 30
0.0
 11
10.0
 21
43.9342364428
 31
0.0
  0
LINE
  5
3586
330
1F
100
AcDbEntity
  8
図枠
 62
     7
100
AcDbLine
 10
210.0
 20
50.7133687799
 30
0.0
 11
10.0
 21
50.7133687799
 31
0.0
  0
LINE
  5
3587
330
1F
100
AcDbEntity
  8
図枠
 62
     7
100
AcDbLine
 10
210.0
 20
57.9312307419
 30
0.0
 11
10.0
 21
57.9312307419
 31
0.0
  0
LINE
  5
3588
330
1F
100
AcDbEntity
  8
図枠
 62
     7
100
AcDbLine
 10
210.0
 20
64.3897202375
 30
0.0
 11
10.0
 21
64.3897202375
 31
0.0
  0
LINE
  5
3589
330
1F
100
AcDbEntity
  8
図枠
 62
     7
100
AcDbLine
 10
21.7562186156
 20
10.0
 30
0.0
 11
21.7562186156
 21
71.4183039484
 31
0.0
  0
LINE
  5
358A
330
1F
100
AcDbEntity
  8
図枠
 62
     7
100
AcDbLine
 10
170.0277100038
 20
10.0
 30
0.0
 11
170.0277100038
 21
71.4183039484
 31
0.0
  0
LINE
  5
358B
330
1F
100
AcDbEntity
  8
図枠
 62
     7
100
AcDbLine
 10
160.0
 20
10.0
 30
0.0
 11
160.0
 21
71.4183039484
 31
0.0
  0
LINE
  5
3599
330
1F
100
AcDbEntity
  8
図枠
  6
Continuous
 62
     7
100
AcDbLine
 10
281.386764118
 20
16.8279349855
 30
0.0
 11
287.9944275431
 21
17.83094703369149
 31
0.0
  0
LINE
  5
359A
330
1F
100
AcDbEntity
  8
図枠
  6
Continuous
 62
     7
100
AcDbLine
 10
291.5066090033
 20
14.8279349855
 30
0.0
 11
268.7270365948
 21
14.8279349855
 31
0.0
  0
LINE
  5
359B
330
1F
100
AcDbEntity
  8
図枠
  6
Continuous
 62
     7
100
AcDbLine
 10
273.5630784217
 20
18.6994881575
 30
0.0
 11
273.5630784217
 21
10.6994881575
 31
0.0
  0
LINE
  5
359C
330
1F
100
AcDbEntity
  8
図枠
  6
Continuous
 62
     7
100
AcDbLine
 10
281.386764118
 20
12.8279349855
 30
0.0
 11
287.9944275431
 21
11.83092899747479
 31
0.0
  0
LINE
  5
359D
330
1F
100
AcDbEntity
  8
図枠
  6
Continuous
 62
     7
100
AcDbLine
 10
281.386764118
 20
16.8279349855
 30
0.0
 11
281.386764118
 21
12.8279349855
 31
0.0
  0
CIRCLE
  5
359E
330
1F
100
AcDbEntity
  8
図枠
  6
Continuous
 62
     7
100
AcDbCircle
 10
273.5630784217
 20
14.8279349855
 30
0.0
 40
2.999999999999964
  0
CIRCLE
  5
359F
330
1F
100
AcDbEntity
  8
図枠
  6
Continuous
 62
     7
100
AcDbCircle
 10
273.5630784217
 20
14.8279349855
 30
0.0
 40
1.999999999999994
  0
LINE
  5
365B
330
1F
100
AcDbEntity
  8
図枠
  6
Continuous
 62
     7
100
AcDbLine
 10
287.9944275431
 20
17.83094703369149
 30
0.0
 11
287.9944275431
 21
11.83092899747479
 31
0.0
  0
LINE
  5
7723
330
1F
100
AcDbEntity
  8
図枠
 62
     7
100
AcDbLine
 10
333.037196794
 20
34.24034514150001
 30
0.0
 11
260.0
 21
34.24034514150001
 31
0.0
  0
LINE
  5
7724
330
1F
100
AcDbEntity
  8
図枠
 62
     7
100
AcDbLine
 10
333.037196794
 20
34.24034514150001
 30
0.0
 11
410.0
 21
34.24034514150001
 31
0.0
  0
LINE
  5
7729
330
1F
100
AcDbEntity
  8
図枠
 62
     7
100
AcDbLine
 10
260.0
 20
56.44486011875
 30
0.0
 11
410.0
 21
56.44486011875
 31
0.0
  0
LINE
  5
772A
330
1F
100
AcDbEntity
  8
図枠
 62
     7
100
AcDbLine
 10
260.0
 20
41.37017257075
 30
0.0
 11
410.0
 21
41.37017257074999
 31
0.0
  0
LINE
  5
777D
330
1F
100
AcDbEntity
  8
図枠
 62
     7
100
AcDbLine
 10
260.0
 20
49.12840495985001
 30
0.0
 11
410.0
 21
49.12840495984999
 31
0.0
  0
INSERT
  5
8C24
330
1F
100
AcDbEntity
  8
レイヤー_1
 62
     7
100
AcDbBlockReference
  2
SW_NOTE_0
 10
154.6457416502853
 20
236.2645366828313
 30
0.0
  0
LINE
  5
8E4D
330
1F
100
AcDbEntity
  8
0
  6
Continuous
 62
     7
370
    13
100
AcDbLine
 10
188.5763417786472
 20
168.5607410911913
 30
0.0
 11
189.4985945679472
 21
168.5607410911913
 31
0.0
  0
LINE
  5
8E4E
330
1F
100
AcDbEntity
  8
0
  6
Continuous
 62
     7
370
    13
100
AcDbLine
 10
189.4985945679472
 20
210.5607410911913
 30
0.0
 11
188.5763417786472
 21
210.5607410911913
 31
0.0
  0
SPLINE
  5
8E4F
330
1F
100
AcDbEntity
  8
0
  6
Continuous
 62
     7
370
    13
100
AcDbSpline
210
0.0
220
0.0
230
1.0
 70
     8
 71
     3
 72
    20
 73
    16
 74
     0
 42
0.000000001
 43
0.00000001
 40
0.0
 40
0.0
 40
0.0
 40
0.0
 40
0.0823609291028357
 40
0.1636223350520324
 40
0.2444782237072412
 40
0.325349166748465
 40
0.4064297021193942
 40
0.48774489908239
 40
0.5692090682291986
 40
0.6506836130348974
 40
0.7359026792525168
 40
0.8209035844068344
 40
0.9057503383386909
 40
0.9907264374946166
 40
1.0
 40
1.0
 40
1.0
 40
1.0
 10
159.0763417786445
 20
181.0607410911868
 30
0.0
 10
159.7021447454276
 20
180.6268365838138
 30
0.0
 10
160.9453961732946
 20
179.7648202192665
 30
0.0
 10
162.9428252878678
 20
178.7008371284026
 30
0.0
 10
164.9932046345534
 20
177.7840396009788
 30
0.0
 10
167.0955973482289
 20
176.9978174637145
 30
0.0
 10
169.2341665613138
 20
176.3050215184817
 30
0.0
 10
171.3973594613003
 20
175.6744289438267
 30
0.0
 10
173.5725092016281
 20
175.0734088834044
 30
0.0
 10
175.7820014774765
 20
174.4608400687919
 30
0.0
 10
178.0118035454306
 20
173.8009991761796
 30
0.0
 10
180.2508731990899
 20
173.061127586677
 30
0.0
 10
182.4371328229705
 20
172.190138020355
 30
0.0
 10
183.9576122597912
 20
171.523620949799
 30
0.0
 10
184.7088411060677
 20
171.083069360164
 30
0.0
 10
184.782757208672
 20
171.0397219079683
 30
0.0
  0
LINE
  5
8E50
330
1F
100
AcDbEntity
  8
0
  6
Continuous
 62
     7
370
    13
100
AcDbLine
 10
187.1198423178473
 20
169.6105913836913
 30
0.0
 11
188.5763417786472
 21
168.5607410911913
 31
0.0
  0
LINE
  5
8E51
330
1F
100
AcDbEntity
  8
0
  6
Continuous
 62
     7
370
    13
100
AcDbLine
 10
188.5763417786472
 20
210.5607410911913
 30
0.0
 11
187.1214548594472
 21
209.5069420234913
 31
0.0
  0
SPLINE
  5
8E52
330
1F
100
AcDbEntity
  8
0
  6
Continuous
 62
     7
370
    13
100
AcDbSpline
210
0.0
220
0.0
230
1.0
 70
     8
 71
     3
 72
    20
 73
    16
 74
     0
 42
0.000000001
 43
0.00000001
 40
0.0
 40
0.0
 40
0.0
 40
0.0
 40
0.0014861180064307
 40
0.0826457049388319
 40
0.1636344892332673
 40
0.2447346258646663
 40
0.3260351259753259
 40
0.4074898337854015
 40
0.4889755270056866
 40
0.5742188525359552
 40
0.6592189670959918
 40
0.7439723717258874
 40
0.8286662491365967
 40
0.9137506300630341
 40
1.0
 40
1.0
 40
1.0
 40
1.0
 10
184.785995861129
 20
208.0738193374671
 30
0.0
 10
184.7741734092834
 20
208.0668377127414
 30
0.0
 10
184.1167055213658
 20
207.6785769591687
 30
0.0
 10
182.7306251757892
 20
207.0619711289516
 30
0.0
 10
180.6530549440873
 20
206.2081336828675
 30
0.0
 10
178.5228715716528
 20
205.4829960872247
 30
0.0
 10
176.3671902677499
 20
204.8283503642524
 30
0.0
 10
174.1944729354466
 20
204.2188078458267
 30
0.0
 10
171.9836860598124
 20
203.6108967214708
 30
0.0
 10
169.7473699089797
 20
202.9719954597877
 30
0.0
 10
167.5002295070281
 20
202.2633730388487
 30
0.0
 10
165.2899608272114
 20
201.4589431082099
 30
0.0
 10
163.1344934834585
 20
200.5162014190017
 30
0.0
 10
161.0354535733377
 20
199.4151077409078
 30
0.0
 10
159.732332580384
 20
198.5142384703594
 30
0.0
 10
159.0763417786445
 20
198.0607410911868
 30
0.0
  0
LINE
  5
8E53
330
1F
100
AcDbEntity
  8
0
  6
Continuous
 62
     7
370
    13
100
AcDbLine
 10
152.0763417786472
 20
181.0607410911913
 30
0.0
 11
159.0763417786472
 21
181.0607410911913
 31
0.0
  0
LINE
  5
8E54
330
1F
100
AcDbEntity
  8
0
  6
Continuous
 62
     7
370
    13
100
AcDbLine
 10
159.0763417786472
 20
198.0607410911913
 30
0.0
 11
152.0763417786472
 21
198.0607410911913
 31
0.0
  0
SPLINE
  5
8E55
330
1F
100
AcDbEntity
  8
0
  6
Continuous
 62
     7
370
    13
100
AcDbSpline
210
0.0
220
0.0
230
1.0
 70
     8
 71
     3
 72
    13
 73
     9
 74
     0
 42
0.000000001
 43
0.00000001
 40
0.0
 40
0.0
 40
0.0
 40
0.0
 40
0.2279746650246855
 40
0.4893488525694381
 40
0.6455399466616991
 40
0.7903079733317834
 40
0.932807722782901
 40
1.0
 40
1.0
 40
1.0
 40
1.0
 10
149.4447283498371
 20
183.2535417569616
 30
0.0
 10
149.4536990946933
 20
183.2191865834838
 30
0.0
 10
149.4729548470883
 20
183.145443017639
 30
0.0
 10
149.5156209459223
 20
183.0542340671359
 30
0.0
 10
149.5864086996281
 20
182.9531259083163
 30
0.0
 10
149.6866513015734
 20
182.869320357979
 30
0.0
 10
149.8081256261373
 20
182.8130723300536
 30
0.0
 10
149.8872085630105
 20
182.8182134384464
 30
0.0
 10
149.9125493578035
 20
182.8198608200174
 30
0.0
  0
SPLINE
  5
8E56
330
1F
100
AcDbEntity
  8
0
  6
Continuous
 62
     7
370
    13
100
AcDbSpline
210
0.0
220
0.0
230
1.0
 70
     8
 71
     3
 72
    14
 73
    10
 74
     0
 42
0.000000001
 43
0.00000001
 40
0.0
 40
0.0
 40
0.0
 40
0.0
 40
0.0087875667298257
 40
0.3478356890292714
 40
0.5481039697043255
 40
0.7003214688061459
 40
0.8082776543710242
 40
0.9132367204132682
 40
1.0
 40
1.0
 40
1.0
 40
1.0
 10
146.9031012914778
 20
183.4152821878282
 30
0.0
 10
146.9035150595914
 20
183.4130068770942
 30
0.0
 10
146.9198931220703
 20
183.3229439164064
 30
0.0
 10
146.9483542319273
 20
183.2240461009211
 30
0.0
 10
146.9976349083769
 20
183.0927410921707
 30
0.0
 10
147.0553535953674
 20
182.9919625771328
 30
0.0
 10
147.1463473818825
 20
182.8976490642264
 30
0.0
 10
147.2691476458073
 20
182.8237584441337
 30
0.0
 10
147.3681410641863
 20
182.8179120511631
 30
0.0
 10
147.4129401907975
 20
182.8152662863921
 30
0.0
  0
SPLINE
  5
8E57
330
1F
100
AcDbEntity
  8
0
  6
Continuous
 62
     7
370
    13
100
AcDbSpline
210
0.0
220
0.0
230
1.0
 70
     8
 71
     3
 72
    14
 73
    10
 74
     0
 42
0.000000001
 43
0.00000001
 40
0.0
 40
0.0
 40
0.0
 40
0.0
 40
0.0286436994606054
 40
0.3197311589764424
 40
0.5476115528243007
 40
0.6942114690630021
 40
0.8342421138606857
 40
0.9731827056383309
 40
1.0
 40
1.0
 40
1.0
 40
1.0
 10
144.4388118324301
 20
183.263061576513
 30
0.0
 10
144.4399163169206
 20
183.2582174915682
 30
0.0
 10
144.4522449655539
 20
183.204146092875
 30
0.0
 10
144.4808088736712
 20
183.1306938046587
 30
0.0
 10
144.5320631285517
 20
183.0258219194006
 30
0.0
 10
144.6115826800759
 20
182.9266451950391
 30
0.0
 10
144.7244464547273
 20
182.8490360030852
 30
0.0
 10
144.8412069151909
 20
182.8047993453248
 30
0.0
 10
144.9037029745605
 20
182.8149253521303
 30
0.0
 10
144.9138139578723
 20
182.8165635975951
 30
0.0
  0
SPLINE
  5
8E58
330
1F
100
AcDbEntity
  8
0
  6
Continuous
 62
     7
370
    13
100
AcDbSpline
210
0.0
220
0.0
230
1.0
 70
     8
 71
     3
 72
    13
 73
     9
 74
     0
 42
0.000000001
 43
0.00000001
 40
0.0
 40
0.0
 40
0.0
 40
0.0
 40
0.1306671544059782
 40
0.459433229103602
 40
0.6275760254347679
 40
0.786955300500618
 40
0.9447324883672742
 40
1.0
 40
1.0
 40
1.0
 40
1.0
 10
141.958169704487
 20
183.2074755664581
 30
0.0
 10
141.9629696916621
 20
183.1897217500765
 30
0.0
 10
141.9798467226
 20
183.1272983107188
 30
0.0
 10
142.017439366096
 20
183.0487133212738
 30
0.0
 10
142.0988568270151
 20
182.9391649549858
 30
0.0
 10
142.2032975156246
 20
182.8594284717145
 30
0.0
 10
142.3225954120388
 20
182.80770775448
 30
0.0
 10
142.3943270516469
 20
182.8165075383661
 30
0.0
 10
142.4129354903258
 20
182.8187903558192
 30
0.0
  0
SPLINE
  5
8E59
330
1F
100
AcDbEntity
  8
0
  6
Continuous
 62
     7
370
    13
100
AcDbSpline
210
0.0
220
0.0
230
1.0
 70
     8
 71
     3
 72
    13
 73
     9
 74
     0
 42
0.000000001
 43
0.00000001
 40
0.0
 40
0.0
 40
0.0
 40
0.0
 40
0.0286192254892892
 40
0.3225452544737732
 40
0.5546290507036352
 40
0.7145997156555122
 40
0.869840740155216
 40
1.0
 40
1.0
 40
1.0
 40
1.0
 10
139.4559402136724
 20
183.2124025254419
 30
0.0
 10
139.456985429647
 20
183.2083433669331
 30
0.0
 10
139.4687652541094
 20
183.162595716821
 30
0.0
 10
139.4977948910609
 20
183.097150871104
 30
0.0
 10
139.5539071439603
 20
182.9951447691717
 30
0.0
 10
139.644694838972
 20
182.9005708031159
 30
0.0
 10
139.7664953529882
 20
182.8258687304041
 30
0.0
 10
139.8660765417993
 20
182.8190267058931
 30
0.0
 10
139.9114914013529
 20
182.8159063416361
 30
0.0
  0
SPLINE
  5
8E5A
330
1F
100
AcDbEntity
  8
0
  6
Continuous
 62
     7
370
    13
100
AcDbSpline
210
0.0
220
0.0
230
1.0
 70
     8
 71
     3
 72
    13
 73
     9
 74
     0
 42
0.000000001
 43
0.00000001
 40
0.0
 40
0.0
 40
0.0
 40
0.0
 40
0.0588136275912078
 40
0.22087338375891
 40
0.3734432794405305
 40
0.5371622335872284
 40
0.7377486528375495
 40
0.9999999999999999
 40
0.9999999999999999
 40
0.9999999999999999
 40
0.9999999999999999
 10
138.6635959985834
 20
196.3015010162589
 30
0.0
 10
138.6440153793616
 20
196.3033644000108
 30
0.0
 10
138.5704807616078
 20
196.3103622998409
 30
0.0
 10
138.4538128992972
 20
196.2599078268914
 30
0.0
 10
138.3519768261218
 20
196.1821197753957
 30
0.0
 10
138.2868040268924
 20
196.0978284084193
 30
0.0
 10
138.2403278979053
 20
196.0121779959645
 30
0.0
 10
138.2196734248072
 20
195.9535009698157
 30
0.0
 10
138.207970267053
 20
195.9202536199413
 30
0.0
  0
SPLINE
  5
8E5B
330
1F
100
AcDbEntity
  8
0
  6
Continuous
 62
     7
370
    13
100
AcDbSpline
210
0.0
220
0.0
230
1.0
 70
     8
 71
     3
 72
    13
 73
     9
 74
     0
 42
0.000000001
 43
0.00000001
 40
0.0
 40
0.0
 40
0.0
 40
0.0
 40
0.0028392446773303
 40
0.2491675959562188
 40
0.4711236233078687
 40
0.6978932921072246
 40
0.9619449497132434
 40
1.0
 40
1.0
 40
1.0
 40
1.0
 10
141.1673145528092
 20
196.310273159441
 30
0.0
 10
141.1666886688465
 20
196.310394554666
 30
0.0
 10
141.1117620880028
 20
196.3210480064854
 30
0.0
 10
140.999541016005
 20
196.2839556266756
 30
0.0
 10
140.8816206209281
 20
196.2126315957999
 30
0.0
 10
140.80766794031
 20
196.1288767548472
 30
0.0
 10
140.772730714519
 20
196.0749718633998
 30
0.0
 10
140.7611671768769
 20
196.0483656609683
 30
0.0
 10
140.7597105690131
 20
196.0450141949299
 30
0.0
  0
SPLINE
  5
8E5C
330
1F
100
AcDbEntity
  8
0
  6
Continuous
 62
     7
370
    13
100
AcDbSpline
210
0.0
220
0.0
230
1.0
 70
     8
 71
     3
 72
    13
 73
     9
 74
     0
 42
0.000000001
 43
0.00000001
 40
0.0
 40
0.0
 40
0.0
 40
0.0
 40
0.1231443306226997
 40
0.2745969117972134
 40
0.4240436809500337
 40
0.5926228337666135
 40
0.8110382541445419
 40
1.0
 40
1.0
 40
1.0
 40
1.0
 10
143.6636167446367
 20
196.3026619257556
 30
0.0
 10
143.620724778717
 20
196.3018770765662
 30
0.0
 10
143.5250809003275
 20
196.3001269581275
 30
0.0
 10
143.4056614423517
 20
196.2307099131879
 30
0.0
 10
143.3213389901192
 20
196.1495674015813
 30
0.0
 10
143.2661606224717
 20
196.065371651632
 30
0.0
 10
143.2298621443674
 20
195.9894213271949
 30
0.0
 10
143.2134152660915
 20
195.9359901416268
 30
0.0
 10
143.2057863877683
 20
195.9112061062292
 30
0.0
  0
SPLINE
  5
8E5D
330
1F
100
AcDbEntity
  8
0
  6
Continuous
 62
     7
370
    13
100
AcDbSpline
210
0.0
220
0.0
230
1.0
 70
     8
 71
     3
 72
    14
 73
    10
 74
     0
 42
0.000000001
 43
0.00000001
 40
0.0
 40
0.0
 40
0.0
 40
0.0
 40
0.0373190926518665
 40
0.1975002098672725
 40
0.3458773028671731
 40
0.5024627026219185
 40
0.690994600760528
 40
0.953216499219177
 40
0.9999999999999999
 40
0.9999999999999999
 40
0.9999999999999999
 40
0.9999999999999999
 10
146.1633668832417
 20
196.304678343153
 30
0.0
 10
146.1507810403116
 20
196.3063205423623
 30
0.0
 10
146.0841742060232
 20
196.3150113937583
 30
0.0
 10
145.969553598692
 20
196.2694794551523
 30
0.0
 10
145.8627291308611
 20
196.1937298480628
 30
0.0
 10
145.7946205809039
 20
196.1100942135719
 30
0.0
 10
145.7468578063149
 20
196.0233334904843
 30
0.0
 10
145.7203720575088
 20
195.9628158683046
 30
0.0
 10
145.7089151116321
 20
195.9201450299084
 30
0.0
 10
145.7071805269364
 20
195.9136846534673
 30
0.0
  0
SPLINE
  5
8E5E
330
1F
100
AcDbEntity
  8
0
  6
Continuous
 62
     7
370
    13
100
AcDbSpline
210
0.0
220
0.0
230
1.0
 70
     8
 71
     3
 72
    12
 73
     8
 74
     0
 42
0.000000001
 43
0.00000001
 40
0.0
 40
0.0
 40
0.0
 40
0.0
 40
0.0003495439268067
 40
0.266141998730591
 40
0.5037385139655625
 40
0.7504531861332779
 40
1.0
 40
1.0
 40
1.0
 40
1.0
 10
148.6685714787804
 20
196.3106110157413
 30
0.0
 10
148.6685001157674
 20
196.310625334439
 30
0.0
 10
148.6141644701055
 20
196.3215275602131
 30
0.0
 10
148.5019737521001
 20
196.2850947085684
 30
0.0
 10
148.3845974801358
 20
196.2155646826033
 30
0.0
 10
148.3105057281119
 20
196.1345952396998
 30
0.0
 10
148.2843240276944
 20
196.0898693893036
 30
0.0
 10
148.2711584685995
 20
196.06737883991
 30
0.0
  0
SPLINE
  5
8E5F
330
1F
100
AcDbEntity
  8
0
  6
Continuous
 62
     7
370
    13
100
AcDbSpline
210
0.0
220
0.0
230
1.0
 70
     8
 71
     3
 72
    14
 73
    10
 74
     0
 42
0.000000001
 43
0.00000001
 40
0.0
 40
0.0
 40
0.0
 40
0.0
 40
0.0261662706271768
 40
0.1898751475259527
 40
0.3403748756187891
 40
0.4976281808860142
 40
0.6850044679937899
 40
0.942529696519634
 40
1.0
 40
1.0
 40
1.0
 40
1.0
 10
151.1627986354221
 20
196.3034995428074
 30
0.0
 10
151.1541252672972
 20
196.304824411061
 30
0.0
 10
151.0911871025231
 20
196.3144382975299
 30
0.0
 10
150.9765987565788
 20
196.2716040506556
 30
0.0
 10
150.8657414140279
 20
196.1965358480578
 30
0.0
 10
150.7950050206127
 20
196.1118068658818
 30
0.0
 10
150.7461007793445
 20
196.0245351540152
 30
0.0
 10
150.7187244373824
 20
195.9620076949592
 30
0.0
 10
150.7070650320265
 20
195.9183043463323
 30
0.0
 10
150.7049377968879
 20
195.9103307579683
 30
0.0
  0
SPLINE
  5
8E60
330
1F
100
AcDbEntity
  8
0
  6
Continuous
 62
     7
370
    13
100
AcDbSpline
210
0.0
220
0.0
230
1.0
 70
     8
 71
     3
 72
    11
 73
     7
 74
     0
 42
0.000000001
 43
0.00000001
 40
0.0
 40
0.0
 40
0.0
 40
0.0
 40
0.2482835418680373
 40
0.4852949951063216
 40
0.72769593589859
 40
1.0
 40
1.0
 40
1.0
 40
1.0
 10
147.9909245485568
 20
182.8124423628311
 30
0.0
 10
148.0449850209997
 20
182.8182840448373
 30
0.0
 10
148.1506516169898
 20
182.8297021961143
 30
0.0
 10
148.2685298955442
 20
182.9078290548031
 30
0.0
 10
148.3449652662765
 20
182.9895243428475
 30
0.0
 10
148.372530542548
 20
183.0372678711579
 30
0.0
 10
148.3871139188228
 20
183.0625265274169
 30
0.0
  0
SPLINE
  5
8E61
330
1F
100
AcDbEntity
  8
0
  6
Continuous
 62
     7
370
    13
100
AcDbSpline
210
0.0
220
0.0
230
1.0
 70
     8
 71
     3
 72
    12
 73
     8
 74
     0
 42
0.000000001
 43
0.00000001
 40
0.0
 40
0.0
 40
0.0
 40
0.0
 40
0.1188134817462719
 40
0.3331859164518744
 40
0.5394736656718089
 40
0.7643491273572088
 40
1.0
 40
1.0
 40
1.0
 40
1.0
 10
145.4890236846355
 20
182.818313533339
 30
0.0
 10
145.5186616525896
 20
182.8171729702175
 30
0.0
 10
145.6017747250239
 20
182.8139745152666
 30
0.0
 10
145.7199336601022
 20
182.8716909760919
 30
0.0
 10
145.8141437420302
 20
182.9516147865769
 30
0.0
 10
145.8719186344812
 20
183.0307022469217
 30
0.0
 10
145.8937378487311
 20
183.0759710135327
 30
0.0
 10
145.9049027192174
 20
183.0991349969147
 30
0.0
  0
SPLINE
  5
8E62
330
1F
100
AcDbEntity
  8
0
  6
Continuous
 62
     7
370
    13
100
AcDbSpline
210
0.0
220
0.0
230
1.0
 70
     8
 71
     3
 72
    13
 73
     9
 74
     0
 42
0.000000001
 43
0.00000001
 40
0.0
 40
0.0
 40
0.0
 40
0.0
 40
0.1597556520310371
 40
0.3085117717527104
 40
0.4606050108597591
 40
0.6390425065910695
 40
0.8774705362880482
 40
1.0
 40
1.0
 40
1.0
 40
1.0
 10
142.9897493554926
 20
182.8116869633661
 30
0.0
 10
143.0449601042778
 20
182.8179532021814
 30
0.0
 10
143.1515802188781
 20
182.8300542353191
 30
0.0
 10
143.2700409192223
 20
182.9090758690548
 30
0.0
 10
143.3459526151917
 20
182.9911167852101
 30
0.0
 10
143.3976374808155
 20
183.0774264924507
 30
0.0
 10
143.428907015717
 20
183.1468058517136
 30
0.0
 10
143.4427974701428
 20
183.1960662822888
 30
0.0
 10
143.4475126788934
 20
183.2127880687894
 30
0.0
  0
SPLINE
  5
8E63
330
1F
100
AcDbEntity
  8
0
  6
Continuous
 62
     7
370
    13
100
AcDbSpline
210
0.0
220
0.0
230
1.0
 70
     8
 71
     3
 72
    12
 73
     8
 74
     0
 42
0.000000001
 43
0.00000001
 40
0.0
 40
0.0
 40
0.0
 40
0.0
 40
0.1395171940327335
 40
0.3834230860039767
 40
0.6178074791304274
 40
0.8751207437619969
 40
1.0
 40
1.0
 40
1.0
 40
1.0
 10
140.4885043486045
 20
182.8182538776968
 30
0.0
 10
140.519160361153
 20
182.8172060039317
 30
0.0
 10
140.6034096396552
 20
182.8143262227294
 30
0.0
 10
140.7226902491328
 20
182.8733412442067
 30
0.0
 10
140.8155110047446
 20
182.9534216045653
 30
0.0
 10
140.8637840725187
 20
183.0185607924557
 30
0.0
 10
140.880277492918
 20
183.0519551376839
 30
0.0
 10
140.8856666252526
 20
183.0628665521332
 30
0.0
  0
SPLINE
  5
8E64
330
1F
100
AcDbEntity
  8
0
  6
Continuous
 62
     7
370
    13
100
AcDbSpline
210
0.0
220
0.0
230
1.0
 70
     8
 71
     3
 72
    13
 73
     9
 74
     0
 42
0.000000001
 43
0.00000001
 40
0.0
 40
0.0
 40
0.0
 40
0.0
 40
0.1579090811511902
 40
0.3076449903483415
 40
0.4602609539636986
 40
0.6386384411578186
 40
0.8759751052796625
 40
1.0
 40
1.0
 40
1.0
 40
1.0
 10
137.9892998156434
 20
182.8123463295157
 30
0.0
 10
138.0435959463861
 20
182.8180508007292
 30
0.0
 10
138.1493779096305
 20
182.8291644870265
 30
0.0
 10
138.2680193735429
 20
182.9073657349623
 30
0.0
 10
138.3445700974839
 20
182.9892413845455
 30
0.0
 10
138.3965308436808
 20
183.0752432301309
 30
0.0
 10
138.4279631324454
 20
183.1444900436368
 30
0.0
 10
138.441885289707
 20
183.1933157619264
 30
0.0
 10
138.4466635901277
 20
183.2100735061366
 30
0.0
  0
SPLINE
  5
8E65
330
1F
100
AcDbEntity
  8
0
  6
Continuous
 62
     7
370
    13
100
AcDbSpline
210
0.0
220
0.0
230
1.0
 70
     8
 71
     3
 72
    12
 73
     8
 74
     0
 42
0.000000001
 43
0.00000001
 40
0.0
 40
0.0
 40
0.0
 40
0.0
 40
0.2317928772116772
 40
0.4703982386274271
 40
0.6967349234812555
 40
0.9202093602494884
 40
1.0
 40
1.0
 40
1.0
 40
1.0
 10
139.648167319992
 20
196.0327932799976
 30
0.0
 10
139.6379014032389
 20
196.0547304181377
 30
0.0
 10
139.617067850385
 20
196.0992494355717
 30
0.0
 10
139.5545194192205
 20
196.1812196411779
 30
0.0
 10
139.450157913419
 20
196.2618294783388
 30
0.0
 10
139.3300856390052
 20
196.3138152965725
 30
0.0
 10
139.2579788874044
 20
196.3050331961738
 30
0.0
 10
139.2390072210767
 20
196.3027225792798
 30
0.0
  0
SPLINE
  5
8E66
330
1F
100
AcDbEntity
  8
0
  6
Continuous
 62
     7
370
    13
100
AcDbSpline
210
0.0
220
0.0
230
1.0
 70
     8
 71
     3
 72
    12
 73
     8
 74
     0
 42
0.000000001
 43
0.00000001
 40
0.0
 40
0.0
 40
0.0
 40
0.0
 40
0.0559921891704287
 40
0.3670859155637927
 40
0.6013564580330121
 40
0.829956649601309
 40
1.0
 40
1.0
 40
1.0
 40
1.0
 10
142.1479875426824
 20
196.0361111443158
 30
0.0
 10
142.1459133871566
 20
196.0411909862901
 30
0.0
 10
142.1323151819153
 20
196.0744945321893
 30
0.0
 10
142.0906488879227
 20
196.139058941167
 30
0.0
 10
141.9984731203222
 20
196.2307769424912
 30
0.0
 10
141.8751585659235
 20
196.300905599892
 30
0.0
 10
141.7802991551104
 20
196.3037681920216
 30
0.0
 10
141.7398364099924
 20
196.3049892446797
 30
0.0
  0
SPLINE
  5
8E67
330
1F
100
AcDbEntity
  8
0
  6
Continuous
 62
     7
370
    13
100
AcDbSpline
210
0.0
220
0.0
230
1.0
 70
     8
 71
     3
 72
    12
 73
     8
 74
     0
 42
0.000000001
 43
0.00000001
 40
0.0
 40
0.0
 40
0.0
 40
0.0
 40
0.1901623905850618
 40
0.4515124600616349
 40
0.7000092634414572
 40
0.9464949753668288
 40
0.9999999999999999
 40
0.9999999999999999
 40
0.9999999999999999
 40
0.9999999999999999
 10
144.6332131253101
 20
196.0603217853821
 30
0.0
 10
144.6250611434638
 20
196.0768839027416
 30
0.0
 10
144.605705468735
 20
196.1162081998845
 30
0.0
 10
144.5426538665351
 20
196.1935692017226
 30
0.0
 10
144.4318629185888
 20
196.2713838916167
 30
0.0
 10
144.3144041117749
 20
196.3168831935305
 30
0.0
 10
144.2505060539106
 20
196.3069458155596
 30
0.0
 10
144.2391094781386
 20
196.3051734286545
 30
0.0
  0
SPLINE
  5
8E68
330
1F
100
AcDbEntity
  8
0
  6
Continuous
 62
     7
370
    13
100
AcDbSpline
210
0.0
220
0.0
230
1.0
 70
     8
 71
     3
 72
    13
 73
     9
 74
     0
 42
0.000000001
 43
0.00000001
 40
0.0
 40
0.0
 40
0.0
 40
0.0
 40
0.0676033259696571
 40
0.3899255123806849
 40
0.5826532772163142
 40
0.7485621204643009
 40
0.9104058040020636
 40
1.0
 40
1.0
 40
1.0
 40
1.0
 10
147.1930558740202
 20
195.9230035431608
 30
0.0
 10
147.19063522766
 20
195.9321898236344
 30
0.0
 10
147.1766733144146
 20
195.9851748664434
 30
0.0
 10
147.1437258540633
 20
196.054369943934
 30
0.0
 10
147.0742042733576
 20
196.160056733204
 30
0.0
 10
146.9753968183708
 20
196.2468498138844
 30
0.0
 10
146.8534233781523
 20
196.3072453442258
 30
0.0
 10
146.7694359774837
 20
196.3042462772955
 30
0.0
 10
146.7395089686705
 20
196.3031776276917
 30
0.0
  0
SPLINE
  5
8E69
330
1F
100
AcDbEntity
  8
0
  6
Continuous
 62
     7
370
    13
100
AcDbSpline
210
0.0
220
0.0
230
1.0
 70
     8
 71
     3
 72
    11
 73
     7
 74
     0
 42
0.000000001
 43
0.00000001
 40
0.0
 40
0.0
 40
0.0
 40
0.0
 40
0.2566122281920979
 40
0.5156611745649464
 40
0.7666696651540286
 40
1.0
 40
1.0
 40
1.0
 40
1.0
 10
149.6314111686441
 20
196.0629592909283
 30
0.0
 10
149.6196593521718
 20
196.0856822917686
 30
0.0
 10
149.5960441272537
 20
196.1313440647305
 30
0.0
 10
149.5180142955824
 20
196.2147683056496
 30
0.0
 10
149.3967145578358
 20
196.2934247701795
 30
0.0
 10
149.2920069853586
 20
196.3038285300322
 30
0.0
 10
149.2415640894685
 20
196.3088405436116
 30
0.0
  0
LINE
  5
8E6A
330
1F
100
AcDbEntity
  8
0
  6
Continuous
 62
     7
370
    13
100
AcDbLine
 10
149.9135344155472
 20
182.8107410911913
 30
0.0
 11
152.0763417786472
 21
182.8107410911913
 31
0.0
  0
LINE
  5
8E6B
330
1F
100
AcDbEntity
  8
0
  6
Continuous
 62
     7
370
    13
100
AcDbLine
 10
147.4135013539473
 20
182.8107410911913
 30
0.0
 11
147.9891704528472
 21
182.8107410911913
 31
0.0
  0
LINE
  5
8E6C
330
1F
100
AcDbEntity
  8
0
  6
Continuous
 62
     7
370
    13
100
AcDbLine
 10
144.9135620215472
 20
182.8107410911913
 30
0.0
 11
145.4891674202473
 21
182.8107410911913
 31
0.0
  0
LINE
  5
8E6D
330
1F
100
AcDbEntity
  8
0
  6
Continuous
 62
     7
370
    13
100
AcDbLine
 10
142.4135398804472
 20
182.8107410911913
 30
0.0
 11
142.9891550581472
 21
182.8107410911913
 31
0.0
  0
LINE
  5
8E6E
330
1F
100
AcDbEntity
  8
0
  6
Continuous
 62
     7
370
    13
100
AcDbLine
 10
139.9134857292473
 20
182.8107410911913
 30
0.0
 11
140.4891510309473
 21
182.8107410911913
 31
0.0
  0
LINE
  5
8E6F
330
1F
100
AcDbEntity
  8
0
  6
Continuous
 62
     7
370
    13
100
AcDbLine
 10
137.4763417786472
 20
182.8107410911913
 30
0.0
 11
137.9891449985473
 21
182.8107410911913
 31
0.0
  0
LINE
  5
8E70
330
1F
100
AcDbEntity
  8
0
  6
Continuous
 62
     7
370
    13
100
AcDbLine
 10
139.2391312984473
 20
196.3107410911913
 30
0.0
 11
138.6635282527473
 21
196.3107410911913
 31
0.0
  0
LINE
  5
8E71
330
1F
100
AcDbEntity
  8
0
  6
Continuous
 62
     7
370
    13
100
AcDbLine
 10
141.7391716835472
 20
196.3107410911913
 30
0.0
 11
141.1635758278472
 21
196.3107410911913
 31
0.0
  0
LINE
  5
8E72
330
1F
100
AcDbEntity
  8
0
  6
Continuous
 62
     7
370
    13
100
AcDbLine
 10
144.2391336587472
 20
196.3107410911913
 30
0.0
 11
143.6635349787472
 21
196.3107410911913
 31
0.0
  0
LINE
  5
8E73
330
1F
100
AcDbEntity
  8
0
  6
Continuous
 62
     7
370
    13
100
AcDbLine
 10
146.7391472572472
 20
196.3107410911913
 30
0.0
 11
146.1635345287472
 21
196.3107410911913
 31
0.0
  0
LINE
  5
8E74
330
1F
100
AcDbEntity
  8
0
  6
Continuous
 62
     7
370
    13
100
AcDbLine
 10
149.2391594916472
 20
196.3107410911913
 30
0.0
 11
148.6635675553472
 21
196.3107410911913
 31
0.0
  0
LINE
  5
8E75
330
1F
100
AcDbEntity
  8
0
  6
Continuous
 62
     7
370
    13
100
AcDbLine
 10
152.0763417786472
 20
196.3107410911913
 30
0.0
 11
151.1635386977472
 21
196.3107410911913
 31
0.0
  0
ARC
  5
8E76
330
1F
100
AcDbEntity
  8
0
  6
Continuous
 62
     7
370
    13
100
AcDbCircle
 10
137.4763417458473
 20
195.1894573720913
 30
0.0
 40
0.3999999672204856
100
AcDbArc
 50
75.4483000983056
 51
180.0005780332003
  0
SPLINE
  5
8E77
330
1F
100
AcDbEntity
  8
0
  6
Continuous
 62
     7
370
    13
100
AcDbSpline
210
0.0
220
0.0
230
1.0
 70
     8
 71
     3
 72
    15
 73
    11
 74
     0
 42
0.000000001
 43
0.00000001
 40
0.0
 40
0.0
 40
0.0
 40
0.0
 40
0.1601473626137435
 40
0.2642500128215413
 40
0.3263492148970438
 40
0.3555655116687855
 40
0.3745382008077381
 40
0.3973525091543592
 40
0.4595213521746719
 40
1.0
 40
1.0
 40
1.0
 40
1.0
 10
138.4664825800548
 20
183.2772271180759
 30
0.0
 10
138.5030320793053
 20
183.3532213981237
 30
0.0
 10
138.5633403197156
 20
183.4786152175987
 30
0.0
 10
138.7108223013576
 20
183.5801157240939
 30
0.0
 10
138.80653978726
 20
183.6143855787981
 30
0.0
 10
138.874152571827
 20
183.6303005238308
 30
0.0
 10
138.9222584645053
 20
183.6374975152578
 30
0.0
 10
138.9729340948168
 20
183.6349902524297
 30
0.0
 10
139.1578873641145
 20
183.57180149294
 30
0.0
 10
139.2314742827285
 20
183.4948836362187
 30
0.0
 10
139.2974700080476
 20
183.4259005908632
 30
0.0
  0
SPLINE
  5
8E78
330
1F
100
AcDbEntity
  8
0
  6
Continuous
 62
     7
370
    13
100
AcDbSpline
210
0.0
220
0.0
230
1.0
 70
     8
 71
     3
 72
    15
 73
    11
 74
     0
 42
0.000000001
 43
0.00000001
 40
0.0
 40
0.0
 40
0.0
 40
0.0
 40
0.1601473626137422
 40
0.2642500128215434
 40
0.3263492148970477
 40
0.3555655116687861
 40
0.3745382008077341
 40
0.3973525091543587
 40
0.4595213521746705
 40
1.0
 40
1.0
 40
1.0
 40
1.0
 10
140.9664825800548
 20
183.2772271180759
 30
0.0
 10
141.0030320793053
 20
183.3532213981237
 30
0.0
 10
141.0633403197156
 20
183.4786152175987
 30
0.0
 10
141.2108223013576
 20
183.5801157240939
 30
0.0
 10
141.30653978726
 20
183.6143855787981
 30
0.0
 10
141.3741525718269
 20
183.6303005238308
 30
0.0
 10
141.4222584645053
 20
183.6374975152578
 30
0.0
 10
141.4729340948168
 20
183.6349902524297
 30
0.0
 10
141.6578873641145
 20
183.57180149294
 30
0.0
 10
141.7314742827285
 20
183.4948836362187
 30
0.0
 10
141.7974700080476
 20
183.4259005908632
 30
0.0
  0
SPLINE
  5
8E79
330
1F
100
AcDbEntity
  8
0
  6
Continuous
 62
     7
370
    13
100
AcDbSpline
210
0.0
220
0.0
230
1.0
 70
     8
 71
     3
 72
    15
 73
    11
 74
     0
 42
0.000000001
 43
0.00000001
 40
0.0
 40
0.0
 40
0.0
 40
0.0
 40
0.1601473626137438
 40
0.2642500128215378
 40
0.3263492148970505
 40
0.3555655116687899
 40
0.3745382008077431
 40
0.3973525091543674
 40
0.4595213521746741
 40
1.0
 40
1.0
 40
1.0
 40
1.0
 10
143.4664825800548
 20
183.2772271180759
 30
0.0
 10
143.5030320793053
 20
183.3532213981237
 30
0.0
 10
143.5633403197156
 20
183.4786152175987
 30
0.0
 10
143.7108223013576
 20
183.5801157240939
 30
0.0
 10
143.80653978726
 20
183.6143855787981
 30
0.0
 10
143.874152571827
 20
183.6303005238308
 30
0.0
 10
143.9222584645053
 20
183.6374975152578
 30
0.0
 10
143.9729340948168
 20
183.6349902524297
 30
0.0
 10
144.1578873641145
 20
183.57180149294
 30
0.0
 10
144.2314742827285
 20
183.4948836362187
 30
0.0
 10
144.2974700080476
 20
183.4259005908632
 30
0.0
  0
SPLINE
  5
8E7A
330
1F
100
AcDbEntity
  8
0
  6
Continuous
 62
     7
370
    13
100
AcDbSpline
210
0.0
220
0.0
230
1.0
 70
     8
 71
     3
 72
    15
 73
    11
 74
     0
 42
0.000000001
 43
0.00000001
 40
0.0
 40
0.0
 40
0.0
 40
0.0
 40
0.1601473626137344
 40
0.2642500128215429
 40
0.32634921489704
 40
0.3555655116687848
 40
0.3745382008077324
 40
0.3973525091543573
 40
0.4595213521746633
 40
1.0
 40
1.0
 40
1.0
 40
1.0
 10
145.9664825800548
 20
183.2772271180759
 30
0.0
 10
146.0030320793053
 20
183.3532213981237
 30
0.0
 10
146.0633403197156
 20
183.4786152175987
 30
0.0
 10
146.2108223013574
 20
183.5801157240939
 30
0.0
 10
146.30653978726
 20
183.6143855787981
 30
0.0
 10
146.3741525718269
 20
183.6303005238308
 30
0.0
 10
146.4222584645053
 20
183.6374975152578
 30
0.0
 10
146.4729340948168
 20
183.6349902524297
 30
0.0
 10
146.6578873641145
 20
183.57180149294
 30
0.0
 10
146.7314742827285
 20
183.4948836362187
 30
0.0
 10
146.7974700080476
 20
183.4259005908632
 30
0.0
  0
SPLINE
  5
8E7B
330
1F
100
AcDbEntity
  8
0
  6
Continuous
 62
     7
370
    13
100
AcDbSpline
210
0.0
220
0.0
230
1.0
 70
     8
 71
     3
 72
    15
 73
    11
 74
     0
 42
0.000000001
 43
0.00000001
 40
0.0
 40
0.0
 40
0.0
 40
0.0
 40
0.1601473626137431
 40
0.2642500128215449
 40
0.326349214897042
 40
0.3555655116687873
 40
0.3745382008077399
 40
0.3973525091543558
 40
0.4595213521746626
 40
1.0
 40
1.0
 40
1.0
 40
1.0
 10
148.466482580055
 20
183.2772271180759
 30
0.0
 10
148.5030320793053
 20
183.3532213981237
 30
0.0
 10
148.5633403197156
 20
183.4786152175987
 30
0.0
 10
148.7108223013574
 20
183.5801157240939
 30
0.0
 10
148.80653978726
 20
183.6143855787981
 30
0.0
 10
148.8741525718269
 20
183.6303005238308
 30
0.0
 10
148.9222584645053
 20
183.6374975152578
 30
0.0
 10
148.9729340948168
 20
183.6349902524297
 30
0.0
 10
149.1578873641145
 20
183.57180149294
 30
0.0
 10
149.2314742827285
 20
183.4948836362187
 30
0.0
 10
149.2974700080476
 20
183.4259005908632
 30
0.0
  0
SPLINE
  5
8E7C
330
1F
100
AcDbEntity
  8
0
  6
Continuous
 62
     7
370
    13
100
AcDbSpline
210
0.0
220
0.0
230
1.0
 70
     8
 71
     3
 72
    17
 73
    13
 74
     0
 42
0.000000001
 43
0.00000001
 40
0.0
 40
0.0
 40
0.0
 40
0.0
 40
0.1695927189000615
 40
0.2984874198374887
 40
0.3923857709552346
 40
0.4424634374498958
 40
0.4765924661962733
 40
0.5397710204503859
 40
0.5828675352132631
 40
0.6302657367315625
 40
0.7839449778964356
 40
1.0
 40
1.0
 40
1.0
 40
1.0
 10
140.7066455397165
 20
195.9195567385851
 30
0.0
 10
140.6801622867869
 20
195.8614915506592
 30
0.0
 10
140.6335511003682
 20
195.7592953700754
 30
0.0
 10
140.5079381761208
 20
195.6524292701387
 30
0.0
 10
140.4044853191772
 20
195.5996020328884
 30
0.0
 10
140.3271044356505
 20
195.5756256060095
 30
0.0
 10
140.2492322908365
 20
195.5602559485821
 30
0.0
 10
140.1450266898203
 20
195.5595721562338
 30
0.0
 10
140.0485886424333
 20
195.5825559685446
 30
0.0
 10
139.9220730420658
 20
195.6336630901285
 30
0.0
 10
139.7675037898928
 20
195.7609943512732
 30
0.0
 10
139.7204070037183
 20
195.8674045112133
 30
0.0
 10
139.6928858941301
 20
195.9295855199591
 30
0.0
  0
SPLINE
  5
8E7D
330
1F
100
AcDbEntity
  8
0
  6
Continuous
 62
     7
370
    13
100
AcDbSpline
210
0.0
220
0.0
230
1.0
 70
     8
 71
     3
 72
    17
 73
    13
 74
     0
 42
0.000000001
 43
0.00000001
 40
0.0
 40
0.0
 40
0.0
 40
0.0
 40
0.1748054688296158
 40
0.3076619898710632
 40
0.4044464827191225
 40
0.4560633801087463
 40
0.4912414284907991
 40
0.5563618939683008
 40
0.600783060849218
 40
0.6496381348867399
 40
0.8080409954307539
 40
1.0
 40
1.0
 40
1.0
 40
1.0
 10
143.2066455397165
 20
195.9195567385851
 30
0.0
 10
143.1801622769202
 20
195.8614915513673
 30
0.0
 10
143.1335510731357
 20
195.7592953720298
 30
0.0
 10
143.0079382465963
 20
195.6524292650808
 30
0.0
 10
142.9044851678271
 20
195.5996020437506
 30
0.0
 10
142.8271046833016
 20
195.575625588236
 30
0.0
 10
142.749231466236
 20
195.5602560077624
 30
0.0
 10
142.6450320369805
 20
195.5595717724767
 30
0.0
 10
142.5485752544981
 20
195.582556929375
 30
0.0
 10
142.4221829229103
 20
195.6336552041583
 30
0.0
 10
142.2769100539949
 20
195.7520095607034
 30
0.0
 10
142.2327264770678
 20
195.8499009261013
 30
0.0
 10
142.2085188326586
 20
195.9035344145851
 30
0.0
  0
SPLINE
  5
8E7E
330
1F
100
AcDbEntity
  8
0
  6
Continuous
 62
     7
370
    13
100
AcDbSpline
210
0.0
220
0.0
230
1.0
 70
     8
 71
     3
 72
    17
 73
    13
 74
     0
 42
0.000000001
 43
0.00000001
 40
0.0
 40
0.0
 40
0.0
 40
0.0
 40
0.1695927189000579
 40
0.2984874198374947
 40
0.3923857709552324
 40
0.4424634374498889
 40
0.4765924661962757
 40
0.5397710204503846
 40
0.5828675352132585
 40
0.6302657367315659
 40
0.783944977896435
 40
1.0
 40
1.0
 40
1.0
 40
1.0
 10
145.7066455397165
 20
195.9195567385851
 30
0.0
 10
145.6801622867869
 20
195.8614915506592
 30
0.0
 10
145.6335511003682
 20
195.7592953700754
 30
0.0
 10
145.5079381761209
 20
195.6524292701387
 30
0.0
 10
145.4044853191772
 20
195.5996020328884
 30
0.0
 10
145.3271044356505
 20
195.5756256060095
 30
0.0
 10
145.2492322908365
 20
195.5602559485821
 30
0.0
 10
145.1450266898203
 20
195.5595721562338
 30
0.0
 10
145.0485886424332
 20
195.5825559685446
 30
0.0
 10
144.9220730420658
 20
195.6336630901285
 30
0.0
 10
144.7675037898928
 20
195.7609943512732
 30
0.0
 10
144.7204070037183
 20
195.8674045112133
 30
0.0
 10
144.6928858941301
 20
195.9295855199591
 30
0.0
  0
SPLINE
  5
8E7F
330
1F
100
AcDbEntity
  8
0
  6
Continuous
 62
     7
370
    13
100
AcDbSpline
210
0.0
220
0.0
230
1.0
 70
     8
 71
     3
 72
    17
 73
    13
 74
     0
 42
0.000000001
 43
0.00000001
 40
0.0
 40
0.0
 40
0.0
 40
0.0
 40
0.1695927189000576
 40
0.2984874198374945
 40
0.392385770955241
 40
0.4424634374499063
 40
0.476592466196285
 40
0.5397710204503936
 40
0.5828675352132677
 40
0.6302657367315754
 40
0.7839449778964441
 40
0.9999999999999999
 40
0.9999999999999999
 40
0.9999999999999999
 40
0.9999999999999999
 10
148.2066455397165
 20
195.9195567385851
 30
0.0
 10
148.1801622867869
 20
195.8614915506592
 30
0.0
 10
148.133551100368
 20
195.7592953700754
 30
0.0
 10
148.0079381761209
 20
195.6524292701387
 30
0.0
 10
147.9044853191772
 20
195.5996020328884
 30
0.0
 10
147.8271044356505
 20
195.5756256060095
 30
0.0
 10
147.7492322908365
 20
195.5602559485821
 30
0.0
 10
147.6450266898203
 20
195.5595721562338
 30
0.0
 10
147.5485886424332
 20
195.5825559685446
 30
0.0
 10
147.4220730420658
 20
195.6336630901285
 30
0.0
 10
147.2675037898928
 20
195.7609943512732
 30
0.0
 10
147.2204070037183
 20
195.8674045112133
 30
0.0
 10
147.1928858941301
 20
195.9295855199591
 30
0.0
  0
SPLINE
  5
8E80
330
1F
100
AcDbEntity
  8
0
  6
Continuous
 62
     7
370
    13
100
AcDbSpline
210
0.0
220
0.0
230
1.0
 70
     8
 71
     3
 72
    17
 73
    13
 74
     0
 42
0.000000001
 43
0.00000001
 40
0.0
 40
0.0
 40
0.0
 40
0.0
 40
0.1743706474426938
 40
0.3068966933729757
 40
0.4034404387908077
 40
0.4549289412791514
 40
0.4900194857181674
 40
0.5549779667262686
 40
0.5992886377884743
 40
0.6480221868462925
 40
0.8060310268143008
 40
1.0
 40
1.0
 40
1.0
 40
1.0
 10
150.7066455397165
 20
195.9195567385851
 30
0.0
 10
150.6801622777909
 20
195.8614915513048
 30
0.0
 10
150.6335510755392
 20
195.7592953718573
 30
0.0
 10
150.5079382403765
 20
195.6524292655271
 30
0.0
 10
150.4044851811846
 20
195.599602042792
 30
0.0
 10
150.3271046614452
 20
195.5756255898045
 30
0.0
 10
150.249231539011
 20
195.5602560025394
 30
0.0
 10
150.1450315650677
 20
195.5595718063452
 30
0.0
 10
150.0485764360484
 20
195.582556844577
 30
0.0
 10
149.9221732253923
 20
195.6336559001335
 30
0.0
 10
149.7761486556137
 20
195.7527383668101
 30
0.0
 10
149.7317292953164
 20
195.8513208157769
 30
0.0
 10
149.7072505430073
 20
195.9056479230139
 30
0.0
  0
SPLINE
  5
8E81
330
1F
100
AcDbEntity
  8
0
  6
Continuous
 62
     7
370
    13
100
AcDbSpline
210
0.0
220
0.0
230
1.0
 70
     8
 71
     3
 72
     9
 73
     5
 74
     0
 42
0.000000001
 43
0.00000001
 40
0.0
 40
0.0
 40
0.0
 40
0.0
 40
0.5975164240005915
 40
0.9999999999999999
 40
0.9999999999999999
 40
0.9999999999999999
 40
0.9999999999999999
 10
141.7974700080476
 20
183.4259005908632
 30
0.0
 10
141.82450532677
 20
183.4053768542908
 30
0.0
 10
141.8697514784008
 20
183.3710284485433
 30
0.0
 10
141.8897541236684
 20
183.3806807250591
 30
0.0
 10
141.8978048598651
 20
183.3845656078277
 30
0.0
  0
SPLINE
  5
8E82
330
1F
100
AcDbEntity
  8
0
  6
Continuous
 62
     7
370
    13
100
AcDbSpline
210
0.0
220
0.0
230
1.0
 70
     8
 71
     3
 72
     9
 73
     5
 74
     0
 42
0.000000001
 43
0.00000001
 40
0.0
 40
0.0
 40
0.0
 40
0.0
 40
0.5975164240008564
 40
1.0
 40
1.0
 40
1.0
 40
1.0
 10
144.2974700080476
 20
183.4259005908632
 30
0.0
 10
144.32450532677
 20
183.4053768542908
 30
0.0
 10
144.3697514784006
 20
183.3710284485433
 30
0.0
 10
144.3897541236684
 20
183.3806807250591
 30
0.0
 10
144.3978048598651
 20
183.3845656078277
 30
0.0
  0
SPLINE
  5
8E83
330
1F
100
AcDbEntity
  8
0
  6
Continuous
 62
     7
370
    13
100
AcDbSpline
210
0.0
220
0.0
230
1.0
 70
     8
 71
     3
 72
     9
 73
     5
 74
     0
 42
0.000000001
 43
0.00000001
 40
0.0
 40
0.0
 40
0.0
 40
0.0
 40
0.5975164240008658
 40
1.0
 40
1.0
 40
1.0
 40
1.0
 10
146.7974700080476
 20
183.4259005908632
 30
0.0
 10
146.82450532677
 20
183.4053768542908
 30
0.0
 10
146.8697514784006
 20
183.3710284485433
 30
0.0
 10
146.8897541236684
 20
183.3806807250591
 30
0.0
 10
146.8978048598651
 20
183.3845656078277
 30
0.0
  0
SPLINE
  5
8E84
330
1F
100
AcDbEntity
  8
0
  6
Continuous
 62
     7
370
    13
100
AcDbSpline
210
0.0
220
0.0
230
1.0
 70
     8
 71
     3
 72
     9
 73
     5
 74
     0
 42
0.000000001
 43
0.00000001
 40
0.0
 40
0.0
 40
0.0
 40
0.0
 40
0.5975164240005818
 40
1.0
 40
1.0
 40
1.0
 40
1.0
 10
149.2974700080476
 20
183.4259005908632
 30
0.0
 10
149.32450532677
 20
183.4053768542908
 30
0.0
 10
149.3697514784006
 20
183.3710284485433
 30
0.0
 10
149.3897541236684
 20
183.3806807250591
 30
0.0
 10
149.3978048598651
 20
183.3845656078277
 30
0.0
  0
SPLINE
  5
8E85
330
1F
100
AcDbEntity
  8
0
  6
Continuous
 62
     7
370
    13
100
AcDbSpline
210
0.0
220
0.0
230
1.0
 70
     8
 71
     3
 72
     9
 73
     5
 74
     0
 42
0.000000001
 43
0.00000001
 40
0.0
 40
0.0
 40
0.0
 40
0.0
 40
0.5975164240008632
 40
1.0
 40
1.0
 40
1.0
 40
1.0
 10
139.2974700080476
 20
183.4259005908632
 30
0.0
 10
139.32450532677
 20
183.4053768542908
 30
0.0
 10
139.3697514784006
 20
183.3710284485433
 30
0.0
 10
139.3897541236684
 20
183.3806807250591
 30
0.0
 10
139.3978048598651
 20
183.3845656078277
 30
0.0
  0
SPLINE
  5
8E86
330
1F
100
AcDbEntity
  8
0
  6
Continuous
 62
     7
370
    13
100
AcDbSpline
210
0.0
220
0.0
230
1.0
 70
     8
 71
     3
 72
    14
 73
    10
 74
     0
 42
0.000000001
 43
0.00000001
 40
0.0
 40
0.0
 40
0.0
 40
0.0
 40
0.297738698843404
 40
0.5240275442244029
 40
0.6888764426126274
 40
0.7767933022510485
 40
0.8367105715633227
 40
0.9476274827398702
 40
1.0
 40
1.0
 40
1.0
 40
1.0
 10
138.2066455397165
 20
195.9195567385851
 30
0.0
 10
138.1801653849994
 20
195.8614941223096
 30
0.0
 10
138.1335596515123
 20
195.7593024678949
 30
0.0
 10
138.0079160463271
 20
195.6524109014526
 30
0.0
 10
137.9045328442429
 20
195.5996414807485
 30
0.0
 10
137.827026671311
 20
195.5755610582443
 30
0.0
 10
137.7494912216445
 20
195.5604708723521
 30
0.0
 10
137.6533757965764
 20
195.558395052534
 30
0.0
 10
137.5966322728377
 20
195.5729666255769
 30
0.0
 10
137.578432679607
 20
195.5776402285652
 30
0.0
  0
LINE
  5
8E88
330
1F
100
AcDbEntity
  8
0
  6
Continuous
 62
     7
370
    13
100
AcDbLine
 10
134.58
 20
187.0607410911913
 30
0.0
 11
137.0763417786472
 21
185.4530415988817
 31
0.0
  0
ARC
  5
8E89
330
1F
100
AcDbEntity
  8
0
  6
Continuous
 62
     7
370
    13
100
AcDbCircle
 10
135.58
 20
189.5607410911913
 30
0.0
 40
2.499999999999998
100
AcDbArc
 50
113.5781784782004
 51
246.4218215217996
  0
ARC
  5
8E8A
330
1F
100
AcDbEntity
  8
0
  6
Continuous
 62
     7
370
    13
100
AcDbCircle
 10
137.4763417786472
 20
183.2107410911913
 30
0.0
 40
0.4000000000000057
100
AcDbArc
 50
180.0
 51
270.0
  0
ARC
  5
8E8B
330
1F
100
AcDbEntity
  8
0
  6
Continuous
 62
     7
370
    13
100
AcDbCircle
 10
197.5763417786472
 20
189.5607410911913
 30
0.0
 40
22.50000000000002
100
AcDbArc
 50
270.0
 51
111.0394697813001
  0
ARC
  5
8E8C
330
1F
100
AcDbEntity
  8
0
  6
Continuous
 62
     7
370
    13
100
AcDbCircle
 10
197.5763417786472
 20
189.5607410911913
 30
0.0
 40
22.50000000000004
100
AcDbArc
 50
117.6663578336001
 51
124.6408451923001
  0
ARC
  5
8E8D
330
1F
100
AcDbEntity
  8
0
  6
Continuous
 62
     7
370
    13
100
AcDbCircle
 10
197.5763417786472
 20
189.5607410911913
 30
0.0
 40
22.50000000000004
100
AcDbArc
 50
235.3591548076999
 51
242.3336421663999
  0
ARC
  5
8E8E
330
1F
100
AcDbEntity
  8
0
  6
Continuous
 62
     7
370
    13
100
AcDbCircle
 10
197.5763417786472
 20
189.5607410911913
 30
0.0
 40
22.50000000000002
100
AcDbArc
 50
248.9605302186999
 51
270.0
  0
LINE
  5
8E8F
330
1F
100
AcDbEntity
  8
0
  6
Continuous
 62
     7
370
    13
100
AcDbLine
 10
188.5763417786472
 20
168.5607410911913
 30
0.0
 11
188.5763417786472
 21
210.5607410911913
 31
0.0
  0
LINE
  5
8E90
330
1F
100
AcDbEntity
  8
0
  6
Continuous
 62
     7
370
    13
100
AcDbLine
 10
189.4985945679472
 20
168.5607410911913
 30
0.0
 11
189.4985945679472
 21
210.5607410911913
 31
0.0
  0
LINE
  5
8E91
330
1F
100
AcDbEntity
  8
0
  6
Continuous
 62
     7
370
    13
100
AcDbLine
 10
159.0763417786472
 20
181.0607411023913
 30
0.0
 11
159.0763417786472
 21
198.0607409983913
 31
0.0
  0
LINE
  5
8E92
330
1F
100
AcDbEntity
  8
0
  6
Continuous
 62
     7
370
    13
100
AcDbLine
 10
152.0763417786472
 20
181.0607410911913
 30
0.0
 11
152.0763417786472
 21
198.0607410911913
 31
0.0
  0
ARC
  5
8E93
330
1F
100
AcDbEntity
  8
0
  6
Continuous
 62
     7
370
    13
100
AcDbCircle
 10
137.4798256188473
 20
183.2962478421913
 30
0.0
 40
0.4036117087987556
100
AcDbArc
 50
198.4729448802008
 51
269.5054360085991
  0
SPLINE
  5
8E94
330
1F
100
AcDbEntity
  8
0
  6
Continuous
 62
     7
370
    13
100
AcDbSpline
210
0.0
220
0.0
230
1.0
 70
     8
 71
     3
 72
    12
 73
     8
 74
     0
 42
0.000000001
 43
0.00000001
 40
0.0
 40
0.0
 40
0.0
 40
0.0
 40
0.2303477583817259
 40
0.4121239741954599
 40
0.5969889990365633
 40
0.8799665599421858
 40
1.0
 40
1.0
 40
1.0
 40
1.0
 10
140.5507121982823
 20
194.9461655413965
 30
0.0
 10
140.5651673589749
 20
195.0753496810242
 30
0.0
 10
140.591029639182
 20
195.3064779602852
 30
0.0
 10
140.6278307790197
 20
195.5523352701239
 30
0.0
 10
140.6667479825757
 20
195.7741299488218
 30
0.0
 10
140.7023560956603
 20
195.9293080403659
 30
0.0
 10
140.7275582348361
 20
195.9650316082372
 30
0.0
 10
140.7350644802111
 20
195.9756715727357
 30
0.0
  0
SPLINE
  5
8E95
330
1F
100
AcDbEntity
  8
0
  6
Continuous
 62
     7
370
    13
100
AcDbSpline
210
0.0
220
0.0
230
1.0
 70
     8
 71
     3
 72
    12
 73
     8
 74
     0
 42
0.000000001
 43
0.00000001
 40
0.0
 40
0.0
 40
0.0
 40
0.0
 40
0.2617787472561053
 40
0.4448161241657619
 40
0.6309646829117042
 40
0.9931788594872176
 40
0.9999999999999999
 40
0.9999999999999999
 40
0.9999999999999999
 40
0.9999999999999999
 10
148.0550402249995
 20
194.9862820318567
 30
0.0
 10
148.0713407801363
 20
195.1270765984307
 30
0.0
 10
148.0990387878384
 20
195.3663156278152
 30
0.0
 10
148.1374599107087
 20
195.6114947730411
 30
0.0
 10
148.1807044313398
 20
195.8419611031539
 30
0.0
 10
148.2146976975839
 20
195.9686050039464
 30
0.0
 10
148.2376183091155
 20
195.9945220911985
 30
0.0
 10
148.2380419669734
 20
195.9950011350342
 30
0.0
  0
SPLINE
  5
8E96
330
1F
100
AcDbEntity
  8
0
  6
Continuous
 62
     7
370
    13
100
AcDbSpline
210
0.0
220
0.0
230
1.0
 70
     8
 71
     3
 72
     9
 73
     5
 74
     0
 42
0.000000001
 43
0.00000001
 40
0.0
 40
0.0
 40
0.0
 40
0.0
 40
0.976221437166642
 40
1.0
 40
1.0
 40
1.0
 40
1.0
 10
149.6926298642891
 20
195.8988037185925
 30
0.0
 10
149.6841094651128
 20
195.9392158716933
 30
0.0
 10
149.6753815281386
 20
195.9806123741284
 30
0.0
 10
149.6663737718815
 20
195.9924817158125
 30
0.0
 10
149.6661595803835
 20
195.9927639516995
 30
0.0
  0
SPLINE
  5
8E97
330
1F
100
AcDbEntity
  8
0
  6
Continuous
 62
     7
370
    13
100
AcDbSpline
210
0.0
220
0.0
230
1.0
 70
     8
 71
     3
 72
    13
 73
     9
 74
     0
 42
0.000000001
 43
0.00000001
 40
0.0
 40
0.0
 40
0.0
 40
0.0
 40
0.2488447859363513
 40
0.358922515040837
 40
0.4656909861887911
 40
0.8251192287628416
 40
0.9351994287814541
 40
1.0
 40
1.0
 40
1.0
 40
1.0
 10
148.6486598405895
 20
184.630560900926
 30
0.0
 10
148.6289851129355
 20
184.4262615763503
 30
0.0
 10
148.6006071716187
 20
184.1315894291242
 30
0.0
 10
148.5640020021904
 20
183.8435995703622
 30
0.0
 10
148.5190594381531
 20
183.5196449278025
 30
0.0
 10
148.4758763159468
 20
183.291206522426
 30
0.0
 10
148.4343475403409
 20
183.163453638091
 30
0.0
 10
148.4206141387322
 20
183.1392441695617
 30
0.0
 10
148.4155253444484
 20
183.1302735584504
 30
0.0
  0
SPLINE
  5
8E98
330
1F
100
AcDbEntity
  8
0
  6
Continuous
 62
     7
370
    13
100
AcDbSpline
210
0.0
220
0.0
230
1.0
 70
     8
 71
     3
 72
    14
 73
    10
 74
     0
 42
0.000000001
 43
0.00000001
 40
0.0
 40
0.0
 40
0.0
 40
0.0
 40
0.1433388316358647
 40
0.2325086299989274
 40
0.3189347624872204
 40
0.6098775917504644
 40
0.6989801793993263
 40
0.7854683223356432
 40
1.0
 40
1.0
 40
1.0
 40
1.0
 10
146.210783131408
 20
185.3402825649182
 30
0.0
 10
146.1972506512234
 20
185.1647246493518
 30
0.0
 10
146.1752997367902
 20
184.8799537329996
 30
0.0
 10
146.1441876381115
 20
184.5574772386066
 30
0.0
 10
146.0987208117006
 20
184.1109141836273
 30
0.0
 10
146.0530668917842
 20
183.7459909724563
 30
0.0
 10
146.0088568954777
 20
183.4760703283744
 30
0.0
 10
145.9727926318175
 20
183.279169586415
 30
0.0
 10
145.9435846060558
 20
183.2152476956043
 30
0.0
 10
145.9227685456534
 20
183.1696916573084
 30
0.0
  0
SPLINE
  5
8E99
330
1F
100
AcDbEntity
  8
0
  6
Continuous
 62
     7
370
    13
100
AcDbSpline
210
0.0
220
0.0
230
1.0
 70
     8
 71
     3
 72
     9
 73
     5
 74
     0
 42
0.000000001
 43
0.00000001
 40
0.0
 40
0.0
 40
0.0
 40
0.0
 40
0.1500485189176821
 40
1.0
 40
1.0
 40
1.0
 40
1.0
 10
144.6950084543687
 20
195.9156892081082
 30
0.0
 10
144.6935238563335
 20
195.9227502782357
 30
0.0
 10
144.6836297364447
 20
195.9698088575435
 30
0.0
 10
144.6734100166552
 20
195.9837993256516
 30
0.0
 10
144.6647237506838
 20
195.9956905447412
 30
0.0
  0
SPLINE
  5
8E9A
330
1F
100
AcDbEntity
  8
0
  6
Continuous
 62
     7
370
    13
100
AcDbSpline
210
0.0
220
0.0
230
1.0
 70
     8
 71
     3
 72
     9
 73
     5
 74
     0
 42
0.000000001
 43
0.00000001
 40
0.0
 40
0.0
 40
0.0
 40
0.0
 40
0.820143050584664
 40
1.0
 40
1.0
 40
1.0
 40
1.0
 10
143.4700263138847
 20
183.2897059874114
 30
0.0
 10
143.463945579439
 20
183.2606437380299
 30
0.0
 10
143.4565313430551
 20
183.2252081522979
 30
0.0
 10
143.4488567162238
 20
183.214685553753
 30
0.0
 10
143.4474763812541
 20
183.2127929912788
 30
0.0
  0
LINE
  5
8E9B
330
1F
100
AcDbEntity
  8
0
  6
Continuous
 62
     7
370
    13
100
AcDbLine
 10
142.1922204126473
 20
195.8955313690913
 30
0.0
 11
142.1698643737473
 21
195.9669266525913
 31
0.0
  0
SPLINE
  5
8E9C
330
1F
100
AcDbEntity
  8
0
  6
Continuous
 62
     7
370
    13
100
AcDbSpline
210
0.0
220
0.0
230
1.0
 70
     8
 71
     3
 72
    13
 73
     9
 74
     0
 42
0.000000001
 43
0.00000001
 40
0.0
 40
0.0
 40
0.0
 40
0.0
 40
0.2638508286835419
 40
0.3783672758599344
 40
0.4894587697411605
 40
0.8634407997701417
 40
0.9779784899002021
 40
1.0
 40
1.0
 40
1.0
 40
1.0
 10
141.1399269925114
 20
184.5409311887627
 30
0.0
 10
141.1198463284998
 20
184.3387420703034
 30
0.0
 10
141.0910502615043
 20
184.0487988992258
 30
0.0
 10
141.05418097655
 20
183.7706051854178
 30
0.0
 10
141.0094783028068
 20
183.4624969314568
 30
0.0
 10
140.9662481914597
 20
183.2539698495753
 30
0.0
 10
140.9279343354044
 20
183.1474723035264
 30
0.0
 10
140.9176086197
 20
183.1324444217878
 30
0.0
 10
140.9159434967914
 20
183.1300210284981
 30
0.0
  0
SPLINE
  5
8E9D
330
1F
100
AcDbEntity
  8
0
  6
Continuous
 62
     7
370
    13
100
AcDbSpline
210
0.0
220
0.0
230
1.0
 70
     8
 71
     3
 72
     9
 73
     5
 74
     0
 42
0.000000001
 43
0.00000001
 40
0.0
 40
0.0
 40
0.0
 40
0.0
 40
0.4100355771135125
 40
1.0
 40
1.0
 40
1.0
 40
1.0
 10
139.6954458003362
 20
195.9186591641116
 30
0.0
 10
139.692205832839
 20
195.9303854033168
 30
0.0
 10
139.6843041587452
 20
195.9589835051883
 30
0.0
 10
139.6761944261725
 20
195.9612689504787
 30
0.0
 10
139.6714099724753
 20
195.9626172818905
 30
0.0
  0
ARC
  5
8E9E
330
1F
100
AcDbEntity
  8
0
  6
Continuous
 62
     7
370
    13
100
AcDbCircle
 10
137.4326820287473
 20
183.2879564094913
 30
0.0
 40
0.3563402856052852
100
AcDbArc
 50
180.0255929831982
 51
199.6103746209015
  0
SPLINE
  5
8E9F
330
1F
100
AcDbEntity
  8
0
  6
Continuous
 62
     7
370
    13
100
AcDbSpline
210
0.0
220
0.0
230
1.0
 70
    24
 71
     3
 72
    26
 73
    22
 74
     0
 42
0.000000001
 43
0.00000001
 40
0.0
 40
0.0
 40
0.0
 40
0.0
 40
0.0108437227001167
 40
0.0633954698569154
 40
0.1160701010371157
 40
0.1684840728631431
 40
0.2304475573726366
 40
0.2923872830036528
 40
0.3545061479662331
 40
0.4166214525431063
 40
0.468021391946049
 40
0.5194139004411952
 40
0.5755725649270069
 40
0.6317305970929146
 40
0.6879051410287401
 40
0.7440762099487178
 40
0.8004284017732752
 40
0.8567802966990659
 40
0.9129710690830901
 40
0.9691647947656804
 40
1.0
 40
1.0
 40
1.0
 40
1.0
 10
137.0763417786445
 20
183.2877972388061
 30
0.0
 10
137.0763417786445
 20
183.3091494930662
 30
0.0
 10
137.0763417786445
 20
183.4339808105722
 30
0.0
 10
137.0763417786445
 20
183.6985959002139
 30
0.0
 10
137.0763417786445
 20
184.1456938902353
 30
0.0
 10
137.0763417786445
 20
184.7244217321949
 30
0.0
 10
137.0763417786445
 20
185.4569260058361
 30
0.0
 10
137.0763417786445
 20
186.3410471078068
 30
0.0
 10
137.0763417786445
 20
187.3229284610814
 30
0.0
 10
137.0763417786445
 20
188.3093884209818
 30
0.0
 10
137.0763417786445
 20
189.2615058716528
 30
0.0
 10
137.0763417786445
 20
190.1818991118073
 30
0.0
 10
137.0763417786445
 20
191.1095869684329
 30
0.0
 10
137.0763417786445
 20
192.0171866164379
 30
0.0
 10
137.0763417786445
 20
192.8499680729353
 30
0.0
 10
137.0763417786445
 20
193.5883715950095
 30
0.0
 10
137.0763417786445
 20
194.2053398507504
 30
0.0
 10
137.0763417786445
 20
194.6906276583539
 30
0.0
 10
137.0763417786445
 20
195.013863038656
 30
0.0
 10
137.0763417786445
 20
195.1808913571298
 30
0.0
 10
137.0763417786445
 20
195.1720183393039
 30
0.0
 10
137.0763417786445
 20
195.1688745419157
 30
0.0
  0
LINE
  5
8EA0
330
1F
100
AcDbEntity
  8
0
  6
Continuous
 62
     7
370
    13
100
AcDbLine
 10
134.58
 20
187.0607410911913
 30
0.0
 11
134.58
 21
192.0607410911913
 31
0.0
  0
ARC
  5
8EA1
330
1F
100
AcDbEntity
  8
0
  6
Continuous
 62
     7
370
    13
100
AcDbCircle
 10
137.4739295387473
 20
183.2902391103913
 30
0.0
 40
0.3975952586934202
100
AcDbArc
 50
180.3518900473012
 51
270.3476198698996
  0
SPLINE
  5
8EA2
330
1F
100
AcDbEntity
  8
0
  6
Continuous
 62
     8
370
    13
100
AcDbSpline
210
0.0
220
0.0
230
1.0
 70
     8
 71
     3
 72
    37
 73
    33
 74
     0
 42
0.000000001
 43
0.00000001
 40
0.0
 40
0.0
 40
0.0
 40
0.0
 40
0.0186090711413745
 40
0.0459912026185072
 40
0.0725405340251488
 40
0.0992761415875581
 40
0.1262081259111045
 40
0.1535944529154987
 40
0.2068298625731169
 40
0.2337540484006147
 40
0.2611362935290906
 40
0.3143772483610188
 40
0.3413045272721387
 40
0.3686900362438518
 40
0.4219259909292247
 40
0.4488504581486852
 40
0.4762330257774918
 40
0.5294710539824751
 40
0.556396756180894
 40
0.5837806370400053
 40
0.6370168980907047
 40
0.6639415383416051
 40
0.6913243368031596
 40
0.7445602180701574
 40
0.7714847777606887
 40
0.7988674869049809
 40
0.8521050281103011
 40
0.8790303603222388
 40
0.9064139498169774
 40
0.9596498485991696
 40
0.9865743838312127
 40
1.0
 40
1.0
 40
1.0
 40
1.0
 10
151.1631212613914
 20
196.3055846882751
 30
0.0
 10
151.1552368752825
 20
196.3052636435584
 30
0.0
 10
151.1357510881462
 20
196.3044702008064
 30
0.0
 10
151.1051552586497
 20
196.2471402206939
 30
0.0
 10
151.0714875084336
 20
196.1423209615249
 30
0.0
 10
151.0388350391347
 20
195.990056483025
 30
0.0
 10
151.0059891418078
 20
195.7906517316662
 30
0.0
 10
150.9611603730017
 20
195.4662320428302
 30
0.0
 10
150.9154807641434
 20
195.0556343467444
 30
0.0
 10
150.8700047849279
 20
194.5694705911747
 30
0.0
 10
150.8247885295535
 20
194.0352708745941
 30
0.0
 10
150.781374740394
 20
193.4340555344253
 30
0.0
 10
150.737045814082
 20
192.7812525771226
 30
0.0
 10
150.6919070241041
 20
192.0976313538715
 30
0.0
 10
150.6461237389748
 20
191.3740929762491
 30
0.0
 10
150.6008192216595
 20
190.6287750906497
 30
0.0
 10
150.5560367097077
 20
189.873140155994
 30
0.0
 10
150.512870293977
 20
189.1088822378855
 30
0.0
 10
150.4679468947772
 20
188.3552283501524
 30
0.0
 10
150.4225858378907
 20
187.6131192335125
 30
0.0
 10
150.3768217940801
 20
186.8949407294428
 30
0.0
 10
150.3317588069036
 20
186.2183289107524
 30
0.0
 10
150.2876434332392
 20
185.57365229287
 30
0.0
 10
150.2440342629114
 20
184.9825808135531
 30
0.0
 10
150.1987472007676
 20
184.4595681615796
 30
0.0
 10
150.1532330133654
 20
183.9854024409667
 30
0.0
 10
150.1076080204596
 20
183.5884125171093
 30
0.0
 10
150.0628784156563
 20
183.2783018831434
 30
0.0
 10
150.0195602856809
 20
183.0275195063779
 30
0.0
 10
149.9749169240728
 20
182.8735656535713
 30
0.0
 10
149.9353774018352
 20
182.8111827695153
 30
0.0
 10
149.91828560162
 20
182.8155474694753
 30
0.0
 10
149.9125986849331
 20
182.8169997263894
 30
0.0
  0
SPLINE
  5
8EA3
330
1F
100
AcDbEntity
  8
0
  6
Continuous
 62
     8
370
    13
100
AcDbSpline
210
0.0
220
0.0
230
1.0
 70
     8
 71
     3
 72
    36
 73
    32
 74
     0
 42
0.000000001
 43
0.00000001
 40
0.0
 40
0.0
 40
0.0
 40
0.0
 40
0.0363800664452036
 40
0.0633177799891571
 40
0.0907138694342951
 40
0.1439755431700787
 40
0.1709131485437417
 40
0.1983091224562658
 40
0.2515722005229741
 40
0.2785104416119878
 40
0.3059071502436229
 40
0.3591689240209608
 40
0.3861065504906055
 40
0.4135025420861658
 40
0.4667687858159945
 40
0.4937087799516011
 40
0.5211072920102086
 40
0.5743686235889164
 40
0.6013059734197628
 40
0.628701629448861
 40
0.6552637583567669
 40
0.7089096049666231
 40
0.7363091031666237
 40
0.7895701365843738
 40
0.8165072989462505
 40
0.8439027355371884
 40
0.8704650052610137
 40
0.8972136362784833
 40
0.9241587448885776
 40
0.9515584191812897
 40
1.0
 40
1.0
 40
1.0
 40
1.0
 10
148.6635879625313
 20
196.2902848485351
 30
0.0
 10
148.6481599814733
 20
196.2908664249084
 30
0.0
 10
148.6213083122553
 20
196.2918786309996
 30
0.0
 10
148.5832977425791
 20
196.1835485168706
 30
0.0
 10
148.53911954445
 20
196.003867153293
 30
0.0
 10
148.4955720825408
 20
195.7274729478196
 30
0.0
 10
148.4503061492247
 20
195.3665113990426
 30
0.0
 10
148.4048015192407
 20
194.9497108596086
 30
0.0
 10
148.3591635723936
 20
194.4536134112204
 30
0.0
 10
148.3143975100635
 20
193.8908657120674
 30
0.0
 10
148.2710351738821
 20
193.2865479894488
 30
0.0
 10
148.2264743321435
 20
192.625712939722
 30
0.0
 10
148.1810421649353
 20
191.9251037715453
 30
0.0
 10
148.1354648117683
 20
191.2017875088969
 30
0.0
 10
148.0899833134495
 20
190.451086245062
 30
0.0
 10
148.0458471981983
 20
189.6917227877099
 30
0.0
 10
148.0025298953448
 20
188.9310551449421
 30
0.0
 10
147.9572486187371
 20
188.1754312747997
 30
0.0
 10
147.9117229983925
 20
187.4436012282261
 30
0.0
 10
147.8774842206955
 20
186.9083607704798
 30
0.0
 10
147.832171590908
 20
186.2220668526941
 30
0.0
 10
147.7884659343044
 20
185.5792049556925
 30
0.0
 10
147.7335030126873
 20
184.8526307221705
 30
0.0
 10
147.6879649667387
 20
184.3345343221757
 30
0.0
 10
147.6423945172832
 20
183.8933659186872
 30
0.0
 10
147.6082561326044
 20
183.6023497896253
 30
0.0
 10
147.574556642996
 20
183.3548032536934
 30
0.0
 10
147.5417838554746
 20
183.1518095311591
 30
0.0
 10
147.5090421391197
 20
182.9940688626794
 30
0.0
 10
147.4662768702761
 20
182.8470811171338
 30
0.0
 10
147.4341352795943
 20
182.8296462463087
 30
0.0
 10
147.4136056949986
 20
182.8185101871429
 30
0.0
  0
SPLINE
  5
8EA4
330
1F
100
AcDbEntity
  8
0
  6
Continuous
 62
     8
370
    13
100
AcDbSpline
210
0.0
220
0.0
230
1.0
 70
     8
 71
     3
 72
    37
 73
    33
 74
     0
 42
0.000000001
 43
0.00000001
 40
0.0
 40
0.0
 40
0.0
 40
0.0
 40
0.0001901078346814
 40
0.027582270727769
 40
0.080842417710717
 40
0.1077808182398988
 40
0.1351767459625519
 40
0.1884309452200717
 40
0.2153646533947624
 40
0.2427565782324054
 40
0.2693094594628431
 40
0.3229547692830395
 40
0.3503509399929316
 40
0.403605256638333
 40
0.4305390061114141
 40
0.457930972866851
 40
0.5111912372005485
 40
0.5381285682823116
 40
0.565524127800475
 40
0.6187789492257503
 40
0.6457129555758027
 40
0.6731052135833411
 40
0.7263631071229121
 40
0.7532988724488922
 40
0.7806929996956188
 40
0.8339482575809878
 40
0.8608825006121155
 40
0.8882750510258269
 40
0.9415297340535063
 40
0.9684638054881324
 40
0.9958561786265194
 40
1.0
 40
1.0
 40
1.0
 40
1.0
 10
146.1637223429124
 20
196.3105712344974
 30
0.0
 10
146.1636419521316
 20
196.310628182415
 30
0.0
 10
146.151978254625
 20
196.3188906134896
 30
0.0
 10
146.1177435285014
 20
196.2785704359977
 30
0.0
 10
146.0724546330457
 20
196.1582081153185
 30
0.0
 10
146.0291049288783
 20
195.9348329852264
 30
0.0
 10
145.9850111992781
 20
195.6522020466284
 30
0.0
 10
145.939539051605
 20
195.2803628095474
 30
0.0
 10
145.8939577427623
 20
194.8298554912477
 30
0.0
 10
145.8598209602989
 20
194.4529438157136
 30
0.0
 10
145.8148132528063
 20
193.9052529367757
 30
0.0
 10
145.7716023921138
 20
193.2923768763647
 30
0.0
 10
145.7158547936235
 20
192.4654596451597
 30
0.0
 10
145.6701864911562
 20
191.7576913205533
 30
0.0
 10
145.6246847252953
 20
191.0227444148503
 30
0.0
 10
145.5793972667024
 20
190.2736840947222
 30
0.0
 10
145.5358197392184
 20
189.5102832774667
 30
0.0
 10
145.4916704216956
 20
188.7517131057209
 30
0.0
 10
145.4465960213814
 20
188.0009453682072
 30
0.0
 10
145.4008279792785
 20
187.2685462176624
 30
0.0
 10
145.3554751047091
 20
186.5725311557967
 30
0.0
 10
145.3105655566197
 20
185.9050568430764
 30
0.0
 10
145.2674023738085
 20
185.2862449923122
 30
0.0
 10
145.22260211764
 20
184.731354660829
 30
0.0
 10
145.1772887408935
 20
184.222718193009
 30
0.0
 10
145.1315079949393
 20
183.7878603335564
 30
0.0
 10
145.0863796543854
 20
183.436814865996
 30
0.0
 10
145.04208208055
 20
183.1451998626083
 30
0.0
 10
144.9986371888659
 20
182.9393297352643
 30
0.0
 10
144.9534349690034
 20
182.8412778019492
 30
0.0
 10
144.9286773109072
 20
182.7977217765773
 30
0.0
 10
144.9153587766224
 20
182.8152156938305
 30
0.0
 10
144.9136087358237
 20
182.8175143753721
 30
0.0
  0
SPLINE
  5
8EA5
330
1F
100
AcDbEntity
  8
0
  6
Continuous
 62
     8
370
    13
100
AcDbSpline
210
0.0
220
0.0
230
1.0
 70
     8
 71
     3
 72
    36
 73
    32
 74
     0
 42
0.000000001
 43
0.00000001
 40
0.0
 40
0.0
 40
0.0
 40
0.0
 40
0.0265254166952374
 40
0.0539240097234247
 40
0.1071976302843103
 40
0.1341417178912182
 40
0.1615441684026674
 40
0.2148118059978793
 40
0.2417522922333507
 40
0.2691511306606069
 40
0.3224227552748528
 40
0.3493654695590102
 40
0.3767666831148585
 40
0.4300348369287637
 40
0.4569755974480295
 40
0.4843747624403706
 40
0.537642643465673
 40
0.5645833990064362
 40
0.5919825677023124
 40
0.6452505622776363
 40
0.6721912626454166
 40
0.6995904245416146
 40
0.7528583903314545
 40
0.7797991691903853
 40
0.8071983858149145
 40
0.8604696585860018
 40
0.8874120925184444
 40
0.9148131184691439
 40
0.9680807558710283
 40
0.9950213147937114
 40
1.0
 40
1.0
 40
1.0
 40
1.0
 10
143.663225185536
 20
196.3103732317783
 30
0.0
 10
143.6519991813818
 20
196.3058474560544
 30
0.0
 10
143.6291776301081
 20
196.2966469229603
 30
0.0
 10
143.584012475008
 20
196.1971743113108
 30
0.0
 10
143.5402291401078
 20
196.006773447369
 30
0.0
 10
143.4962728896527
 20
195.7243860080449
 30
0.0
 10
143.4512667172286
 20
195.3832722291925
 30
0.0
 10
143.4055216592117
 20
194.956940740252
 30
0.0
 10
143.3601245964604
 20
194.4565596556481
 30
0.0
 10
143.3151022073952
 20
193.90921655085
 30
0.0
 10
143.271901659591
 20
193.2965952407333
 30
0.0
 10
143.2272379205144
 20
192.6344292805786
 30
0.0
 10
143.1819762083528
 20
191.9428346306353
 30
0.0
 10
143.1361863363857
 20
191.213484573236
 30
0.0
 10
143.0909974620835
 20
190.4646459231937
 30
0.0
 10
143.0465293336603
 20
189.7070667819885
 30
0.0
 10
143.0032218472359
 20
188.9432676119245
 30
0.0
 10
142.9580834997655
 20
188.1924271903192
 30
0.0
 10
142.9126350913934
 20
187.4546693194303
 30
0.0
 10
142.8669323845966
 20
186.7431162946628
 30
0.0
 10
142.8220204123609
 20
186.0752318585933
 30
0.0
 10
142.7783382506674
 20
185.4406406434822
 30
0.0
 10
142.7342331446586
 20
184.8616565091206
 30
0.0
 10
142.6888468906079
 20
184.352352695196
 30
0.0
 10
142.6432862899974
 20
183.8929242833111
 30
0.0
 10
142.5977425912309
 20
183.5120146671757
 30
0.0
 10
142.5533045299059
 20
183.2191372491784
 30
0.0
 10
142.5100990158679
 20
182.9856128864383
 30
0.0
 10
142.4650385955396
 20
182.852757351272
 30
0.0
 10
142.4290234560414
 20
182.805725666358
 30
0.0
 10
142.4155181746852
 20
182.8132760801224
 30
0.0
 10
142.4134116541102
 20
182.8144537750941
 30
0.0
  0
SPLINE
  5
8EA6
330
1F
100
AcDbEntity
  8
0
  6
Continuous
 62
     8
370
    13
100
AcDbSpline
210
0.0
220
0.0
230
1.0
 70
     8
 71
     3
 72
    35
 73
    31
 74
     0
 42
0.000000001
 43
0.00000001
 40
0.0
 40
0.0
 40
0.0
 40
0.0
 40
0.0445272973427615
 40
0.0714609519630227
 40
0.0988529435681324
 40
0.1521069217957376
 40
0.179040627932664
 40
0.2064326501732916
 40
0.2596896767197577
 40
0.2866248989450983
 40
0.3140185853979604
 40
0.3672722708762631
 40
0.3942057777640062
 40
0.4215975492741048
 40
0.4748568236367273
 40
0.5017936183679527
 40
0.5291886850954532
 40
0.5824419391103025
 40
0.6093751823960134
 40
0.6367666434994519
 40
0.6633190167579681
 40
0.7169632787172111
 40
0.7443589183516102
 40
0.7976120942525701
 40
0.8245452715976129
 40
0.8519366526780628
 40
0.905195741684131
 40
0.9321336194755159
 40
0.9595289976035939
 40
0.9999999999999999
 40
0.9999999999999999
 40
0.9999999999999999
 40
0.9999999999999999
 10
141.1640358258031
 20
196.2977967132074
 30
0.0
 10
141.1451522807376
 20
196.2915728212834
 30
0.0
 10
141.1148464641411
 20
196.2815842239881
 30
0.0
 10
141.0735535573451
 20
196.149178053219
 30
0.0
 10
141.0297992676917
 20
195.9507252450994
 30
0.0
 10
140.9857843060311
 20
195.6572284475986
 30
0.0
 10
140.9404097115263
 20
195.2799077119856
 30
0.0
 10
140.894854802916
 20
194.8476282582837
 30
0.0
 10
140.8492983540143
 20
194.3374006521843
 30
0.0
 10
140.8048074600392
 20
193.7622295090747
 30
0.0
 10
140.7616031547331
 20
193.1467303124712
 30
0.0
 10
140.7165980635241
 20
192.4766934187714
 30
0.0
 10
140.6711126887045
 20
191.7690310853078
 30
0.0
 10
140.625548101257
 20
191.0401446287443
 30
0.0
 10
140.5801395546733
 20
190.2861458798881
 30
0.0
 10
140.5364793787197
 20
189.5258088846078
 30
0.0
 10
140.4927644501274
 20
188.7658156491117
 30
0.0
 10
140.4473461787603
 20
188.0132274044033
 30
0.0
 10
140.4017810702517
 20
187.2867094409376
 30
0.0
 10
140.3675944019785
 20
186.7566301257639
 30
0.0
 10
140.3224286418214
 20
186.0785798226578
 30
0.0
 10
140.2790704361132
 20
185.4460467336544
 30
0.0
 10
140.2236390033087
 20
184.7346732018904
 30
0.0
 10
140.1780201951477
 20
184.2305517524091
 30
0.0
 10
140.1324822956253
 20
183.8046644730323
 30
0.0
 10
140.0871079148579
 20
183.4340203039216
 30
0.0
 10
140.0431677406823
 20
183.1480256731694
 30
0.0
 10
139.9993468080727
 20
182.9573035571783
 30
0.0
 10
139.9597334706839
 20
182.8357466007857
 30
0.0
 10
139.9309528766468
 20
182.8308775898039
 30
0.0
 10
139.9137900416576
 20
182.8279740350011
 30
0.0
  0
SPLINE
  5
8EA7
330
1F
100
AcDbEntity
  8
0
  6
Continuous
 62
     8
370
    13
100
AcDbSpline
210
0.0
220
0.0
230
1.0
 70
     8
 71
     3
 72
    37
 73
    33
 74
     0
 42
0.000000001
 43
0.00000001
 40
0.0
 40
0.0
 40
0.0
 40
0.0
 40
0.0084465430912183
 40
0.0372634467190985
 40
0.0652038678102656
 40
0.0933402981157863
 40
0.1216834128686765
 40
0.1505046755907244
 40
0.2065290779034943
 40
0.2348638244123596
 40
0.263680618864954
 40
0.2916208497674305
 40
0.3197571245153858
 40
0.3481000559288934
 40
0.3769211178585258
 40
0.4329458871958646
 40
0.4612808113316376
 40
0.4900978032420864
 40
0.5461275787629472
 40
0.5744653363475816
 40
0.6032853033971004
 40
0.6593106529396321
 40
0.6876458809602257
 40
0.71646322681628
 40
0.7724894966058347
 40
0.8008253560100613
 40
0.8296433792423141
 40
0.8856688293353874
 40
0.9140041289419217
 40
0.9428216077721896
 40
0.971306878344644
 40
0.9999999999999999
 40
0.9999999999999999
 40
0.9999999999999999
 40
0.9999999999999999
 10
138.663745969396
 20
196.3056891202392
 30
0.0
 10
138.6603479243241
 20
196.3071697786648
 30
0.0
 10
138.6453568362401
 20
196.3137019700898
 30
0.0
 10
138.619132258517
 20
196.2759001899841
 30
0.0
 10
138.5853185099508
 20
196.1920416062467
 30
0.0
 10
138.5521952692633
 20
196.0585413762702
 30
0.0
 10
138.5196312152622
 20
195.8780690368714
 30
0.0
 10
138.4751492400624
 20
195.5777583998456
 30
0.0
 10
138.4296041173232
 20
195.1898282637124
 30
0.0
 10
138.3840299145638
 20
194.724369821188
 30
0.0
 10
138.3499761207005
 20
194.3370254688056
 30
0.0
 10
138.3163705390933
 20
193.9164715492056
 30
0.0
 10
138.283919715253
 20
193.4676052517259
 30
0.0
 10
138.2508649052588
 20
192.9860602893082
 30
0.0
 10
138.2059582503296
 20
192.3144656152388
 30
0.0
 10
138.1602319679644
 20
191.599896959973
 30
0.0
 10
138.1147965978232
 20
190.8603413078366
 30
0.0
 10
138.069674405848
 20
190.108241616015
 30
0.0
 10
138.0263958219704
 20
189.3441488423121
 30
0.0
 10
137.9818828106526
 20
188.5872876085458
 30
0.0
 10
137.9366769879683
 20
187.8397811936945
 30
0.0
 10
137.8908858780068
 20
187.1129538757537
 30
0.0
 10
137.845640035348
 20
186.424670791971
 30
0.0
 10
137.8010153871434
 20
185.7663516453484
 30
0.0
 10
137.7577976059926
 20
185.1587539499028
 30
0.0
 10
137.7127526759513
 20
184.61683123955
 30
0.0
 10
137.667345677256
 20
184.1222334910734
 30
0.0
 10
137.6215953793075
 20
183.7029508551662
 30
0.0
 10
137.5766431736183
 20
183.3684901805214
 30
0.0
 10
137.5433258976256
 20
183.1611572819977
 30
0.0
 10
137.5103839785644
 20
182.9963280554874
 30
0.0
 10
137.4877166448782
 20
182.9272937810045
 30
0.0
 10
137.4763417786444
 20
182.8926511693649
 30
0.0
  0
SPLINE
  5
8EA8
330
1F
100
AcDbEntity
  8
0
  6
Continuous
 62
     8
370
    13
100
AcDbSpline
210
0.0
220
0.0
230
1.0
 70
     8
 71
     3
 72
    33
 73
    29
 74
     0
 42
0.000000001
 43
0.00000001
 40
0.0
 40
0.0
 40
0.0
 40
0.0
 40
0.030423152628798
 40
0.0610679259319905
 40
0.1209726238013628
 40
0.1512718458586895
 40
0.1820857882247831
 40
0.2419448511973105
 40
0.2722188251778326
 40
0.3030075707940543
 40
0.3629030356789911
 40
0.393195806275324
 40
0.4240040280287946
 40
0.4838756292143275
 40
0.5141561893424268
 40
0.5449518556241025
 40
0.6048364394542947
 40
0.6351235385818448
 40
0.6659257679162446
 40
0.7258082669853547
 40
0.7560945488326953
 40
0.7868962063665771
 40
0.846770088236283
 40
0.8770516272394289
 40
0.9078480093532207
 40
0.9677397995016512
 40
0.9980309336385419
 40
1.0
 40
1.0
 40
1.0
 40
1.0
 10
137.0970106567611
 20
183.1683607189478
 30
0.0
 10
137.1082983071805
 20
183.2019772231967
 30
0.0
 10
137.1309558341034
 20
183.2694551146768
 30
0.0
 10
137.1742791456185
 20
183.4794883541142
 30
0.0
 10
137.2188340527341
 20
183.7727404180944
 30
0.0
 10
137.2642886099956
 20
184.1483522313177
 30
0.0
 10
137.3098694640693
 20
184.5754312495661
 30
0.0
 10
137.3553382605621
 20
185.0761214769315
 30
0.0
 10
137.3994392392244
 20
185.637485881967
 30
0.0
 10
137.4427650660409
 20
186.236685876624
 30
0.0
 10
137.4880603763218
 20
186.8866827633109
 30
0.0
 10
137.5336047079991
 20
187.5711349457382
 30
0.0
 10
137.5791360181502
 20
188.2745542179422
 30
0.0
 10
137.6243861626372
 20
189.0000927517811
 30
0.0
 10
137.6676747286065
 20
189.7297076254491
 30
0.0
 10
137.7118512277839
 20
190.4577680072608
 30
0.0
 10
137.757344349512
 20
191.1768466881003
 30
0.0
 10
137.8029219325098
 20
191.8692102679052
 30
0.0
 10
137.8483567011875
 20
192.5394935088512
 30
0.0
 10
137.8928541893126
 20
193.1707820124685
 30
0.0
 10
137.9362589727456
 20
193.7475918000013
 30
0.0
 10
137.9810499247116
 20
194.2841846706936
 30
0.0
 10
138.0266949110472
 20
194.7561495899861
 30
0.0
 10
138.0721913877728
 20
195.1515935801861
 30
0.0
 10
138.1174353447863
 20
195.4951782722706
 30
0.0
 10
138.1610351385609
 20
195.7467290561224
 30
0.0
 10
138.1945610187494
 20
195.890132242341
 30
0.0
 10
138.2065760474703
 20
195.9187483362854
 30
0.0
 10
138.2073094089658
 20
195.9204949772583
 30
0.0
  0
SPLINE
  5
8EA9
330
1F
100
AcDbEntity
  8
0
  6
Continuous
 62
     8
370
    13
100
AcDbSpline
210
0.0
220
0.0
230
1.0
 70
     8
 71
     3
 72
    32
 73
    28
 74
     0
 42
0.000000001
 43
0.00000001
 40
0.0
 40
0.0
 40
0.0
 40
0.0
 40
0.0557314988149876
 40
0.0865049886368065
 40
0.1178018987343539
 40
0.1786443125743977
 40
0.2094160672616229
 40
0.2407114454519706
 40
0.3015468032712503
 40
0.3323146251654849
 40
0.363605572354832
 40
0.4244575620375028
 40
0.4552343190172995
 40
0.4865348237004869
 40
0.5473597715462367
 40
0.5781222016327577
 40
0.6094075048212035
 40
0.6702673311593045
 40
0.7010481919539491
 40
0.7323529380794558
 40
0.7931678767861361
 40
0.8239251416052168
 40
0.8552050672347191
 40
0.9160700807488557
 40
0.9468551190045476
 40
0.9781632121576448
 40
1.0
 40
1.0
 40
1.0
 40
1.0
 10
139.4554498321586
 20
183.2123523278446
 30
0.0
 10
139.4758902184934
 20
183.1598399987159
 30
0.0
 10
139.5076172566177
 20
183.0783317218679
 30
0.0
 10
139.5513687194588
 20
183.0859595132828
 30
0.0
 10
139.5967941093741
 20
183.1490907540922
 30
0.0
 10
139.6413828446424
 20
183.3062878396331
 30
0.0
 10
139.6847362921615
 20
183.5505804171021
 30
0.0
 10
139.7294923539101
 20
183.8525448545064
 30
0.0
 10
139.7751259832148
 20
184.2377478464247
 30
0.0
 10
139.8206291429445
 20
184.6962084165283
 30
0.0
 10
139.8659106967033
 20
185.2013554711218
 30
0.0
 10
139.9094765018606
 20
185.771740490772
 30
0.0
 10
139.9536482800306
 20
186.3927546158929
 30
0.0
 10
139.9987274762657
 20
187.0439675120655
 30
0.0
 10
140.0444911210972
 20
187.7345613129035
 30
0.0
 10
140.0898292252108
 20
188.4472148101103
 30
0.0
 10
140.1347293393296
 20
189.1708011474714
 30
0.0
 10
140.1778988907606
 20
189.9040691364521
 30
0.0
 10
140.2227251780176
 20
190.6285348446471
 30
0.0
 10
140.2680422057279
 20
191.3425193060333
 30
0.0
 10
140.3138115855887
 20
192.0346332703856
 30
0.0
 10
140.3589156445186
 20
192.688032360537
 30
0.0
 10
140.4031991614316
 20
193.3114990568577
 30
0.0
 10
140.4466666201968
 20
193.8866663477541
 30
0.0
 10
140.4919009609644
 20
194.392033023226
 30
0.0
 10
140.5230020200609
 20
194.7187431936209
 30
0.0
 10
140.5426422087465
 20
194.8799337058564
 30
0.0
 10
140.5507121982823
 20
194.9461655413965
 30
0.0
  0
SPLINE
  5
8EAA
330
1F
100
AcDbEntity
  8
0
  6
Continuous
 62
     8
370
    13
100
AcDbSpline
210
0.0
220
0.0
230
1.0
 70
     8
 71
     3
 72
    36
 73
    32
 74
     0
 42
0.000000001
 43
0.00000001
 40
0.0
 40
0.0
 40
0.0
 40
0.0
 40
0.0115210975741338
 40
0.038952153519896
 40
0.0922430083764992
 40
0.1191949608920237
 40
0.1466049180676846
 40
0.1999385579574279
 40
0.2269142867697884
 40
0.2543483390594811
 40
0.3076318969093902
 40
0.3345801010964784
 40
0.3619861946622633
 40
0.4039384663159019
 40
0.4474510716640465
 40
0.4697459902965651
 40
0.523037143382109
 40
0.5499893216924476
 40
0.577399717920962
 40
0.6307285296851676
 40
0.6577001837981226
 40
0.6851308297928158
 40
0.7384335009138522
 40
0.7653917147742206
 40
0.7928084821135056
 40
0.8461276554819851
 40
0.8730942816417376
 40
0.9005196089817996
 40
0.9538323380768694
 40
0.9807958400643872
 40
1.0
 40
1.0
 40
1.0
 40
1.0
 10
141.9567105928339
 20
183.207128629729
 30
0.0
 10
141.961481171614
 20
183.1911594787835
 30
0.0
 10
141.9776102179848
 20
183.1371687183367
 30
0.0
 10
142.0165192514582
 20
183.0768623692403
 30
0.0
 10
142.0622400279394
 20
183.0849706186334
 30
0.0
 10
142.107374112724
 20
183.1893825822231
 30
0.0
 10
142.1517150010725
 20
183.3540080424286
 30
0.0
 10
142.1951282840334
 20
183.6087255546968
 30
0.0
 10
142.2403505724129
 20
183.9463342486919
 30
0.0
 10
142.2858257418986
 20
184.3376062744505
 30
0.0
 10
142.331489144152
 20
184.8055882123163
 30
0.0
 10
142.3763109649639
 20
185.338158435236
 30
0.0
 10
142.4152551364672
 20
185.8510474217647
 30
0.0
 10
142.4614373962854
 20
186.5011011582292
 30
0.0
 10
142.5069643572712
 20
187.1682541475652
 30
0.0
 10
142.55733599501
 20
187.9336247439687
 30
0.0
 10
142.6006761813319
 20
188.6174230804492
 30
0.0
 10
142.6449648481586
 20
189.344752642039
 30
0.0
 10
142.6881969726626
 20
190.0745353560227
 30
0.0
 10
142.7333755642717
 20
190.8008809867367
 30
0.0
 10
142.7789019008908
 20
191.5058667356483
 30
0.0
 10
142.8244515416858
 20
192.192079880138
 30
0.0
 10
142.8697935037155
 20
192.8442364219535
 30
0.0
 10
142.9132190751745
 20
193.4464360025105
 30
0.0
 10
142.9571857224058
 20
194.0114828081477
 30
0.0
 10
143.0026439661704
 20
194.515877214753
 30
0.0
 10
143.0482256129283
 20
194.9472905331445
 30
0.0
 10
143.0936794272919
 20
195.3276320313045
 30
0.0
 10
143.1384545717942
 20
195.6245047198678
 30
0.0
 10
143.1783443732601
 20
195.8258278610358
 30
0.0
 10
143.1975354411807
 20
195.8862087116114
 30
0.0
 10
143.2055182655719
 20
195.9113250693215
 30
0.0
  0
SPLINE
  5
8EAB
330
1F
100
AcDbEntity
  8
0
  6
Continuous
 62
     8
370
    13
100
AcDbSpline
210
0.0
220
0.0
230
1.0
 70
     8
 71
     3
 72
    36
 73
    32
 74
     0
 42
0.000000001
 43
0.00000001
 40
0.0
 40
0.0
 40
0.0
 40
0.0
 40
0.0210218029157493
 40
0.0477188251356053
 40
0.074869495071716
 40
0.1276055908108401
 40
0.1542770105112166
 40
0.1814018152739071
 40
0.2341795109284126
 40
0.2608724701299475
 40
0.2880197301911672
 40
0.3407666878351534
 40
0.367443786696024
 40
0.394574623757839
 40
0.4473428748437301
 40
0.4740309028841513
 40
0.5011729404454061
 40
0.5539301998809569
 40
0.5806127243040939
 40
0.607749227113262
 40
0.6605079126015577
 40
0.6871909631693377
 40
0.7143277542028308
 40
0.7670939006492394
 40
0.7937810764361674
 40
0.8209223818788524
 40
0.8736718534472675
 40
0.9003501250669009
 40
0.9274819031274683
 40
0.9802554505768962
 40
1.0
 40
1.0
 40
1.0
 40
1.0
 10
144.4445469495967
 20
183.2639853376809
 30
0.0
 10
144.4532355159178
 20
183.2265150079568
 30
0.0
 10
144.4729582855878
 20
183.1414585492392
 30
0.0
 10
144.5049497247263
 20
183.0961368428973
 30
0.0
 10
144.5504677741447
 20
183.0728399054335
 30
0.0
 10
144.5960266714737
 20
183.148154524654
 30
0.0
 10
144.6404799930197
 20
183.3117192235749
 30
0.0
 10
144.6836828312154
 20
183.5355952366791
 30
0.0
 10
144.7287103596909
 20
183.8468680432813
 30
0.0
 10
144.7742162470711
 20
184.2374743571538
 30
0.0
 10
144.8197817995433
 20
184.6789918451455
 30
0.0
 10
144.8651797586215
 20
185.1926729570643
 30
0.0
 10
144.9088062631787
 20
185.7653971471832
 30
0.0
 10
144.9525399573176
 20
186.3746412628106
 30
0.0
 10
144.9979666131429
 20
187.0327290676088
 30
0.0
 10
145.0435406350888
 20
187.7231273822394
 30
0.0
 10
145.089025450101
 20
188.4311030687648
 30
0.0
 10
145.133964417895
 20
189.1590364021003
 30
0.0
 10
145.1771762361277
 20
189.8888067974479
 30
0.0
 10
145.2217183397269
 20
190.6154024905145
 30
0.0
 10
145.2672889640792
 20
191.3307340444031
 30
0.0
 10
145.3128350920871
 20
192.0171677068903
 30
0.0
 10
145.3582053035734
 20
192.6801674016559
 30
0.0
 10
145.402126754614
 20
193.3021764861141
 30
0.0
 10
145.4459678049394
 20
193.8678462578227
 30
0.0
 10
145.4909309526013
 20
194.3921735574247
 30
0.0
 10
145.5366566966542
 20
194.84991917914
 30
0.0
 10
145.5820660420048
 20
195.2308362867961
 30
0.0
 10
145.6271661079005
 20
195.5557855234427
 30
0.0
 10
145.6674975290325
 20
195.7903814485499
 30
0.0
 10
145.6978947434606
 20
195.8874869787241
 30
0.0
 10
145.7061710128123
 20
195.9139259646113
 30
0.0
  0
SPLINE
  5
8EAC
330
1F
100
AcDbEntity
  8
0
  6
Continuous
 62
     8
370
    13
100
AcDbSpline
210
0.0
220
0.0
230
1.0
 70
     8
 71
     3
 72
    35
 73
    31
 74
     0
 42
0.000000001
 43
0.00000001
 40
0.0
 40
0.0
 40
0.0
 40
0.0
 40
0.0081612354627554
 40
0.0382523882563148
 40
0.096757269599256
 40
0.1263465080887473
 40
0.1564389215949776
 40
0.2149504880826062
 40
0.2445434746990327
 40
0.274640033286765
 40
0.3331346566148319
 40
0.3627185731760502
 40
0.3928054018546276
 40
0.4513253102413626
 40
0.4809226556874419
 40
0.5110237105859053
 40
0.5695085609078059
 40
0.5990874249273288
 40
0.6291689793841279
 40
0.687695461014666
 40
0.7172964329699955
 40
0.7474011239811074
 40
0.805876369118728
 40
0.8354502857602719
 40
0.8655267034395027
 40
0.8946805845766693
 40
0.9240387370523816
 40
0.9537130907796934
 40
0.9838205601218252
 40
0.9999999999999999
 40
0.9999999999999999
 40
0.9999999999999999
 40
0.9999999999999999
 10
146.9166092319248
 20
183.3630684366878
 30
0.0
 10
146.9196164572173
 20
183.3473207636843
 30
0.0
 10
146.9337115718587
 20
183.2735101127584
 30
0.0
 10
146.9701812714439
 20
183.1502453290483
 30
0.0
 10
147.0157165168372
 20
183.0732742230745
 30
0.0
 10
147.0612732201033
 20
183.0944958795198
 30
0.0
 10
147.1066557144563
 20
183.1766039885859
 30
0.0
 10
147.1506623481445
 20
183.3508550255105
 30
0.0
 10
147.1944324467186
 20
183.6120590878883
 30
0.0
 10
147.2393713816286
 20
183.9302197182246
 30
0.0
 10
147.2850847736992
 20
184.3306035111944
 30
0.0
 10
147.3305121574451
 20
184.802813116466
 30
0.0
 10
147.3756267824879
 20
185.3207291239513
 30
0.0
 10
147.4189028865234
 20
185.902283296008
 30
0.0
 10
147.463440203301
 20
186.5325501196421
 30
0.0
 10
147.5086502514021
 20
187.1916393440778
 30
0.0
 10
147.5544333152262
 20
187.8880132100154
 30
0.0
 10
147.5996594414693
 20
188.6042205366452
 30
0.0
 10
147.6442723503304
 20
189.3299178655675
 30
0.0
 10
147.6875059537867
 20
190.0630352477308
 30
0.0
 10
147.7325786827481
 20
190.7851174598099
 30
0.0
 10
147.7779888897679
 20
191.4951672425817
 30
0.0
 10
147.823723911019
 20
192.181189624909
 30
0.0
 10
147.8686485366051
 20
192.8262637981629
 30
0.0
 10
147.9017184817935
 20
193.2880280206338
 30
0.0
 10
147.9342405963474
 20
193.721604695278
 30
0.0
 10
147.9676323328703
 20
194.1252336015293
 30
0.0
 10
148.001741279119
 20
194.4956932702991
 30
0.0
 10
148.031094238985
 20
194.7963542839184
 30
0.0
 10
148.0488379633557
 20
194.9370887522219
 30
0.0
 10
148.0550402249995
 20
194.9862820318567
 30
0.0
  0
SPLINE
  5
8EAD
330
1F
100
AcDbEntity
  8
0
  6
Continuous
 62
     8
370
    13
100
AcDbSpline
210
0.0
220
0.0
230
1.0
 70
     8
 71
     3
 72
    38
 73
    34
 74
     0
 42
0.000000001
 43
0.00000001
 40
0.0
 40
0.0
 40
0.0
 40
0.0
 40
0.0003461311105239
 40
0.0271072835232508
 40
0.0543240105261082
 40
0.1071908578350604
 40
0.1339283274281609
 40
0.1611201099205671
 40
0.1874773106124957
 40
0.2140191835281547
 40
0.2408469232512824
 40
0.2680662246777719
 40
0.3209340838292064
 40
0.3476721127269195
 40
0.3748646021462355
 40
0.4277778281493427
 40
0.4545396552761129
 40
0.4817568164801395
 40
0.5346344869114398
 40
0.5613776445529748
 40
0.588575608792262
 40
0.6414796993557713
 40
0.6682364660715333
 40
0.6954484606050971
 40
0.7483368122966506
 40
0.7750855918962621
 40
0.8022894393877845
 40
0.8551839110089212
 40
0.8819356685723113
 40
0.909142377195374
 40
0.9620399855162337
 40
0.9887936194945384
 40
1.0
 40
1.0
 40
1.0
 40
1.0
 10
149.4467304137017
 20
183.2345935221118
 30
0.0
 10
149.4468726913203
 20
183.2339008635965
 30
0.0
 10
149.4580151735411
 20
183.179655260743
 30
0.0
 10
149.4810782316827
 20
183.1379244223607
 30
0.0
 10
149.5263888680207
 20
183.0650829894341
 30
0.0
 10
149.5721704070339
 20
183.0997123813249
 30
0.0
 10
149.6171121231142
 20
183.2203629468396
 30
0.0
 10
149.6502386586855
 20
183.3574824818729
 30
0.0
 10
149.6827237681384
 20
183.5384209557871
 30
0.0
 10
149.7160834966967
 20
183.7608662818592
 30
0.0
 10
149.7501959712524
 20
184.0272848236538
 30
0.0
 10
149.7957880322368
 20
184.4337936636266
 30
0.0
 10
149.8413563934474
 20
184.9154997522013
 30
0.0
 10
149.8859584240914
 20
185.4602212485386
 30
0.0
 10
149.9291943507295
 20
186.0445426222872
 30
0.0
 10
149.9740359368039
 20
186.6824142480339
 30
0.0
 10
150.0195191871645
 20
187.357726768147
 30
0.0
 10
150.0650963436946
 20
188.0539578995702
 30
0.0
 10
150.1105273514086
 20
188.7753616333947
 30
0.0
 10
150.154390419243
 20
189.50396401056
 30
0.0
 10
150.1978963306349
 20
190.2333528567904
 30
0.0
 10
150.2432800977995
 20
190.9569997784241
 30
0.0
 10
150.2888415283173
 20
191.6570621017296
 30
0.0
 10
150.3343496317194
 20
192.3369774350672
 30
0.0
 10
150.3794556200663
 20
192.9807747704951
 30
0.0
 10
150.4226676969411
 20
193.5727388970426
 30
0.0
 10
150.4670502283528
 20
194.1262497972634
 30
0.0
 10
150.5125824716463
 20
194.6174304654129
 30
0.0
 10
150.5581498897955
 20
195.0341563575326
 30
0.0
 10
150.6035443469162
 20
195.3993752801894
 30
0.0
 10
150.6477987249366
 20
195.6780581618378
 30
0.0
 10
150.6847593289759
 20
195.8521446541527
 30
0.0
 10
150.7007139714784
 20
195.8969987815102
 30
0.0
 10
150.7054240274975
 20
195.910240410241
 30
0.0
  0
SPLINE
  5
8EAE
330
1F
100
AcDbEntity
  8
0
  6
Continuous
 62
     8
370
    13
100
AcDbSpline
210
0.0
220
0.0
230
1.0
 70
     8
 71
     3
 72
    31
 73
    27
 74
     0
 42
0.000000001
 43
0.00000001
 40
0.0
 40
0.0
 40
0.0
 40
0.0
 40
0.0246359722813092
 40
0.0491177926468128
 40
0.1315327572086466
 40
0.1567727027028621
 40
0.2140490471901262
 40
0.2639022697116553
 40
0.2890968398833975
 40
0.3135782983815297
 40
0.3959920971673519
 40
0.4212317815767604
 40
0.4785091453760648
 40
0.5283630435835767
 40
0.5535579278393769
 40
0.5780443303205671
 40
0.6604752106785402
 40
0.6857204587809091
 40
0.7102190549201477
 40
0.792691816322226
 40
0.8179501403718544
 40
0.8424408487432465
 40
0.924886618354652
 40
0.9501366946920304
 40
0.9746309928723603
 40
1.0
 40
1.0
 40
1.0
 40
1.0
 10
149.6661595803835
 20
195.9927639516995
 30
0.0
 10
149.6577128939762
 20
196.0059400461901
 30
0.0
 10
149.6408723736685
 20
196.0322097898677
 30
0.0
 10
149.5955686539816
 20
196.04459341611
 30
0.0
 10
149.5498964652729
 20
195.9604814330858
 30
0.0
 10
149.4950281696553
 20
195.7316803703683
 30
0.0
 10
149.4514429201901
 20
195.4739893684115
 30
0.0
 10
149.4060116713504
 20
195.1255849751179
 30
0.0
 10
149.3717538518092
 20
194.8190854500592
 30
0.0
 10
149.3262837853105
 20
194.3751079367228
 30
0.0
 10
149.2808379652611
 20
193.8515007575367
 30
0.0
 10
149.2268755067058
 20
193.1224331094835
 30
0.0
 10
149.1822757383969
 20
192.4922708804437
 30
0.0
 10
149.136732681582
 20
191.8182017943314
 30
0.0
 10
149.1024472734584
 20
191.2941327201443
 30
0.0
 10
149.0570285364535
 20
190.5865120069708
 30
0.0
 10
149.0125046532779
 20
189.8549203554432
 30
0.0
 10
148.9690009254101
 20
189.1265044391785
 30
0.0
 10
148.9244476634186
 20
188.4010370110339
 30
0.0
 10
148.8786489020233
 20
187.6857162638527
 30
0.0
 10
148.8332014784376
 20
187.0069527946643
 30
0.0
 10
148.7879137213616
 20
186.3467866150261
 30
0.0
 10
148.7443826552578
 20
185.7269387128896
 30
0.0
 10
148.7001118680499
 20
185.1786921648432
 30
0.0
 10
148.6746277048223
 20
184.8739491953947
 30
0.0
 10
148.6574164361464
 20
184.7126336058219
 30
0.0
 10
148.6486598405895
 20
184.630560900926
 30
0.0
  0
SPLINE
  5
8EAF
330
1F
100
AcDbEntity
  8
0
  6
Continuous
 62
     8
370
    13
100
AcDbSpline
210
0.0
220
0.0
230
1.0
 70
     8
 71
     3
 72
    29
 73
    25
 74
     0
 42
0.000000001
 43
0.00000001
 40
0.0
 40
0.0
 40
0.0
 40
0.0
 40
0.0842401959997444
 40
0.110382810753576
 40
0.1357302034712299
 40
0.2210598919064612
 40
0.2471931837275657
 40
0.2725449816106226
 40
0.357889598190484
 40
0.3840272549894937
 40
0.4093784777794023
 40
0.4947214827504212
 40
0.5208590239013448
 40
0.5462065543139347
 40
0.6315364398206236
 40
0.6576693942846171
 40
0.6830237666042138
 40
0.7683776869419575
 40
0.7945186606829204
 40
0.8198620798039721
 40
0.9051778165074252
 40
0.9313062835431066
 40
0.9566629116733608
 40
1.0
 40
1.0
 40
1.0
 40
1.0
 10
147.1943562237344
 20
195.9231319883411
 30
0.0
 10
147.1664533764041
 20
195.9819117454338
 30
0.0
 10
147.129891320965
 20
196.0589328720621
 30
0.0
 10
147.0847554563288
 20
196.0147461271398
 30
0.0
 10
147.0394605881174
 20
195.9292004720155
 30
0.0
 10
146.9958575295649
 20
195.7425843047593
 30
0.0
 10
146.9516567390738
 20
195.4630222410954
 30
0.0
 10
146.9067669861346
 20
195.1414049044877
 30
0.0
 10
146.8608409277637
 20
194.7298243658266
 30
0.0
 10
146.8155577936286
 20
194.2427800332986
 30
0.0
 10
146.7705719417855
 20
193.7224448672562
 30
0.0
 10
146.7274061300789
 20
193.1318406936392
 30
0.0
 10
146.6826168104566
 20
192.4924750714102
 30
0.0
 10
146.6374413997254
 20
191.8323709930511
 30
0.0
 10
146.5914951003307
 20
191.1299703265046
 30
0.0
 10
146.5464713650767
 20
190.4107563184986
 30
0.0
 10
146.5019835722065
 20
189.6853658041915
 30
0.0
 10
146.4586460219974
 20
188.9500680309116
 30
0.0
 10
146.413449168143
 20
188.2322005898627
 30
0.0
 10
146.3680707534467
 20
187.5241671539597
 30
0.0
 10
146.322241047441
 20
186.8389151910694
 30
0.0
 10
146.2775361805811
 20
186.2058395582903
 30
0.0
 10
146.2472469439174
 20
185.7766204833327
 30
0.0
 10
146.2248884970393
 20
185.5090719880339
 30
0.0
 10
146.210783131408
 20
185.3402825649182
 30
0.0
  0
SPLINE
  5
8EB0
330
1F
100
AcDbEntity
  8
0
  6
Continuous
 62
     8
370
    13
100
AcDbSpline
210
0.0
220
0.0
230
1.0
 70
     8
 71
     3
 72
    38
 73
    34
 74
     0
 42
0.000000001
 43
0.00000001
 40
0.0
 40
0.0
 40
0.0
 40
0.0
 40
0.0208468294964267
 40
0.091025327962531
 40
0.1125179323755255
 40
0.1333753386598613
 40
0.2035907791896591
 40
0.2250954273730182
 40
0.2459388334515157
 40
0.3161055854987616
 40
0.3375944860154989
 40
0.3584530655861739
 40
0.4073398999301658
 40
0.4287580642117254
 40
0.4502649294259685
 40
0.4711057325610099
 40
0.5412635976709398
 40
0.5627497405848906
 40
0.5841148717984541
 40
0.6055681003505133
 40
0.6444307301853106
 40
0.6662160586073601
 40
0.6875574495487756
 40
0.7089865813024635
 40
0.7478049647042302
 40
0.7695650972833613
 40
0.8060258623692048
 40
0.8511952857546501
 40
0.8822400031927301
 40
0.9030847978176835
 40
0.973256445521155
 40
0.9947470792614178
 40
1.0
 40
1.0
 40
1.0
 40
1.0
 10
144.6647237506838
 20
195.9956905447412
 30
0.0
 10
144.6563267425354
 20
196.0080227369135
 30
0.0
 10
144.6196621542468
 20
196.061869862069
 30
0.0
 10
144.5737849441434
 20
196.0151211579686
 30
0.0
 10
144.5290753065963
 20
195.8744511650256
 30
0.0
 10
144.4852001823706
 20
195.6881668918992
 30
0.0
 10
144.4411754301136
 20
195.4049362734765
 30
0.0
 10
144.3957622080953
 20
195.0344489057351
 30
0.0
 10
144.3502774415746
 20
194.6252319347227
 30
0.0
 10
144.3046132053288
 20
194.133192173693
 30
0.0
 10
144.260365571479
 20
193.5757603135422
 30
0.0
 10
144.2253275750705
 20
193.1004421879378
 30
0.0
 10
144.1891736684938
 20
192.5894578868883
 30
0.0
 10
144.1522561360496
 20
192.0479944256329
 30
0.0
 10
144.1264711468027
 20
191.6615726947199
 30
0.0
 10
144.0809752395982
 20
190.9652557780481
 30
0.0
 10
144.0354537727005
 20
190.2396218598115
 30
0.0
 10
143.9918533994684
 20
189.5078993283932
 30
0.0
 10
143.9668618115211
 20
189.0915314045757
 30
0.0
 10
143.9345085201269
 20
188.5653094140967
 30
0.0
 10
143.9014582309752
 20
188.0424728271053
 30
0.0
 10
143.8682908889321
 20
187.5329738688732
 30
0.0
 10
143.8421762253801
 20
187.1402002395923
 30
0.0
 10
143.8093368160704
 20
186.6565488290233
 30
0.0
 10
143.7766144073964
 20
186.1907263152057
 30
0.0
 10
143.7390874463075
 20
185.6705412110463
 30
0.0
 10
143.6987976446849
 20
185.1504637350754
 30
0.0
 10
143.6534267003169
 20
184.643773643972
 30
0.0
 10
143.6141350128734
 20
184.2629663455839
 30
0.0
 10
143.5648281330714
 20
183.8341942517681
 30
0.0
 10
143.5197253800062
 20
183.5286940166384
 30
0.0
 10
143.4826377757801
 20
183.3367745460327
 30
0.0
 10
143.4720967609975
 20
183.297433320064
 30
0.0
 10
143.4700263138847
 20
183.2897059874114
 30
0.0
  0
SPLINE
  5
8EB1
330
1F
100
AcDbEntity
  8
0
  6
Continuous
 62
     8
370
    13
100
AcDbSpline
210
0.0
220
0.0
230
1.0
 70
     8
 71
     3
 72
    32
 73
    28
 74
     0
 42
0.000000001
 43
0.00000001
 40
0.0
 40
0.0
 40
0.0
 40
0.0
 40
0.0126822096396505
 40
0.0375655066513065
 40
0.0617489886013391
 40
0.14315951054703
 40
0.1680917826514484
 40
0.2104008240627161
 40
0.262815478763953
 40
0.2988398246596114
 40
0.323027783859796
 40
0.4044537825248681
 40
0.4293911257653216
 40
0.4535953585158997
 40
0.53507806315764
 40
0.5600333122295512
 40
0.5842258376923072
 40
0.6656676121835735
 40
0.6906100729246896
 40
0.7148101745145513
 40
0.7962778632618672
 40
0.8212282558116566
 40
0.8454247010342549
 40
0.9268800814094501
 40
0.9518269146449594
 40
0.9760228622327315
 40
1.0
 40
1.0
 40
1.0
 40
1.0
 10
142.1698643737191
 20
195.9669266525695
 30
0.0
 10
142.1655433730642
 20
195.9823801669054
 30
0.0
 10
142.1527442959746
 20
196.0281544532536
 30
0.0
 10
142.1310996789168
 20
196.0337625625519
 30
0.0
 10
142.0856909633816
 20
196.0378781846661
 30
0.0
 10
142.0400695230651
 20
195.9306077276655
 30
0.0
 10
141.9904518502028
 20
195.7028349890919
 30
0.0
 10
141.9503491775035
 20
195.4635500584607
 30
0.0
 10
141.9049885949448
 20
195.1204108316329
 30
0.0
 10
141.8657047904342
 20
194.7637541861584
 30
0.0
 10
141.8163817090881
 20
194.2666356045583
 30
0.0
 10
141.7713010838564
 20
193.7305228910849
 30
0.0
 10
141.7280865418928
 20
193.135610637969
 30
0.0
 10
141.683771697295
 20
192.5150750283169
 30
0.0
 10
141.6380647131436
 20
191.8419670571612
 30
0.0
 10
141.5925607554991
 20
191.1408603478599
 30
0.0
 10
141.5471750963632
 20
190.428760420478
 30
0.0
 10
141.5032328308671
 20
189.6954639397751
 30
0.0
 10
141.4593202734983
 20
188.9678814281401
 30
0.0
 10
141.4145702484801
 20
188.2444530233135
 30
0.0
 10
141.3686873480534
 20
187.5336405651753
 30
0.0
 10
141.323323105296
 20
186.8616440029857
 30
0.0
 10
141.2781855216505
 20
186.2092139173748
 30
0.0
 10
141.2349227917597
 20
185.5991795475124
 30
0.0
 10
141.1903408822275
 20
185.0629787917505
 30
0.0
 10
141.1651278007238
 20
184.7693185651855
 30
0.0
 10
141.1483017864373
 20
184.6168294376082
 30
0.0
 10
141.1399269925114
 20
184.5409311887627
 30
0.0
  0
SPLINE
  5
8EB2
330
1F
100
AcDbEntity
  8
0
  6
Continuous
 62
     8
370
    13
100
AcDbSpline
210
0.0
220
0.0
230
1.0
 70
     8
 71
     3
 72
    35
 73
    31
 74
     0
 42
0.000000001
 43
0.00000001
 40
0.0
 40
0.0
 40
0.0
 40
0.0
 40
0.0570032574367328
 40
0.0779843462431168
 40
0.0983308717928705
 40
0.1668257816957462
 40
0.1878032802441623
 40
0.2081499113621842
 40
0.2766449139689574
 40
0.2976221225131714
 40
0.3179714475214261
 40
0.3864760570099016
 40
0.4074566307507456
 40
0.4277999143362084
 40
0.4962833789746312
 40
0.5172569164508338
 40
0.5376084588642859
 40
0.6061208198554388
 40
0.6271038416853977
 40
0.6474438288684827
 40
0.7159159680764221
 40
0.7368859255740429
 40
0.7572390081206155
 40
0.8049395616956033
 40
0.8258378460168738
 40
0.8468226724796015
 40
0.8671591574151645
 40
0.9356193011427496
 40
0.9565854878025399
 40
1.0
 40
1.0
 40
1.0
 40
1.0
 10
139.6714099724753
 20
195.9626172818905
 30
0.0
 10
139.6478175629524
 20
196.0022136278319
 30
0.0
 10
139.6155415367097
 20
196.0563841312506
 30
0.0
 10
139.5748755725804
 20
195.9987513340425
 30
0.0
 10
139.5297219360681
 20
195.8959314996945
 30
0.0
 10
139.4864162092754
 20
195.6916226671519
 30
0.0
 10
139.4418908513668
 20
195.3956386833057
 30
0.0
 10
139.3968437582523
 20
195.05807613344
 30
0.0
 10
139.3508918981815
 20
194.6317057394843
 30
0.0
 10
139.3057316392745
 20
194.1315319214384
 30
0.0
 10
139.2609796063766
 20
193.5988034496169
 30
0.0
 10
139.2178008615483
 20
192.9975656024564
 30
0.0
 10
139.1727793918677
 20
192.3497855802451
 30
0.0
 10
139.1274898159351
 20
191.6823411935898
 30
0.0
 10
139.0815812242918
 20
190.9748654823629
 30
0.0
 10
139.036723209573
 20
190.2530001974755
 30
0.0
 10
138.9925600733021
 20
189.5260090003849
 30
0.0
 10
138.9489004855816
 20
188.7915672508538
 30
0.0
 10
138.9035638924171
 20
188.0770449560995
 30
0.0
 10
138.8581167114141
 20
187.3733777201358
 30
0.0
 10
138.8123706008532
 20
186.6960479865283
 30
0.0
 10
138.7679057702888
 20
186.070049679016
 30
0.0
 10
138.7327050686583
 20
185.5825058524422
 30
0.0
 10
138.6968977258499
 20
185.1312659524669
 30
0.0
 10
138.6600417533837
 20
184.721752386629
 30
0.0
 10
138.634291103349
 20
184.4571189594836
 30
0.0
 10
138.5887887766858
 20
184.0265758289433
 30
0.0
 10
138.5431327677429
 20
183.6794009665996
 30
0.0
 10
138.490335347064
 20
183.3662899197114
 30
0.0
 10
138.4644082096908
 20
183.2728821265381
 30
0.0
 10
138.4469244910965
 20
183.2098934692536
 30
0.0
  0
SPLINE
  5
8EB3
330
1F
100
AcDbEntity
  8
0
  6
Continuous
 62
     8
370
    13
100
AcDbSpline
210
0.0
220
0.0
230
1.0
 70
     8
 71
     3
 72
    36
 73
    32
 74
     0
 42
0.000000001
 43
0.00000001
 40
0.0
 40
0.0
 40
0.0
 40
0.0
 40
0.0234281804320938
 40
0.0636345817225083
 40
0.1046212656348906
 40
0.1310292161395807
 40
0.1712357231777661
 40
0.2122224683971804
 40
0.2386307182871675
 40
0.2788375125137966
 40
0.3198246774679078
 40
0.3462326827627686
 40
0.3864391642158954
 40
0.4274257931820987
 40
0.4538357493902487
 40
0.494045264766785
 40
0.5350353091839428
 40
0.5614430921674464
 40
0.6016491414355818
 40
0.6426352615979655
 40
0.6690461973967812
 40
0.7092572813524268
 40
0.750248958709497
 40
0.7766565824705901
 40
0.8168623275916018
 40
0.8578481133432581
 40
0.8842592922878025
 40
0.9244707909774248
 40
0.9654628481173274
 40
0.9918705240844776
 40
1.0
 40
1.0
 40
1.0
 40
1.0
 10
137.989187787875
 20
182.8130636973326
 30
0.0
 10
137.9991053203755
 20
182.8158012670103
 30
0.0
 10
138.0260428810718
 20
182.8232369320155
 30
0.0
 10
138.070172427161
 20
182.9297681128324
 30
0.0
 10
138.1138947848156
 20
183.1274089072854
 30
0.0
 10
138.1577353332349
 20
183.4030252186401
 30
0.0
 10
138.2029167332057
 20
183.7513717295666
 30
0.0
 10
138.2485641075571
 20
184.1833520012168
 30
0.0
 10
138.2940091894694
 20
184.6782385938832
 30
0.0
 10
138.3390366377527
 20
185.2317717255268
 30
0.0
 10
138.3822235180515
 20
185.8476805314164
 30
0.0
 10
138.4268129603861
 20
186.5062348283748
 30
0.0
 10
138.4722059671199
 20
187.2021897398715
 30
0.0
 10
138.5178716562967
 20
187.9321381281257
 30
0.0
 10
138.5631499497583
 20
188.6797708623484
 30
0.0
 10
138.6074657352153
 20
189.4395212258997
 30
0.0
 10
138.650933478787
 20
190.2011707270691
 30
0.0
 10
138.6959992531638
 20
190.9532776775759
 30
0.0
 10
138.7415612336397
 20
191.6905864216541
 30
0.0
 10
138.7871184299232
 20
192.3974392495809
 30
0.0
 10
138.8321454889651
 20
193.0689364299854
 30
0.0
 10
138.8755603448832
 20
193.7006869400966
 30
0.0
 10
138.9199549209134
 20
194.2729673294101
 30
0.0
 10
138.9652564264123
 20
194.7877780641813
 30
0.0
 10
139.0109177771067
 20
195.2420618805899
 30
0.0
 10
139.0563020174536
 20
195.6149981269882
 30
0.0
 10
139.1008248196503
 20
195.9145535763176
 30
0.0
 10
139.1440348918428
 20
196.1423270172442
 30
0.0
 10
139.1891152016942
 20
196.2662062345723
 30
0.0
 10
139.221033428587
 20
196.3167488651015
 30
0.0
 10
139.2356461343575
 20
196.30486004462
 30
0.0
 10
139.2390857242814
 20
196.3020616123666
 30
0.0
  0
SPLINE
  5
8EB4
330
1F
100
AcDbEntity
  8
0
  6
Continuous
 62
     8
370
    13
100
AcDbSpline
210
0.0
220
0.0
230
1.0
 70
     8
 71
     3
 72
    37
 73
    33
 74
     0
 42
0.000000001
 43
0.00000001
 40
0.0
 40
0.0
 40
0.0
 40
0.0
 40
0.00043152575457
 40
0.041410583228644
 40
0.0678168898305892
 40
0.1080209211282941
 40
0.1490054082184703
 40
0.1754084612249452
 40
0.215607250925504
 40
0.256585946346995
 40
0.2829925559636269
 40
0.3231970964102714
 40
0.3367838601841712
 40
0.3642008342748793
 40
0.3906039214350961
 40
0.43080273758687
 40
0.4717814845865611
 40
0.4981876587397789
 40
0.5383915243929787
 40
0.5793757657147708
 40
0.6057790631646707
 40
0.6459782119494969
 40
0.6869573736218191
 40
0.7133623801657181
 40
0.7535644335927894
 40
0.7945467705408206
 40
0.8209502292786655
 40
0.8611496635338051
 40
0.9021292278481945
 40
0.9285325334662716
 40
0.9687319860982329
 40
1.0
 40
1.0
 40
1.0
 40
1.0
 10
140.4891162261491
 20
182.8113121614107
 30
0.0
 10
140.4892985290181
 20
182.8111217507656
 30
0.0
 10
140.5067928918679
 20
182.7928493399485
 30
0.0
 10
140.5355708950958
 20
182.8476172646291
 30
0.0
 10
140.5806107365032
 20
182.9705127396437
 30
0.0
 10
140.6240838843765
 20
183.1807163282824
 30
0.0
 10
140.6684049466211
 20
183.4795775608703
 30
0.0
 10
140.7136913546271
 20
183.8508359902813
 30
0.0
 10
140.7593494805748
 20
184.2899741380759
 30
0.0
 10
140.8047475747946
 20
184.8050091504289
 30
0.0
 10
140.8493267951667
 20
185.3753649542364
 30
0.0
 10
140.8815034127035
 20
185.8385474809811
 30
0.0
 10
140.9150690465775
 20
186.3324787617599
 30
0.0
 10
140.9432765252379
 20
186.7577501943748
 30
0.0
 10
140.9830180587867
 20
187.3739342264757
 30
0.0
 10
141.0286487423147
 20
188.1062708249657
 30
0.0
 10
141.0738416408294
 20
188.859682536394
 30
0.0
 10
141.1176549117192
 20
189.619760669695
 30
0.0
 10
141.1614018652779
 20
190.3808699627841
 30
0.0
 10
141.2067981351107
 20
191.1301996946485
 30
0.0
 10
141.2523564887395
 20
191.8590416916791
 30
0.0
 10
141.2978829328856
 20
192.5623873689764
 30
0.0
 10
141.3426722554764
 20
193.2227761330614
 30
0.0
 10
141.3858935157398
 20
193.8381226696247
 30
0.0
 10
141.4305803337235
 20
194.4043728185423
 30
0.0
 10
141.4760948063349
 20
194.9010618175774
 30
0.0
 10
141.5216609251243
 20
195.3330861118727
 30
0.0
 10
141.5670738753872
 20
195.6978420838079
 30
0.0
 10
141.610959204774
 20
195.9753432718793
 30
0.0
 10
141.6546530322755
 20
196.1733686105747
 30
0.0
 10
141.6957190977189
 20
196.2935701178212
 30
0.0
 10
141.7259981020412
 20
196.2984806758169
 30
0.0
 10
141.7392455889608
 20
196.3006291134644
 30
0.0
  0
SPLINE
  5
8EB5
330
1F
100
AcDbEntity
  8
0
  6
Continuous
 62
     8
370
    13
100
AcDbSpline
210
0.0
220
0.0
230
1.0
 70
     8
 71
     3
 72
    39
 73
    35
 74
     0
 42
0.000000001
 43
0.00000001
 40
0.0
 40
0.0
 40
0.0
 40
0.0
 40
0.0045162727980706
 40
0.0447213783050456
 40
0.0857066045137947
 40
0.1121156662787069
 40
0.1523238973640472
 40
0.1933125377600746
 40
0.2197197598574424
 40
0.2599249122260558
 40
0.3009102854641173
 40
0.3171258553701307
 40
0.3333414239495525
 40
0.3663241386409299
 40
0.3997122883309108
 40
0.415927834342259
 40
0.4321433805700749
 40
0.4651258082358111
 40
0.4985137076494547
 40
0.5249208771353331
 40
0.5651261998395707
 40
0.6061117595893749
 40
0.6325189756552658
 40
0.6727241582072652
 40
0.7137096378336649
 40
0.7401170368088911
 40
0.78032263869098
 40
0.821308406551158
 40
0.8477171152532417
 40
0.8879246865499613
 40
0.9289127181866226
 40
0.9553199554123708
 40
0.9955252085977382
 40
1.0
 40
1.0
 40
1.0
 40
1.0
 10
142.9892116077579
 20
182.8140307017606
 30
0.0
 10
142.9911224594633
 20
182.8130222227533
 30
0.0
 10
143.0100442398403
 20
182.8030359856026
 30
0.0
 10
143.0463259420069
 20
182.8644365635452
 30
0.0
 10
143.0911626615139
 20
183.014504454252
 30
0.0
 10
143.134393900968
 20
183.2482483222671
 30
0.0
 10
143.1790217550396
 20
183.555583477455
 30
0.0
 10
143.2245247977925
 20
183.9496509352426
 30
0.0
 10
143.2701003094999
 20
184.4094005064228
 30
0.0
 10
143.3154963776443
 20
184.930856450601
 30
0.0
 10
143.3553906237988
 20
185.4633190745142
 30
0.0
 10
143.3850426373717
 20
185.891592153408
 30
0.0
 10
143.411995297316
 20
186.2859556263979
 30
0.0
 10
143.4465521480934
 20
186.8066223984279
 30
0.0
 10
143.4815276380324
 20
187.3521211526741
 30
0.0
 10
143.5093947763293
 20
187.7978646018068
 30
0.0
 10
143.5370191096006
 20
188.2470048141511
 30
0.0
 10
143.5717012293829
 20
188.8239080185301
 30
0.0
 10
143.6096306299057
 20
189.4795160833632
 30
0.0
 10
143.6500581107354
 20
190.1862440939269
 30
0.0
 10
143.695129038491
 20
190.9408319344012
 30
0.0
 10
143.7407337488642
 20
191.6757023883173
 30
0.0
 10
143.7862312023565
 20
192.383676960293
 30
0.0
 10
143.8314461350349
 20
193.0599782689121
 30
0.0
 10
143.8747515325492
 20
193.6862052020102
 30
0.0
 10
143.919070383494
 20
194.2618194347371
 30
0.0
 10
143.9643824817547
 20
194.7832877758911
 30
0.0
 10
144.0100573499951
 20
195.2297562994266
 30
0.0
 10
144.0554096930263
 20
195.6079048016926
 30
0.0
 10
144.1000560526376
 20
195.9149771777517
 30
0.0
 10
144.1433147256064
 20
196.1334506918089
 30
0.0
 10
144.1882125081895
 20
196.2651547392077
 30
0.0
 10
144.2183007134307
 20
196.3247483455007
 30
0.0
 10
144.2371933505217
 20
196.3070742018101
 30
0.0
 10
144.2390854840414
 20
196.3053041027209
 30
0.0
  0
SPLINE
  5
8EB6
330
1F
100
AcDbEntity
  8
0
  6
Continuous
 62
     8
370
    13
100
AcDbSpline
210
0.0
220
0.0
230
1.0
 70
     8
 71
     3
 72
    37
 73
    33
 74
     0
 42
0.000000001
 43
0.00000001
 40
0.0
 40
0.0
 40
0.0
 40
0.0
 40
0.0048734724420784
 40
0.0312776338274711
 40
0.0714781635606571
 40
0.1124588975063523
 40
0.1388632011501342
 40
0.1790640992522659
 40
0.2200450794470596
 40
0.246450557960526
 40
0.2866532014191478
 40
0.3276362016097678
 40
0.3540403634474462
 40
0.3942409418655455
 40
0.4352215137868636
 40
0.4616283266556289
 40
0.5018331016259153
 40
0.5428183373144161
 40
0.5692222787823682
 40
0.6094224429128173
 40
0.6504025448655002
 40
0.6768099595010739
 40
0.7170157101598924
 40
0.7580019361790281
 40
0.7844058208022474
 40
0.8246058565850342
 40
0.8655858303677828
 40
0.8919931084313605
 40
0.932198665642989
 40
0.9731846456854841
 40
0.9995886854327062
 40
1.0
 40
1.0
 40
1.0
 40
1.0
 10
145.489141737705
 20
182.8165987154669
 30
0.0
 10
145.4912019676531
 20
182.8146455206612
 30
0.0
 10
145.5044243914347
 20
182.8021100415642
 30
0.0
 10
145.5346814480351
 20
182.8476554450159
 30
0.0
 10
145.5799152994537
 20
182.9613376897547
 30
0.0
 10
145.6232639871986
 20
183.1810591766079
 30
0.0
 10
145.6675227244368
 20
183.4732025755853
 30
0.0
 10
145.7128180473002
 20
183.838324537738
 30
0.0
 10
145.7584920307426
 20
184.2855005889805
 30
0.0
 10
145.803857995909
 20
184.7944341534556
 30
0.0
 10
145.8485644039308
 20
185.3606818396415
 30
0.0
 10
145.8917939382989
 20
185.9874463542127
 30
0.0
 10
145.9366622790171
 20
186.6551425530552
 30
0.0
 10
145.9821486101017
 20
187.3585011767749
 30
0.0
 10
146.027770103773
 20
188.0936211256975
 30
0.0
 10
146.0729419962815
 20
188.8445049486028
 30
0.0
 10
146.1167544192824
 20
189.605604881681
 30
0.0
 10
146.1606817110971
 20
190.3661565214784
 30
0.0
 10
146.2058866208309
 20
191.1152157809556
 30
0.0
 10
146.2515127953146
 20
191.8475588831984
 30
0.0
 10
146.2969868560493
 20
192.5472008787574
 30
0.0
 10
146.341789679115
 20
193.2097321450558
 30
0.0
 10
146.3849957454094
 20
193.8308355659685
 30
0.0
 10
146.4297904326538
 20
194.3905677058236
 30
0.0
 10
146.4751811669589
 20
194.8914803952986
 30
0.0
 10
146.5208443796537
 20
195.3305936040278
 30
0.0
 10
146.5661243483939
 20
195.6871756273483
 30
0.0
 10
146.6102787659083
 20
195.9692888112232
 30
0.0
 10
146.6537075948169
 20
196.18016492618
 30
0.0
 10
146.6989868533872
 20
196.2818062071776
 30
0.0
 10
146.7277057738854
 20
196.3222632879822
 30
0.0
 10
146.7390390164693
 20
196.3103787444299
 30
0.0
 10
146.739212854477
 20
196.3101964501432
 30
0.0
  0
SPLINE
  5
8EB7
330
1F
100
AcDbEntity
  8
0
  6
Continuous
 62
     8
370
    13
100
AcDbSpline
210
0.0
220
0.0
230
1.0
 70
     8
 71
     3
 72
    36
 73
    32
 74
     0
 42
0.000000001
 43
0.00000001
 40
0.0
 40
0.0
 40
0.0
 40
0.0
 40
0.0081099220993679
 40
0.0490917475904602
 40
0.0755002330582063
 40
0.1157076091233776
 40
0.1566954980798047
 40
0.1831004708042361
 40
0.2233021651141338
 40
0.2642838273585682
 40
0.2906922361268395
 40
0.3308995162877152
 40
0.3718872555527327
 40
0.3982923690657311
 40
0.4384942724520681
 40
0.4794761997008853
 40
0.5058837948481636
 40
0.5460898076349766
 40
0.5870762129002011
 40
0.6134815519019138
 40
0.6536838270994981
 40
0.6946662302445659
 40
0.7210722837975013
 40
0.7612759244941365
 40
0.802259827679335
 40
0.8286651437682415
 40
0.8688674266548592
 40
0.9098499400425335
 40
0.9362553246395076
 40
0.9764578863804412
 40
1.0
 40
1.0
 40
1.0
 40
1.0
 10
147.9892974719584
 20
182.8194060054671
 30
0.0
 10
147.9927278265965
 20
182.8167250350501
 30
0.0
 10
148.0134927737789
 20
182.8004963313218
 30
0.0
 10
148.0454363695558
 20
182.8671802496956
 30
0.0
 10
148.0902731303721
 20
183.0104180833475
 30
0.0
 10
148.1334998264011
 20
183.2378873858868
 30
0.0
 10
148.1782372249073
 20
183.5540512245773
 30
0.0
 10
148.2236148713791
 20
183.9414564875851
 30
0.0
 10
148.2692802346984
 20
184.3957651886315
 30
0.0
 10
148.3145770341354
 20
184.9244158205613
 30
0.0
 10
148.3587952241004
 20
185.5070314041463
 30
0.0
 10
148.4021710131627
 20
186.1387966648537
 30
0.0
 10
148.4474399850213
 20
186.8197299486511
 30
0.0
 10
148.4929557381599
 20
187.5316031727198
 30
0.0
 10
148.5385388654128
 20
188.2689152515504
 30
0.0
 10
148.5835829353546
 20
189.0249549499525
 30
0.0
 10
148.6269680120374
 20
189.7857017545426
 30
0.0
 10
148.6712498866032
 20
190.5454616010473
 30
0.0
 10
148.716707928938
 20
191.2911092531787
 30
0.0
 10
148.7622880396286
 20
192.0143738713797
 30
0.0
 10
148.8077544348142
 20
192.7103121595483
 30
0.0
 10
148.8521422432621
 20
193.3611754133038
 30
0.0
 10
148.8954712215581
 20
193.9653367134715
 30
0.0
 10
148.9404553446765
 20
194.5188676662489
 30
0.0
 10
148.9860305068528
 20
195.0012051694356
 30
0.0
 10
149.031555331742
 20
195.4177522400797
 30
0.0
 10
149.0768556578738
 20
195.7659167074567
 30
0.0
 10
149.1202966697953
 20
196.0261972310031
 30
0.0
 10
149.1644319415155
 20
196.2053593413243
 30
0.0
 10
149.2023546825184
 20
196.3040541361131
 30
0.0
 10
149.2293620770062
 20
196.298951072598
 30
0.0
 10
149.2393364183297
 20
196.2970664147753
 30
0.0
  0
LINE
  5
8EB8
330
1F
100
AcDbEntity
  8
0
  6
Continuous
 62
     8
370
    13
100
AcDbLine
 10
137.4763417786472
 20
182.8926511693913
 30
0.0
 11
137.4763417786472
 21
182.8107410911913
 31
0.0
  0
SPLINE
  5
8EB9
330
1F
100
AcDbEntity
  8
0
  6
Continuous
 62
     8
370
    13
100
AcDbSpline
210
0.0
220
0.0
230
1.0
 70
     8
 71
     3
 72
    35
 73
    31
 74
     0
 42
0.000000001
 43
0.00000001
 40
0.0
 40
0.0
 40
0.0
 40
0.0
 40
0.0022385122689602
 40
0.0312053120649973
 40
0.0874587924872488
 40
0.1160202317070581
 40
0.1450075370358004
 40
0.2014553265552851
 40
0.2301205469847916
 40
0.2592169347569622
 40
0.3154325251490506
 40
0.3439758590324366
 40
0.3729428114314474
 40
0.4289956120316641
 40
0.4574479222478617
 40
0.4863156317399558
 40
0.537485385807764
 40
0.589556484564219
 40
0.6199565418554367
 40
0.6505984819595506
 40
0.682005736466527
 40
0.7136774663884078
 40
0.7437452359287648
 40
0.7740346732344651
 40
0.805008174251156
 40
0.8362116763471646
 40
0.8760943926584877
 40
0.91660575128749
 40
0.9684767221303924
 40
1.0
 40
1.0
 40
1.0
 40
1.0
 10
137.5764289685254
 20
195.5751247766846
 30
0.0
 10
137.5760386233804
 20
195.5757422199247
 30
0.0
 10
137.5705971334075
 20
195.5843495030992
 30
0.0
 10
137.5551889768457
 20
195.5482194436421
 30
0.0
 10
137.5351618865374
 20
195.4368803815758
 30
0.0
 10
137.5159051780543
 20
195.2318792761218
 30
0.0
 10
137.4962122868677
 20
194.9714506745085
 30
0.0
 10
137.4758361559145
 20
194.6282553660082
 30
0.0
 10
137.4554343170855
 20
194.2118219634528
 30
0.0
 10
137.435158835463
 20
193.7495849314543
 30
0.0
 10
137.4155308681703
 20
193.2228205172613
 30
0.0
 10
137.3962614682492
 20
192.6454587711899
 30
0.0
 10
137.3765464041384
 20
192.0380924056261
 30
0.0
 10
137.3566694042323
 20
191.3909153479044
 30
0.0
 10
137.3371532723123
 20
190.7204105033649
 30
0.0
 10
137.3187711943193
 20
190.0670254023596
 30
0.0
 10
137.2975721762094
 20
189.2589259771283
 30
0.0
 10
137.275739913815
 20
188.4451913595305
 30
0.0
 10
137.2573490082387
 20
187.7722769160174
 30
0.0
 10
137.2425155860213
 20
187.2356223586912
 30
0.0
 10
137.2278304012609
 20
186.7098103181698
 30
0.0
 10
137.213687811396
 20
186.2098742330818
 30
0.0
 10
137.2004019676809
 20
185.7420393666443
 30
0.0
 10
137.1871088024773
 20
185.3056485256808
 30
0.0
 10
137.1737074205677
 20
184.8954367787381
 30
0.0
 10
137.1591188765917
 20
184.4811111184025
 30
0.0
 10
137.1436022369048
 20
184.0789926898294
 30
0.0
 10
137.1260181807897
 20
183.6757612385412
 30
0.0
 10
137.1108452568229
 20
183.3765100631409
 30
0.0
 10
137.1008056561396
 20
183.2254586204649
 30
0.0
 10
137.0970106567611
 20
183.1683607189478
 30
0.0
  0
DIMENSION
  5
8EBA
330
1F
100
AcDbEntity
  8
レイヤー_1
 62
     7
100
AcDbDimension
280
     0
  2
*D478
 10
220.0763417786472
 20
157.0607410911913
 30
0.0
 11
175.9164873800472
 21
157.0607410911913
 31
0.0
 70
   160
  1
<>
 71
     5
 42
-1.0
 73
     0
 74
     0
 75
     0
  3
SLDDIMSTYLE0
100
AcDbAlignedDimension
 13
132.0763417786472
 23
189.5607410911913
 33
0.0
 14
220.0763417786472
 24
189.5607410911913
 34
0.0
100
AcDbRotatedDimension
  0
LINE
  5
8EBB
330
1F
100
AcDbEntity
  8
レイヤー_1
  6
CENTERX2
 62
     7
100
AcDbLine
 10
130.0763417786472
 20
189.5607410911913
 30
0.0
 11
222.4166850228472
 21
189.5607410911913
 31
0.0
  0
CIRCLE
  5
8EBC
330
1F
100
AcDbEntity
  8
0
  6
Continuous
 62
     7
370
    13
100
AcDbCircle
 10
282.6381508238472
 20
189.5607410911913
 30
0.0
 40
22.50000000000003
  0
DIMENSION
  5
8EBD
330
1F
100
AcDbEntity
  8
レイヤー_1
 62
     7
100
AcDbDimension
280
     0
  2
*D479
 10
266.6711087245473
 20
173.7081839914913
 30
0.0
 11
273.4905782514893
 21
180.4787573633904
 31
0.0
 70
   163
  1
<>
 71
     5
 42
-1.0
 73
     0
 74
     0
 75
     0
  3
SLDDIMSTYLE1
100
AcDbDiametricDimension
 15
298.6051929231473
 25
205.4132981908913
 35
0.0
 40
0.0
  0
INSERT
  5
8EBE
330
1F
100
AcDbEntity
  8
レイヤー_1
 62
     7
100
AcDbBlockReference
  2
SW_CENTERMARKSYMBOL_0
 10
282.6381508238472
 20
189.5607410911913
 30
0.0
  0
LINE
  5
8ED3
330
1F
100
AcDbEntity
  8
0
  6
CENTER
 62
     7
370
     9
100
AcDbLine
 10
256.1381508238472
 20
189.5607410911913
 30
0.0
 11
309.1381508238472
 21
189.5607410911913
 31
0.0
  0
LINE
  5
8ED4
330
1F
100
AcDbEntity
  8
0
  6
CENTER
 62
     7
370
     9
100
AcDbLine
 10
282.6381508238472
 20
163.0607410911913
 30
0.0
 11
282.6381508238472
 21
216.0607410911913
 31
0.0
  0
LINE
  5
8ED5
330
1F
100
AcDbEntity
  8
0
  6
CENTER
 62
     7
370
     9
100
AcDbLine
 10
128.0763417786472
 20
189.5607410911913
 30
0.0
 11
224.0763417786473
 21
189.5607410911913
 31
0.0
  0
LINE
  5
8EF9
330
1F
100
AcDbEntity
  8
0
 62
     7
370
     9
100
AcDbLine
 10
295.8005137885613
 20
204.619034526542
 30
0.0
 11
294.155218417972
 21
202.7367478471232
 31
0.0
1001
ACAD_DSTYLE_DIMRADIAL_EXTE
1070
   387
1070
     1
1070
   388
1040
0.0
1070
   390
1040
6.283185307179586
  0
LINE
  5
8EFB
330
1F
100
AcDbEntity
  8
0
 62
     7
370
     9
100
AcDbLine
 10
269.4757878591332
 20
174.5024476558405
 30
0.0
 11
271.1210832297224
 21
176.3847343352594
 31
0.0
1001
ACAD_DSTYLE_DIMRADIAL_EXTE
1070
   387
1070
     1
1070
   388
1040
0.0
1070
   390
1040
6.283185307179586
  0
LINE
  5
8EFC
330
1F
100
AcDbEntity
  8
0
 62
     7
370
     9
100
AcDbLine
 10
295.8005137885613
 20
204.619034526542
 30
0.0
 11
294.155218417972
 21
202.7367478471232
 31
0.0
1001
ACAD_DSTYLE_DIMRADIAL_EXTE
1070
   387
1070
     1
1070
   388
1040
0.0
1070
   390
1040
6.283185307179586
  0
MTEXT
  5
8EFD
330
1F
100
AcDbEntity
  8
0
 62
     7
370
     9
100
AcDbMText
 10
271.8339590566369
 20
181.2543814937543
 30
0.0
 40
2.5
 41
0.0
 46
0.0
 71
     5
 72
     1
  1
%%c45
 11
0.6581181482356985
 21
0.7529146717675352
 31
0.0
 73
     1
 44
1.0
1001
ACAD_DSTYLE_DIMRADIAL_EXTE
1070
   387
1070
     1
1070
   388
1040
0.0
1070
   390
1040
6.283185307179586
  0
LINE
  5
8EFE
330
1F
100
AcDbEntity
  8
0
 62
     7
370
     9
100
AcDbLine
 10
297.4458091591505
 20
206.5013212059609
 30
0.0
 11
267.830492488544
 21
172.6201609764217
 31
0.0
1001
ACAD_DSTYLE_DIMRADIAL_EXTE
1070
   387
1070
     1
1070
   388
1040
0.0
1070
   390
1040
6.283185307179586
  0
CIRCLE
  5
91F3
330
1F
100
AcDbEntity
  8
0
 62
     0
370
     9
100
AcDbCircle
 10
229.3939364958134
 20
150.7853647658274
 30
0.0
 40
5.0
  0
TEXT
  5
91F4
330
1F
100
AcDbEntity
  8
0
370
     9
100
AcDbText
 10
227.5670739850544
 20
148.30252067239
 30
0.0
 40
5.0
  1
1
  7
ＭＳ_Ｐゴシック
100
AcDbText
  0
CIRCLE
  5
91F7
330
1F
100
AcDbEntity
  8
0
 62
     0
370
     9
100
AcDbCircle
 10
164.6380023514713
 20
152.8226301096943
 30
0.0
 40
5.0
  0
TEXT
  5
91F8
330
1F
100
AcDbEntity
  8
0
370
     9
100
AcDbText
 10
162.8111398407123
 20
150.3397860162569
 30
0.0
 40
5.0
  1
2
  7
ＭＳ_Ｐゴシック
100
AcDbText
  0
CIRCLE
  5
922E
330
1F
100
AcDbEntity
  8
0
 62
     0
370
     9
100
AcDbCircle
 10
137.606643110286
 20
157.852426507573
 30
0.0
 40
5.0
  0
TEXT
  5
922F
330
1F
100
AcDbEntity
  8
0
370
     9
100
AcDbText
 10
135.779780599527
 20
155.3695824141356
 30
0.0
 40
5.0
  1
3
  7
ＭＳ_Ｐゴシック
100
AcDbText
  0
LEADER
  5
9230
102
{ACAD_XDICTIONARY
360
9231
102
}
330
1F
100
AcDbEntity
  8
0
 62
     0
370
     9
100
AcDbLeader
  3
ISO-25
 76
     2
 10
150.6278030143206
 20
182.8107410911913
 30
0.0
 10
139.7625666844079
 20
162.3637448894372
 30
0.0
1001
ACAD
1000
DSTYLE
1002
{
1070
     5
1000
OPEN
1070
   341
1005
328E
1070
    41
1040
2.5
1070
    44
1040
1.0
1070
    42
1040
1.0
1070
   147
1040
1.524
1070
    73
1070
     1
1070
    74
1070
     1
1070
   140
1040
3.5
1070
   284
1070
     0
1070
    78
1070
     0
1002
}
  0
LINE
  5
927E
330
1F
100
AcDbEntity
  8
0
 62
     7
370
     9
100
AcDbLine
 10
20.00000000000003
 20
287.0
 30
0.0
 11
20.00000000000003
 21
247.0
 31
0.0
  0
LINE
  5
927F
330
1F
100
AcDbEntity
  8
0
 62
     7
370
     9
100
AcDbLine
 10
60.00000000000003
 20
287.0
 30
0.0
 11
60.00000000000001
 21
247.0
 31
0.0
  0
LINE
  5
9280
330
1F
100
AcDbEntity
  8
0
 62
     7
370
     9
100
AcDbLine
 10
72.00946111740893
 20
287.0
 30
0.0
 11
72.00946111740893
 21
247.0
 31
0.0
  0
LINE
  5
9281
330
1F
100
AcDbEntity
  8
0
 62
     7
370
     9
100
AcDbLine
 10
110.0
 20
287.0
 30
0.0
 11
110.0
 21
247.0
 31
0.0
  0
LINE
  5
9282
330
1F
100
AcDbEntity
  8
0
 62
     7
370
     9
100
AcDbLine
 10
122.0094611174089
 20
277.0
 30
0.0
 11
10.0
 21
277.0
 31
0.0
  0
LINE
  5
9283
330
1F
100
AcDbEntity
  8
0
 62
     7
370
     9
100
AcDbLine
 10
122.0094611174089
 20
267.0
 30
0.0
 11
10.0
 21
267.0
 31
0.0
  0
LINE
  5
9284
330
1F
100
AcDbEntity
  8
0
 62
     7
370
     9
100
AcDbLine
 10
122.0094611174089
 20
257.0
 30
0.0
 11
10.0
 21
257.0
 31
0.0
  0
LINE
  5
9285
330
1F
100
AcDbEntity
  8
0
 62
     7
370
     9
100
AcDbLine
 10
122.0094611174089
 20
247.0
 30
0.0
 11
10.0
 21
247.0
 31
0.0
  0
LWPOLYLINE
  5
933D
330
1F
100
AcDbEntity
  8
0
  6
ByBlock
 62
     0
370
     9
100
AcDbPolyline
 90
        2
 70
     1
 43
0.8255
 10
210.9616785262406
 20
180.4046028497788
 42
1.0
 10
211.3063484269114
 20
179.6545009169913
 42
1.0
  0
LINE
  5
933E
330
1F
100
AcDbEntity
  8
0
 62
     0
370
     9
100
AcDbLine
 10
211.134013476576
 20
180.0295518833851
 30
0.0
 11
226.1139479539899
 21
154.5591791711084
 31
0.0
  0
LWPOLYLINE
  5
9368
330
1F
100
AcDbEntity
  8
0
  6
ByBlock
 62
     0
370
     9
100
AcDbPolyline
 90
        2
 70
     1
 43
0.8255
 10
181.1593969245299
 20
178.1528749065385
 42
1.0
 10
181.5040668252007
 20
177.402772973751
 42
1.0
  0
LINE
  5
9369
330
1F
100
AcDbEntity
  8
0
 62
     0
370
     9
100
AcDbLine
 10
181.3317318748653
 20
177.7778239401447
 30
0.0
 11
167.6242680910047
 21
156.8328940577268
 31
0.0
  0
LINE
  5
936A
330
1F
100
AcDbEntity
  8
0
  6
ByBlock
 62
     0
370
     9
100
AcDbLine
 10
295.4867987145626
 20
204.893250970072
 30
0.0
 11
297.4458091591505
 21
206.5013212059609
 31
0.0
  0
LINE
  5
936B
330
1F
100
AcDbEntity
  8
0
  6
ByBlock
 62
     0
370
     9
100
AcDbLine
 10
296.1142288625599
 20
204.344818083012
 30
0.0
 11
297.4458091591505
 21
206.5013212059609
 31
0.0
  0
LINE
  5
936C
330
1F
100
AcDbEntity
  8
0
  6
ByBlock
 62
     0
370
     9
100
AcDbLine
 10
297.4458091591505
 20
206.5013212059609
 30
0.0
 11
295.8005137885613
 21
204.619034526542
 31
0.0
  0
LINE
  5
93BA
330
1F
100
AcDbEntity
  8
0
  6
Continuous
 62
     7
370
    13
100
AcDbLine
 10
137.0763396721419
 20
193.6949687862339
 30
0.0
 11
134.58
 21
192.0607410911913
 31
0.0
  0
DIMENSION
  5
93BB
102
{ACAD_XDICTIONARY
360
93BC
102
}
330
1F
100
AcDbEntity
  8
0
 62
     7
370
     9
100
AcDbDimension
280
     0
  2
*D486
 10
220.0763417786473
 20
219.9923858557148
 30
0.0
 11
176.5781708893236
 21
221.8673858557148
 31
0.0
 70
    32
 71
     5
 42
86.99634177864726
 73
     0
 74
     0
 75
     0
  3
JIS-1
100
AcDbAlignedDimension
 13
133.08
 23
189.5607410911913
 33
0.0
 14
220.0763417786473
 24
189.5607410911913
 34
0.0
100
AcDbRotatedDimension
  0
LINE
  5
9494
330
1F
100
AcDbEntity
  8
0
 62
     7
370
     9
100
AcDbLine
 10
122.0094611174089
 20
287.0
 30
0.0
 11
122.0094611174089
 21
247.0
 31
0.0
  0
LINE
  5
9579
330
1F
100
AcDbEntity
  8
図枠
 62
     7
100
AcDbLine
 10
0.0
 20
0.0
 30
0.0
 11
0.0
 21
297.0
 31
0.0
  0
LINE
  5
957A
330
1F
100
AcDbEntity
  8
図枠
 62
     7
100
AcDbLine
 10
0.0
 20
297.0
 30
0.0
 11
420.0
 21
297.0
 31
0.0
  0
LINE
  5
957B
330
1F
100
AcDbEntity
  8
図枠
 62
     7
100
AcDbLine
 10
420.0
 20
297.0
 30
0.0
 11
420.0
 21
0.0
 31
0.0
  0
LINE
  5
957C
330
1F
100
AcDbEntity
  8
図枠
 62
     7
100
AcDbLine
 10
420.0
 20
0.0
 30
0.0
 11
0.0
 21
0.0
 31
0.0
  0
TEXT
  5
957D
330
1F
100
AcDbEntity
  8
図枠
  6
Continuous
 62
     7
100
AcDbText
 10
413.7387063608
 20
22.0530180432
 30
0.0
 40
3.5
  1
F
 41
0.75
  7
SLDTEXTSTYLE0
100
AcDbText
  0
TEXT
  5
957E
330
1F
100
AcDbEntity
  8
図枠
  6
Continuous
 62
     7
100
AcDbText
 10
412.4731189104
 20
271.4653191374
 30
0.0
 40
3.5
  1
A
 41
0.75
  7
SLDTEXTSTYLE0
100
AcDbText
  0
TEXT
  5
957F
330
1F
100
AcDbEntity
  8
図枠
  6
Continuous
 62
     7
100
AcDbText
 10
413.1193428345
 20
172.2531994215
 30
0.0
 40
3.5
  1
C
 41
0.75
  7
SLDTEXTSTYLE0
100
AcDbText
  0
TEXT
  5
9580
330
1F
100
AcDbEntity
  8
図枠
  6
Continuous
 62
     7
100
AcDbText
 10
413.6455581885
 20
72.2531994215
 30
0.0
 40
3.5
  1
E
 41
0.75
  7
SLDTEXTSTYLE0
100
AcDbText
  0
TEXT
  5
9581
330
1F
100
AcDbEntity
  8
図枠
  6
Continuous
 62
     7
100
AcDbText
 10
412.5724678345
 20
222.2531994215
 30
0.0
 40
3.5
  1
B
 41
0.75
  7
SLDTEXTSTYLE0
100
AcDbText
  0
TEXT
  5
9582
330
1F
100
AcDbEntity
  8
図枠
  6
Continuous
 62
     7
100
AcDbText
 10
413.1156969227
 20
122.2531994215
 30
0.0
 40
3.5
  1
D
 41
0.75
  7
SLDTEXTSTYLE0
100
AcDbText
  0
TEXT
  5
9583
330
1F
100
AcDbEntity
  8
図枠
  6
Continuous
 62
     7
100
AcDbText
 10
85.4148942795
 20
288.4958015854
 30
0.0
 40
3.5
  1
2
 41
0.75
  7
SLDTEXTSTYLE0
100
AcDbText
  0
TEXT
  5
9584
330
1F
100
AcDbEntity
  8
図枠
  6
Continuous
 62
     7
100
AcDbText
 10
31.0118798471
 20
288.4958015854
 30
0.0
 40
3.5
  1
1
 41
0.75
  7
SLDTEXTSTYLE0
100
AcDbText
  0
TEXT
  5
9585
330
1F
100
AcDbEntity
  8
図枠
  6
Continuous
 62
     7
100
AcDbText
 10
335.5668421836
 20
288.4958015854
 30
0.0
 40
3.5
  1
7
 41
0.75
  7
SLDTEXTSTYLE0
100
AcDbText
  0
TEXT
  5
9586
330
1F
100
AcDbEntity
  8
図枠
  6
Continuous
 62
     7
100
AcDbText
 10
235.1961732812
 20
288.4958015854
 30
0.0
 40
3.5
  1
5
 41
0.75
  7
SLDTEXTSTYLE0
100
AcDbText
  0
TEXT
  5
9587
330
1F
100
AcDbEntity
  8
図枠
  6
Continuous
 62
     7
100
AcDbText
 10
135.5808926481
 20
288.4958015854
 30
0.0
 40
3.5
  1
3
 41
0.75
  7
SLDTEXTSTYLE0
100
AcDbText
  0
TEXT
  5
9588
330
1F
100
AcDbEntity
  8
図枠
  6
Continuous
 62
     7
100
AcDbText
 10
390.5382830604
 20
288.4294820467
 30
0.0
 40
3.5
  1
8
 41
0.75
  7
SLDTEXTSTYLE0
100
AcDbText
  0
TEXT
  5
9589
330
1F
100
AcDbEntity
  8
図枠
  6
Continuous
 62
     7
100
AcDbText
 10
285.4990325912
 20
288.4958015854
 30
0.0
 40
3.5
  1
6
 41
0.75
  7
SLDTEXTSTYLE0
100
AcDbText
  0
TEXT
  5
958A
330
1F
100
AcDbEntity
  8
図枠
  6
Continuous
 62
     7
100
AcDbText
 10
185.4817148807
 20
288.4958015854
 30
0.0
 40
3.5
  1
4
 41
0.75
  7
SLDTEXTSTYLE0
100
AcDbText
  0
TEXT
  5
958B
330
1F
100
AcDbEntity
  8
図枠
  6
Continuous
 62
     7
100
AcDbText
 10
5.3069882844
 20
122.2531994215
 30
0.0
 40
3.5
  1
D
 41
0.75
  7
SLDTEXTSTYLE0
100
AcDbText
  0
TEXT
  5
958C
330
1F
100
AcDbEntity
  8
図枠
  6
Continuous
 62
     7
100
AcDbText
 10
5.3106341962
 20
172.2531994215
 30
0.0
 40
3.5
  1
C
 41
0.75
  7
SLDTEXTSTYLE0
100
AcDbText
  0
TEXT
  5
958D
330
1F
100
AcDbEntity
  8
図枠
  6
Continuous
 62
     7
100
AcDbText
 10
4.7637591962
 20
222.3746600786
 30
0.0
 40
3.5
  1
B
 41
0.75
  7
SLDTEXTSTYLE0
100
AcDbText
  0
TEXT
  5
958E
330
1F
100
AcDbEntity
  8
図枠
  6
Continuous
 62
     7
100
AcDbText
 10
5.3531689173
 20
72.2531994215
 30
0.0
 40
3.5
  1
E
 41
0.75
  7
SLDTEXTSTYLE0
100
AcDbText
  0
TEXT
  5
958F
330
1F
100
AcDbEntity
  8
図枠
  6
Continuous
 62
     7
100
AcDbText
 10
389.2439953632
 20
4.832153633400001
 30
0.0
 40
3.5
  1
8
 41
0.75
  7
SLDTEXTSTYLE0
100
AcDbText
  0
TEXT
  5
9590
330
1F
100
AcDbEntity
  8
図枠
  6
Continuous
 62
     7
100
AcDbText
 10
134.2004620529
 20
4.898473172099999
 30
0.0
 40
3.5
  1
3
 41
0.75
  7
SLDTEXTSTYLE0
100
AcDbText
  0
TEXT
  5
9591
330
1F
100
AcDbEntity
  8
図枠
  6
Continuous
 62
     7
100
AcDbText
 10
184.1049479386
 20
4.898473346799999
 30
0.0
 40
3.5
  1
4
 41
0.75
  7
SLDTEXTSTYLE0
100
AcDbText
  0
TEXT
  5
9592
330
1F
100
AcDbEntity
  8
図枠
  6
Continuous
 62
     7
100
AcDbText
 10
234.1143662874
 20
4.898473172099999
 30
0.0
 40
3.5
  1
5
 41
0.75
  7
SLDTEXTSTYLE0
100
AcDbText
  0
TEXT
  5
9593
330
1F
100
AcDbEntity
  8
図枠
  6
Continuous
 62
     7
100
AcDbText
 10
284.122265649
 20
4.898473172099999
 30
0.0
 40
3.5
  1
6
 41
0.75
  7
SLDTEXTSTYLE0
100
AcDbText
  0
TEXT
  5
9594
330
1F
100
AcDbEntity
  8
図枠
  6
Continuous
 62
     7
100
AcDbText
 10
334.1183160264
 20
4.898473172099999
 30
0.0
 40
3.5
  1
7
 41
0.75
  7
SLDTEXTSTYLE0
100
AcDbText
  0
TEXT
  5
9595
330
1F
100
AcDbEntity
  8
図枠
  6
Continuous
 62
     7
100
AcDbText
 10
4.664410272
 20
271.4676194612
 30
0.0
 40
3.5
  1
A
 41
0.75
  7
SLDTEXTSTYLE0
100
AcDbText
  0
TEXT
  5
9596
330
1F
100
AcDbEntity
  8
図枠
  6
Continuous
 62
     7
100
AcDbText
 10
84.1092014052
 20
4.898473172099999
 30
0.0
 40
3.5
  1
2
 41
0.75
  7
SLDTEXTSTYLE0
100
AcDbText
  0
TEXT
  5
9597
330
1F
100
AcDbEntity
  8
図枠
  6
Continuous
 62
     7
100
AcDbText
 10
29.6351129049
 20
4.898473172099999
 30
0.0
 40
3.5
  1
1
 41
0.75
  7
SLDTEXTSTYLE0
100
AcDbText
  0
TEXT
  5
9598
330
1F
100
AcDbEntity
  8
図枠
  6
Continuous
 62
     7
100
AcDbText
 10
5.3470924864
 20
23.028893971
 30
0.0
 40
3.5
  1
F
 41
0.75
  7
SLDTEXTSTYLE0
100
AcDbText
  0
TEXT
  5
9599
330
1F
100
AcDbEntity
  8
図枠
  6
Continuous
 62
     7
100
AcDbText
 10
355.204598397
 20
66.33582008730002
 30
0.0
 40
3.0
  1
品番 / PART NO.
100
AcDbText
  0
TEXT
  5
959A
330
1F
100
AcDbEntity
  8
図枠
  6
Continuous
 62
     7
100
AcDbText
 10
396.5892845774397
 20
14.77716082696225
 30
0.0
 40
5.0
  1
1/1
100
AcDbText
  0
TEXT
  5
959B
330
1F
100
AcDbEntity
  8
図枠
  6
Continuous
 62
     7
100
AcDbText
 10
263.0263902254761
 20
66.36226186523888
 30
0.0
 40
3.0
  1
消費電力 / POWER CONSUMPTION
100
AcDbText
  0
TEXT
  5
959C
330
1F
100
AcDbEntity
  8
図枠
  6
Continuous
 62
     7
100
AcDbText
 10
305.2905204341592
 20
21.50963717470281
 30
0.0
 40
2.5
  1
尺度 / SCALE
100
AcDbText
  0
TEXT
  5
959D
330
1F
100
AcDbEntity
  8
図枠
  6
Continuous
 62
     7
100
AcDbText
 10
265.6731245702735
 20
21.69484477705772
 30
0.0
 40
2.0
  1
投影法 / PROJECTION
100
AcDbText
  0
TEXT
  5
959E
330
1F
100
AcDbEntity
  8
図枠
  6
Continuous
 62
     7
100
AcDbText
 10
222.8072639247744
 20
66.25219406910281
 30
0.0
 40
3.0
  1
名前 / NAME
100
AcDbText
  0
TEXT
  5
959F
330
1F
100
AcDbEntity
  8
図枠
  6
Continuous
 62
     7
100
AcDbText
 10
214.5815905005141
 20
55.64150447790281
 30
0.0
 40
3.0
  1
検認
100
AcDbText
  0
TEXT
  5
95A0
330
1F
100
AcDbEntity
  8
図枠
  6
Continuous
 62
     7
100
AcDbText
 10
214.5739347962141
 20
42.40746291400281
 30
0.0
 40
3.0
  1
検認
100
AcDbText
  0
TEXT
  5
95A1
330
1F
100
AcDbEntity
  8
図枠
  6
Continuous
 62
     7
100
AcDbText
 10
214.9837911698057
 20
28.75319521030282
 30
0.0
 40
3.0
  1
設計
100
AcDbText
  0
TEXT
  5
95A2
330
1F
100
AcDbEntity
  8
図枠
  6
Continuous
 62
     7
100
AcDbText
 10
215.0767392775202
 20
11.94115446382124
 30
0.0
 40
3.0
  1
日付
100
AcDbText
  0
TEXT
  5
95A3
330
1F
100
AcDbEntity
  8
図枠
  6
Continuous
 62
     7
100
AcDbText
 10
214.9820364233136
 20
18.74388726750282
 30
0.0
 40
3.0
  1
製図
100
AcDbText
  0
TEXT
  5
95A4
330
1F
100
AcDbEntity
  8
図枠
  6
Continuous
 62
     7
100
AcDbText
 10
12.81159169921057
 20
11.92326126600705
 30
0.0
 40
3.0
  1
NO.
100
AcDbText
  0
TEXT
  5
95A5
330
1F
100
AcDbEntity
  8
図枠
  6
Continuous
 62
     7
100
AcDbText
 10
57.88277790390001
 20
11.807323283
 30
0.0
 40
3.0
  1
改定履歴 / REVISION HISTORY
100
AcDbText
  0
TEXT
  5
95A6
330
1F
100
AcDbEntity
  8
図枠
  6
Continuous
 62
     7
100
AcDbText
 10
160.6523909192069
 20
11.84961285357811
 30
0.0
 40
3.0
  1
日付
100
AcDbText
  0
TEXT
  5
95A7
330
1F
100
AcDbEntity
  8
図枠
  6
Continuous
 62
     7
100
AcDbText
 10
177.5992773753317
 20
11.58629227450352
 30
0.0
 40
3.0
  1
名前 / NAME
100
AcDbText
  0
TEXT
  5
95A8
330
1F
100
AcDbEntity
  8
図枠
  6
Continuous
 62
     7
100
AcDbText
 10
348.2434716211732
 20
51.06368171430562
 30
0.0
 40
3.0
  1
品名 / DRAWING NAME
100
AcDbText
  0
TEXT
  5
95A9
330
1F
100
AcDbEntity
  8
図枠
  6
Continuous
 62
     7
100
AcDbText
 10
281.6543273
 20
36.48157322602304
 30
0.0
 40
3.0
  1
重量 / WEIGHT
100
AcDbText
  0
TEXT
  5
95AA
330
1F
100
AcDbEntity
  8
図枠
  6
Continuous
 62
     7
100
AcDbText
 10
349.665098397
 20
36.22875885612499
 30
0.0
 40
3.0
  1
コード番号 / CODE NO.
100
AcDbText
  0
TEXT
  5
95AB
330
1F
100
AcDbEntity
  8
図枠
  6
Continuous
 62
     7
100
AcDbText
 10
358.1954606104003
 20
43.78410263012499
 30
0.0
 40
3.0
  1
LED電球（3型）
100
AcDbText
  0
TEXT
  5
95AC
330
1F
100
AcDbEntity
  8
図枠
  6
Continuous
 62
     7
100
AcDbText
 10
361.048598397
 20
58.82397631329999
 30
0.0
 40
3.0
  1
HMB-D37T
100
AcDbText
  0
TEXT
  5
95AD
330
1F
100
AcDbEntity
  8
図枠
  6
Continuous
 62
     7
100
AcDbText
 10
293.6059579313597
 20
28.50544122146135
 30
0.0
 40
3.0
  1
ー
100
AcDbText
  0
TEXT
  5
95AE
330
1F
100
AcDbEntity
  8
図枠
  6
Continuous
 62
     7
100
AcDbText
 10
278.483124614204
 20
42.8638058748603
 30
0.0
 40
3.0
  1
モジュール：電球色
100
AcDbText
  0
TEXT
  5
95AF
330
1F
100
AcDbEntity
  8
図枠
  6
Continuous
 62
     7
100
AcDbText
 10
284.4668425402851
 20
51.23259450862039
 30
0.0
 40
3.0
  1
光源 / LIGHT
100
AcDbText
  0
TEXT
  5
95B0
330
1F
100
AcDbEntity
  8
図枠
  6
Continuous
 62
     7
100
AcDbText
 10
312.5692607788148
 20
13.42384107940867
 30
0.0
 40
3.0
  1
1 : 1
100
AcDbText
  0
TEXT
  5
95B1
330
1F
100
AcDbEntity
  8
図枠
  6
Continuous
 62
     7
100
AcDbText
 10
239.5709101911796
 20
18.67035815539131
 30
0.0
 40
3.0
  1
岩下
100
AcDbText
  0
TEXT
  5
95B2
330
1F
100
AcDbEntity
  8
図枠
  6
Continuous
 62
     7
100
AcDbText
 10
238.9176813943122
 20
28.94286629195776
 30
0.0
 40
3.0
  1
小林
100
AcDbText
  0
TEXT
  5
95B3
330
1F
100
AcDbEntity
  8
図枠
  6
Continuous
 62
     7
100
AcDbText
 10
293.279124614204
 20
59.53350859550268
 30
0.0
 40
3.0
  1
4W
100
AcDbText
  0
LINE
  5
95B4
330
1F
100
AcDbEntity
  8
0
  6
ByBlock
 62
     0
370
     9
100
AcDbLine
 10
269.7895029331319
 20
174.2282312123106
 30
0.0
 11
267.830492488544
 21
172.6201609764217
 31
0.0
  0
LINE
  5
95B5
330
1F
100
AcDbEntity
  8
0
  6
ByBlock
 62
     0
370
     9
100
AcDbLine
 10
269.1620727851346
 20
174.7766640993705
 30
0.0
 11
267.830492488544
 21
172.6201609764217
 31
0.0
  0
LINE
  5
95B6
330
1F
100
AcDbEntity
  8
0
  6
ByBlock
 62
     0
370
     9
100
AcDbLine
 10
267.830492488544
 20
172.6201609764217
 30
0.0
 11
269.4757878591332
 21
174.5024476558405
 31
0.0
  0
TEXT
  5
95B7
330
1F
100
AcDbEntity
  8
図枠
  6
Continuous
 62
     7
100
AcDbText
 10
239.4174877541263
 20
41.08223288627106
 30
0.0
 40
3.0
  1
小林
100
AcDbText
  0
TEXT
  5
95B8
330
1F
100
AcDbEntity
  8
図枠
  6
Continuous
 62
     7
100
AcDbText
 10
242.3357282708623
 20
55.13151793229003
 30
0.0
 40
3.0
  1
原
100
AcDbText
  0
TEXT
  5
95B9
330
1F
100
AcDbEntity
  8
図枠
  6
Continuous
 62
     7
100
AcDbText
 10
362.590598397
 20
29.48492998311209
 30
0.0
 40
3.0
  1
5106582
100
AcDbText
  0
TEXT
  5
95BA
330
1F
100
AcDbEntity
  8
0
  6
Continuous
 62
     7
370
     9
100
AcDbText
 10
388.6503177627322
 20
79.67831875481453
 30
0.0
 40
3.0
  1
【COLOR】
100
AcDbText
  0
TEXT
  5
95BB
330
1F
100
AcDbEntity
  8
0
  6
Continuous
 62
     7
370
     9
100
AcDbText
 10
388.8543192627322
 20
74.67831875481453
 30
0.0
 40
3.0
  1
NA
100
AcDbText
  0
TEXT
  5
95BC
330
1F
100
AcDbEntity
  8
0
  6
Continuous
 62
     7
370
     9
100
AcDbText
 10
14.11258798475195
 20
269.8489224760883
 30
0.0
 40
3.5
  1
1
  7
ＭＳ_Ｐゴシック
100
AcDbText
  0
TEXT
  5
95BD
330
1F
100
AcDbEntity
  8
0
  6
Continuous
 62
     7
370
     9
100
AcDbText
 10
11.69758798475195
 20
279.8664224760883
 30
0.0
 40
3.5
  1
No.
  7
ＭＳ_Ｐゴシック
100
AcDbText
  0
TEXT
  5
95BE
330
1F
100
AcDbEntity
  8
0
  6
Continuous
 62
     7
370
     9
100
AcDbText
 10
28.5366501297735
 20
279.2504224760883
 30
0.0
 40
3.5
  1
部　品　名
  7
ＭＳ_Ｐゴシック
100
AcDbText
  0
TEXT
  5
95BF
330
1F
100
AcDbEntity
  8
0
  6
Continuous
 62
     7
370
     9
100
AcDbText
 10
60.95286345033897
 20
279.2329224760883
 30
0.0
 40
3.5
  1
個数
  7
ＭＳ_Ｐゴシック
100
AcDbText
  0
TEXT
  5
95C0
330
1F
100
AcDbEntity
  8
0
  6
Continuous
 62
     7
370
     9
100
AcDbText
 10
83.06751540912573
 20
279.3099224760883
 30
0.0
 40
3.5
  1
材　質
  7
ＭＳ_Ｐゴシック
100
AcDbText
  0
TEXT
  5
95C1
330
1F
100
AcDbEntity
  8
0
  6
Continuous
 62
     7
370
     9
100
AcDbText
 10
13.90258798475195
 20
259.8664224760883
 30
0.0
 40
3.5
  1
2
  7
ＭＳ_Ｐゴシック
100
AcDbText
  0
TEXT
  5
95C2
330
1F
100
AcDbEntity
  8
0
  6
Continuous
 62
     7
370
     9
100
AcDbText
 10
13.90258798475195
 20
249.8664224760883
 30
0.0
 40
3.5
  1
3
  7
ＭＳ_Ｐゴシック
100
AcDbText
  0
TEXT
  5
95C3
330
1F
100
AcDbEntity
  8
0
  6
Continuous
 62
     7
370
     9
100
AcDbText
 10
64.76670326410415
 20
270.3514224760883
 30
0.0
 40
3.0
  1
1
  7
ＭＳ_Ｐゴシック
100
AcDbText
  0
TEXT
  5
95C4
330
1F
100
AcDbEntity
  8
0
  6
Continuous
 62
     7
370
     9
100
AcDbText
 10
64.76670326410415
 20
260.3514224760883
 30
0.0
 40
3.0
  1
1
  7
ＭＳ_Ｐゴシック
100
AcDbText
  0
TEXT
  5
95C5
330
1F
100
AcDbEntity
  8
0
  6
Continuous
 62
     7
370
     9
100
AcDbText
 10
64.76670326410415
 20
250.3514224760883
 30
0.0
 40
3.0
  1
1
  7
ＭＳ_Ｐゴシック
100
AcDbText
  0
TEXT
  5
95C6
330
1F
100
AcDbEntity
  8
0
  6
Continuous
 62
     7
370
     9
100
AcDbText
 10
33.18165012977349
 20
269.7724224760883
 30
0.0
 40
3.0
  1
カバー
  7
ＭＳ_Ｐゴシック
100
AcDbText
  0
TEXT
  5
95C7
330
1F
100
AcDbEntity
  8
0
  6
Continuous
 62
     7
370
     9
100
AcDbText
 10
84.02451540912574
 20
269.6854224760883
 30
0.0
 40
3.0
  1
ガラス
  7
ＭＳ_Ｐゴシック
100
AcDbText
  0
TEXT
  5
95C8
330
1F
100
AcDbEntity
  8
0
  6
Continuous
 62
     7
370
     9
100
AcDbText
 10
34.9021501297735
 20
259.8234224760883
 30
0.0
 40
3.0
  1
本体
  7
ＭＳ_Ｐゴシック
100
AcDbText
  0
TEXT
  5
95C9
330
1F
100
AcDbEntity
  8
0
  6
Continuous
 62
     7
370
     9
100
AcDbText
 10
87.22126666974492
 20
260.3664224760883
 30
0.0
 40
3.0
  1
PA
  7
ＭＳ_Ｐゴシック
100
AcDbText
  0
TEXT
  5
95CA
330
1F
100
AcDbEntity
  8
0
  6
Continuous
 62
     7
370
     9
100
AcDbText
 10
34.6726501297735
 20
249.8234224760883
 30
0.0
 40
3.0
  1
口金
  7
ＭＳ_Ｐゴシック
100
AcDbText
  0
TEXT
  5
95CB
330
1F
100
AcDbEntity
  8
0
  6
Continuous
 62
     7
370
     9
100
AcDbText
 10
87.65451540912574
 20
249.7724224760883
 30
0.0
 40
3.0
  1
銅
  7
ＭＳ_Ｐゴシック
100
AcDbText
  0
TEXT
  5
95CC
330
1F
100
AcDbEntity
  8
0
  6
Continuous
 62
     7
370
     9
100
AcDbText
 10
111.7123777030273
 20
270.7323372724988
 30
0.0
 40
3.0
  1
透明
  7
ＭＳ_Ｐゴシック
100
AcDbText
  0
TEXT
  5
95CD
330
1F
100
AcDbEntity
  8
0
  6
Continuous
 62
     7
370
     9
100
AcDbText
 10
110.944113450339
 20
279.2119224760883
 30
0.0
 40
3.5
  1
摘要
  7
ＭＳ_Ｐゴシック
100
AcDbText
  0
TEXT
  5
95CE
330
1F
100
AcDbEntity
  8
0
  6
Continuous
 62
     7
370
     9
100
AcDbText
 10
111.3883777030273
 20
260.7503372724988
 30
0.0
 40
3.0
  1
白色
  7
ＭＳ_Ｐゴシック
100
AcDbText
  0
TEXT
  5
95CF
330
1F
100
AcDbEntity
  8
0
  6
Continuous
 62
     7
370
     9
100
AcDbText
 10
111.5143777030273
 20
250.7683372724988
 30
0.0
 40
3.0
  1
生地
  7
ＭＳ_Ｐゴシック
100
AcDbText
  0
TEXT
  5
95D0
330
1F
100
AcDbEntity
  8
0
  6
Continuous
 62
     7
370
     9
100
AcDbText
 10
331.1980011492698
 20
271.8271509969893
 30
0.0
 40
3.0
  1
注.本図において寸法公差は±0.5とする。
100
AcDbText
  0
POLYLINE
  5
95D1
330
1F
100
AcDbEntity
  8
図枠
 62
     0
370
     0
100
AcDb2dPolyline
 66
     1
 10
0.0
 20
0.0
 30
0.0
  0
VERTEX
  5
95D2
330
95D1
100
AcDbEntity
  8
図枠
 62
     0
370
     0
100
AcDbVertex
100
AcDb2dVertex
 10
352.9059876572999
 20
21.49098304397857
 30
0.0
  0
VERTEX
  5
95D3
330
95D1
100
AcDbEntity
  8
図枠
 62
     0
370
     0
100
AcDbVertex
100
AcDb2dVertex
 10
352.0262886608282
 20
21.49098304397857
 30
0.0
  0
VERTEX
  5
95D4
330
95D1
100
AcDbEntity
  8
図枠
 62
     0
370
     0
100
AcDbVertex
100
AcDb2dVertex
 10
352.0262886608282
 20
23.74128537588538
 30
0.0
  0
VERTEX
  5
95D5
330
95D1
100
AcDbEntity
  8
図枠
 62
     0
370
     0
100
AcDbVertex
100
AcDb2dVertex
 10
351.9442436505293
 20
23.74128537588538
 30
0.0
  0
VERTEX
  5
95D6
330
95D1
100
AcDbEntity
  8
図枠
 62
     0
370
     0
100
AcDbVertex
100
AcDb2dVertex
 10
350.8190924561534
 20
23.74128537588538
 30
0.0
  0
VERTEX
  5
95D7
330
95D1
100
AcDbEntity
  8
図枠
 62
     0
370
     0
100
AcDbVertex
100
AcDb2dVertex
 10
350.8190924561534
 20
21.49098304397857
 30
0.0
  0
VERTEX
  5
95D8
330
95D1
100
AcDbEntity
  8
図枠
 62
     0
370
     0
100
AcDbVertex
100
AcDb2dVertex
 10
350.0742792384576
 20
21.49098304397857
 30
0.0
  0
VERTEX
  5
95D9
330
95D1
100
AcDbEntity
  8
図枠
 62
     0
370
     0
100
AcDbVertex
100
AcDb2dVertex
 10
350.0742792384576
 20
20.3527530002744
 30
0.0
  0
VERTEX
  5
95DA
330
95D1
100
AcDbEntity
  8
図枠
 62
     0
370
     0
100
AcDbVertex
100
AcDb2dVertex
 10
350.8190924561534
 20
20.3527530002744
 30
0.0
  0
VERTEX
  5
95DB
330
95D1
100
AcDbEntity
  8
図枠
 62
     0
370
     0
100
AcDbVertex
100
AcDb2dVertex
 10
350.8190924561534
 20
13.22670807321766
 30
0.0
  0
VERTEX
  5
95DC
330
95D1
100
AcDbEntity
  8
図枠
 62
     0
370
     0
100
AcDbVertex
100
AcDb2dVertex
 10
352.0262886608282
 20
13.22670807321766
 30
0.0
  0
VERTEX
  5
95DD
330
95D1
100
AcDbEntity
  8
図枠
 62
     0
370
     0
100
AcDbVertex
100
AcDb2dVertex
 10
352.0262886608282
 20
20.3527530002744
 30
0.0
  0
VERTEX
  5
95DE
330
95D1
100
AcDbEntity
  8
図枠
 62
     0
370
     0
100
AcDbVertex
100
AcDb2dVertex
 10
352.9059876572999
 20
20.3527530002744
 30
0.0
  0
VERTEX
  5
95DF
330
95D1
100
AcDbEntity
  8
図枠
 62
     0
370
     0
100
AcDbVertex
100
AcDb2dVertex
 10
352.9059876572999
 20
21.49098304397857
 30
0.0
  0
SEQEND
  5
95E0
330
95D1
100
AcDbEntity
  8
図枠
 62
     0
370
     0
  0
SPLINE
  5
95E1
330
1F
100
AcDbEntity
  8
図枠
 62
     0
370
     0
100
AcDbSpline
210
0.0
220
0.0
230
1.0
 70
    11
 71
     3
 72
    77
 73
    73
 74
     0
 42
0.000000001
 43
0.0000000001
 40
0.0
 40
0.0
 40
0.0
 40
0.0
 40
1.0
 40
1.0
 40
1.0
 40
2.0
 40
2.0
 40
2.0
 40
3.0
 40
3.0
 40
3.0
 40
4.0
 40
4.0
 40
4.0
 40
5.0
 40
5.0
 40
5.0
 40
6.0
 40
6.0
 40
6.0
 40
7.0
 40
7.0
 40
7.0
 40
8.0
 40
8.0
 40
8.0
 40
9.0
 40
9.0
 40
9.0
 40
10.0
 40
10.0
 40
10.0
 40
11.0
 40
11.0
 40
11.0
 40
12.0
 40
12.0
 40
12.0
 40
13.0
 40
13.0
 40
13.0
 40
14.0
 40
14.0
 40
14.0
 40
15.0
 40
15.0
 40
15.0
 40
16.0
 40
16.0
 40
16.0
 40
17.0
 40
17.0
 40
17.0
 40
18.0
 40
18.0
 40
18.0
 40
19.0
 40
19.0
 40
19.0
 40
20.0
 40
20.0
 40
20.0
 40
21.0
 40
21.0
 40
21.0
 40
22.0
 40
22.0
 40
22.0
 40
23.0
 40
23.0
 40
23.0
 40
24.0
 40
24.0
 40
24.0
 40
24.0
 10
353.2879014024252
 20
20.13682761798156
 30
0.0
 10
353.2879014024252
 20
20.13682761798156
 30
0.0
 10
353.2879014024252
 20
20.13682761798156
 30
0.0
 10
353.2879014024252
 20
20.13682761798156
 30
0.0
 10
353.2879014024252
 20
20.13682761798156
 30
0.0
 10
353.1745511257116
 20
20.11323620289281
 30
0.0
 10
353.1745511257116
 20
20.11323620289281
 30
0.0
 10
353.1745511257116
 20
20.11323620289281
 30
0.0
 10
353.1745511257116
 20
19.07581019926137
 30
0.0
 10
353.1745511257116
 20
19.07581019926137
 30
0.0
 10
353.1745511257116
 20
19.07581019926137
 30
0.0
 10
353.3363825448748
 20
19.09734570132618
 30
0.0
 10
353.3363825448748
 20
19.09734570132618
 30
0.0
 10
355.1652719261812
 20
19.35639463852873
 30
0.0
 10
356.1536989452656
 20
20.13834344612744
 30
0.0
 10
356.5371359332191
 20
21.78108200712686
 30
0.0
 10
356.5371359332191
 20
21.78108200712686
 30
0.0
 10
358.2593457908909
 20
21.78108200712686
 30
0.0
 10
358.2593457908909
 20
21.78108200712686
 30
0.0
 10
358.2593457908909
 20
21.78108200712686
 30
0.0
 10
358.2593457908909
 20
20.2625139963495
 30
0.0
 10
358.2593457908909
 20
20.2625139963495
 30
0.0
 10
358.2593457908909
 20
20.2625139963495
 30
0.0
 10
356.9631711947659
 20
20.2625139963495
 30
0.0
 10
356.9631711947659
 20
20.2625139963495
 30
0.0
 10
356.9631711947659
 20
20.2625139963495
 30
0.0
 10
356.9631711947659
 20
19.12375869650996
 30
0.0
 10
356.9631711947659
 20
19.12375869650996
 30
0.0
 10
356.9631711947659
 20
19.12375869650996
 30
0.0
 10
358.7489895719459
 20
19.12375869650996
 30
0.0
 10
358.7489895719459
 20
19.12375869650996
 30
0.0
 10
358.9916053866521
 20
19.12375869650996
 30
0.0
 10
359.3988890037188
 20
19.21557346884098
 30
0.0
 10
359.3988890037188
 20
19.83343225998597
 30
0.0
 10
359.3988890037188
 20
19.83343225998597
 30
0.0
 10
359.3988890037188
 20
22.31148565185851
 30
0.0
 10
359.3988890037188
 20
22.31148565185851
 30
0.0
 10
359.3988890037188
 20
22.60510383110685
 30
0.0
 10
359.1685641828744
 20
22.92031003748592
 30
0.0
 10
358.7951070617304
 20
22.92031003748592
 30
0.0
 10
358.7951070617304
 20
22.92031003748592
 30
0.0
 10
356.6984420962328
 20
22.92031003748592
 30
0.0
 10
356.6984420962328
 20
22.92031003748592
 30
0.0
 10
356.7025916197987
 20
23.05624632512448
 30
0.0
 10
356.7241271218642
 20
23.59841570727199
 30
0.0
 10
356.7241271218642
 20
23.59841570727199
 30
0.0
 10
356.7241271218642
 20
23.59841570727199
 30
0.0
 10
356.7241271218642
 20
23.74128537588538
 30
0.0
 10
356.7241271218642
 20
23.74128537588538
 30
0.0
 10
356.7241271218642
 20
23.74128537588538
 30
0.0
 10
356.6443407130005
 20
23.74128537588538
 30
0.0
 10
356.6443407130005
 20
23.74128537588538
 30
0.0
 10
356.6443407130005
 20
23.74128537588538
 30
0.0
 10
355.4661386476894
 20
23.74128537588538
 30
0.0
 10
355.4661386476894
 20
23.74128537588538
 30
0.0
 10
355.4661386476894
 20
23.74128537588538
 30
0.0
 10
355.4661386476894
 20
23.59841570727199
 30
0.0
 10
355.4661386476894
 20
23.59841570727199
 30
0.0
 10
355.4661386476894
 20
23.59841570727199
 30
0.0
 10
355.4530597696085
 20
23.04264219123611
 30
0.0
 10
355.4489102460387
 20
22.92031003748592
 30
0.0
 10
355.4489102460387
 20
22.92031003748592
 30
0.0
 10
352.8524115302171
 20
22.92031003748592
 30
0.0
 10
352.8524115302171
 20
22.92031003748592
 30
0.0
 10
352.8524115302171
 20
22.92031003748592
 30
0.0
 10
352.8524115302171
 20
21.78108200712686
 30
0.0
 10
352.8524115302171
 20
21.78108200712686
 30
0.0
 10
352.8524115302171
 20
21.78108200712686
 30
0.0
 10
355.2948000922497
 20
21.78108200712686
 30
0.0
 10
355.2948000922497
 20
21.78108200712686
 30
0.0
 10
355.0439377560198
 20
20.8108288752707
 30
0.0
 10
354.4576468437556
 20
20.37844544600782
 30
0.0
 10
353.2879014024252
 20
20.13682761798156
 30
0.0
  0
SPLINE
  5
95E2
330
1F
100
AcDbEntity
  8
図枠
 62
     0
370
     0
100
AcDbSpline
210
0.0
220
0.0
230
1.0
 70
    11
 71
     3
 72
    74
 73
    70
 74
     0
 42
0.000000001
 43
0.0000000001
 40
0.0
 40
0.0
 40
0.0
 40
0.0
 40
1.0
 40
1.0
 40
1.0
 40
2.0
 40
2.0
 40
2.0
 40
3.0
 40
3.0
 40
3.0
 40
4.0
 40
4.0
 40
4.0
 40
5.0
 40
5.0
 40
5.0
 40
6.0
 40
6.0
 40
6.0
 40
7.0
 40
7.0
 40
7.0
 40
8.0
 40
8.0
 40
8.0
 40
9.0
 40
9.0
 40
9.0
 40
10.0
 40
10.0
 40
10.0
 40
11.0
 40
11.0
 40
11.0
 40
12.0
 40
12.0
 40
12.0
 40
13.0
 40
13.0
 40
13.0
 40
14.0
 40
14.0
 40
14.0
 40
15.0
 40
15.0
 40
15.0
 40
16.0
 40
16.0
 40
16.0
 40
17.0
 40
17.0
 40
17.0
 40
18.0
 40
18.0
 40
18.0
 40
19.0
 40
19.0
 40
19.0
 40
20.0
 40
20.0
 40
20.0
 40
21.0
 40
21.0
 40
21.0
 40
22.0
 40
22.0
 40
22.0
 40
23.0
 40
23.0
 40
23.0
 40
23.0
 10
355.2209490778581
 20
18.46923702716889
 30
0.0
 10
355.2209490778581
 20
18.46923702716889
 30
0.0
 10
354.231208918405
 20
18.46923702716889
 30
0.0
 10
354.231208918405
 20
18.46923702716889
 30
0.0
 10
354.231208918405
 20
18.46923702716889
 30
0.0
 10
354.231208918405
 20
18.83266174670678
 30
0.0
 10
354.231208918405
 20
18.83266174670678
 30
0.0
 10
354.231208918405
 20
18.83266174670678
 30
0.0
 10
354.150897253395
 20
18.83266174670678
 30
0.0
 10
354.150897253395
 20
18.83266174670678
 30
0.0
 10
354.150897253395
 20
18.83266174670678
 30
0.0
 10
353.2573840202334
 20
18.83266174670678
 30
0.0
 10
353.2573840202334
 20
18.83266174670678
 30
0.0
 10
353.2573840202334
 20
18.83266174670678
 30
0.0
 10
353.1765996246885
 20
18.83266174670678
 30
0.0
 10
353.1765996246885
 20
18.83266174670678
 30
0.0
 10
353.1765996246885
 20
18.83266174670678
 30
0.0
 10
353.1770723552222
 20
18.60413017846355
 30
0.0
 10
353.1770723552222
 20
18.60413017846355
 30
0.0
 10
353.1770723552222
 20
18.60413017846355
 30
0.0
 10
353.1786481236662
 20
18.53132230228185
 30
0.0
 10
353.1786481236662
 20
18.46923702716889
 30
0.0
 10
353.1786481236662
 20
18.46923702716889
 30
0.0
 10
352.2784116118115
 20
18.46923702716889
 30
0.0
 10
352.2784116118115
 20
18.46923702716889
 30
0.0
 10
352.2784116118115
 20
18.46923702716889
 30
0.0
 10
352.2784116118115
 20
17.33048172732646
 30
0.0
 10
352.2784116118115
 20
17.33048172732646
 30
0.0
 10
352.2784116118115
 20
17.33048172732646
 30
0.0
 10
353.1786481236662
 20
17.33048172732646
 30
0.0
 10
353.1786481236662
 20
17.33048172732646
 30
0.0
 10
353.1629954904594
 20
15.99118363529346
 30
0.0
 10
353.1786481236662
 20
14.83966461138317
 30
0.0
 10
352.3581980206745
 20
14.27464658738043
 30
0.0
 10
352.3581980206745
 20
14.27464658738043
 30
0.0
 10
352.297898614898
 20
14.23204831486378
 30
0.0
 10
352.297898614898
 20
14.23204831486378
 30
0.0
 10
352.297898614898
 20
14.23204831486378
 30
0.0
 10
352.297898614898
 20
13.18101078950335
 30
0.0
 10
352.297898614898
 20
13.18101078950335
 30
0.0
 10
352.297898614898
 20
13.18101078950335
 30
0.0
 10
352.4984939377742
 20
13.26925382011846
 30
0.0
 10
352.4984939377742
 20
13.26925382011846
 30
0.0
 10
354.0788321099056
 20
13.95944038100137
 30
0.0
 10
354.1693862697985
 20
15.64598530362673
 30
0.0
 10
354.2181300403241
 20
17.33048172732646
 30
0.0
 10
354.2181300403241
 20
17.33048172732646
 30
0.0
 10
354.7228486728224
 20
17.33048172732646
 30
0.0
 10
354.7228486728224
 20
17.33048172732646
 30
0.0
 10
354.7228486728224
 20
17.33048172732646
 30
0.0
 10
354.7228486728224
 20
14.35595623701687
 30
0.0
 10
354.7228486728224
 20
14.35595623701687
 30
0.0
 10
354.7228486728224
 20
14.35595623701687
 30
0.0
 10
353.9329159520251
 20
14.35595623701687
 30
0.0
 10
353.9329159520251
 20
14.35595623701687
 30
0.0
 10
353.9329159520251
 20
14.35595623701687
 30
0.0
 10
353.9329159520251
 20
13.22670807321766
 30
0.0
 10
353.9329159520251
 20
13.22670807321766
 30
0.0
 10
353.9329159520251
 20
13.22670807321766
 30
0.0
 10
355.121150409759
 20
13.22670807321766
 30
0.0
 10
355.121150409759
 20
13.22670807321766
 30
0.0
 10
355.5633110350481
 20
13.22670807321766
 30
0.0
 10
355.8616040014273
 20
13.55341738894297
 30
0.0
 10
355.8616040014273
 20
14.05226040092291
 30
0.0
 10
355.8616040014273
 20
14.05226040092291
 30
0.0
 10
355.8616040014273
 20
17.80063849342281
 30
0.0
 10
355.8616040014273
 20
17.80063849342281
 30
0.0
 10
355.8616040014273
 20
18.22609596245877
 30
0.0
 10
355.6284427973856
 20
18.46923702716889
 30
0.0
 10
355.2209490778581
 20
18.46923702716889
 30
0.0
  0
SPLINE
  5
95E3
330
1F
100
AcDbEntity
  8
図枠
 62
     0
370
     0
100
AcDbSpline
210
0.0
220
0.0
230
1.0
 70
    11
 71
     3
 72
    68
 73
    64
 74
     0
 42
0.000000001
 43
0.0000000001
 40
0.0
 40
0.0
 40
0.0
 40
0.0
 40
1.0
 40
1.0
 40
1.0
 40
2.0
 40
2.0
 40
2.0
 40
3.0
 40
3.0
 40
3.0
 40
4.0
 40
4.0
 40
4.0
 40
5.0
 40
5.0
 40
5.0
 40
6.0
 40
6.0
 40
6.0
 40
7.0
 40
7.0
 40
7.0
 40
8.0
 40
8.0
 40
8.0
 40
9.0
 40
9.0
 40
9.0
 40
10.0
 40
10.0
 40
10.0
 40
11.0
 40
11.0
 40
11.0
 40
12.0
 40
12.0
 40
12.0
 40
13.0
 40
13.0
 40
13.0
 40
14.0
 40
14.0
 40
14.0
 40
15.0
 40
15.0
 40
15.0
 40
16.0
 40
16.0
 40
16.0
 40
17.0
 40
17.0
 40
17.0
 40
18.0
 40
18.0
 40
18.0
 40
19.0
 40
19.0
 40
19.0
 40
20.0
 40
20.0
 40
20.0
 40
21.0
 40
21.0
 40
21.0
 40
21.0
 10
359.0095166212966
 20
18.46923702716889
 30
0.0
 10
359.0095166212966
 20
18.46923702716889
 30
0.0
 10
358.0193037313093
 20
18.46923702716889
 30
0.0
 10
358.0193037313093
 20
18.46923702716889
 30
0.0
 10
358.0182532190141
 20
18.57696706037967
 30
0.0
 10
358.0182532190141
 20
18.83266174670678
 30
0.0
 10
358.0182532190141
 20
18.83266174670678
 30
0.0
 10
358.0182532190141
 20
18.83266174670678
 30
0.0
 10
357.9385193357663
 20
18.83266174670678
 30
0.0
 10
357.9385193357663
 20
18.83266174670678
 30
0.0
 10
357.9385193357663
 20
18.83266174670678
 30
0.0
 10
356.9652196937409
 20
18.83266174670678
 30
0.0
 10
356.9652196937409
 20
18.83266174670678
 30
0.0
 10
356.9652196937409
 20
18.83266174670678
 30
0.0
 10
356.9662176804202
 20
18.53079704614647
 30
0.0
 10
356.9662176804202
 20
18.46923702716889
 30
0.0
 10
356.9662176804202
 20
18.46923702716889
 30
0.0
 10
356.0680821931591
 20
18.46923702716889
 30
0.0
 10
356.0680821931591
 20
18.46923702716889
 30
0.0
 10
356.0680821931591
 20
18.46923702716889
 30
0.0
 10
356.0680821931591
 20
17.33048172732646
 30
0.0
 10
356.0680821931591
 20
17.33048172732646
 30
0.0
 10
356.0680821931591
 20
17.33048172732646
 30
0.0
 10
356.9652196937409
 20
17.33048172732646
 30
0.0
 10
356.9652196937409
 20
17.33048172732646
 30
0.0
 10
356.944156922213
 20
15.99375739035446
 30
0.0
 10
356.95313880234
 20
14.84502222395573
 30
0.0
 10
356.1285917013964
 20
14.27464658738043
 30
0.0
 10
356.1285917013964
 20
14.27464658738043
 30
0.0
 10
356.0655084380377
 20
14.23204831486378
 30
0.0
 10
356.0655084380377
 20
14.23204831486378
 30
0.0
 10
356.0655084380377
 20
14.23204831486378
 30
0.0
 10
356.0655084380377
 20
13.18101078950335
 30
0.0
 10
356.0655084380377
 20
13.18101078950335
 30
0.0
 10
356.0655084380377
 20
13.18101078950335
 30
0.0
 10
356.2655259791505
 20
13.26925382011846
 30
0.0
 10
356.2655259791505
 20
13.26925382011846
 30
0.0
 10
357.8543733008759
 20
13.96248686658189
 30
0.0
 10
357.9510729577009
 20
15.71778781722607
 30
0.0
 10
358.0051743409332
 20
17.33048172732646
 30
0.0
 10
358.0051743409332
 20
17.33048172732646
 30
0.0
 10
358.5114687418767
 20
17.33048172732646
 30
0.0
 10
358.5114687418767
 20
17.33048172732646
 30
0.0
 10
358.5114687418767
 20
17.33048172732646
 30
0.0
 10
358.5114687418767
 20
14.35595623701687
 30
0.0
 10
358.5114687418767
 20
14.35595623701687
 30
0.0
 10
358.5114687418767
 20
14.35595623701687
 30
0.0
 10
357.72101076493
 20
14.35595623701687
 30
0.0
 10
357.72101076493
 20
14.35595623701687
 30
0.0
 10
357.72101076493
 20
14.35595623701687
 30
0.0
 10
357.72101076493
 20
13.22670807321766
 30
0.0
 10
357.72101076493
 20
13.22670807321766
 30
0.0
 10
357.72101076493
 20
13.22670807321766
 30
0.0
 10
358.9097704788134
 20
13.22670807321766
 30
0.0
 10
358.9097704788134
 20
13.22670807321766
 30
0.0
 10
359.3524563602481
 20
13.22670807321766
 30
0.0
 10
359.6514846852344
 20
13.55341738894297
 30
0.0
 10
359.6514846852344
 20
14.05226040092291
 30
0.0
 10
359.6514846852344
 20
14.05226040092291
 30
0.0
 10
359.6514846852344
 20
17.80063849342281
 30
0.0
 10
359.6514846852344
 20
17.80063849342281
 30
0.0
 10
359.6514846852344
 20
18.22609596245877
 30
0.0
 10
359.4170628664361
 20
18.46923702716889
 30
0.0
 10
359.0095166212966
 20
18.46923702716889
 30
0.0
  0
HATCH
  5
95E4
330
1F
100
AcDbEntity
  8
図枠
 62
     0
100
AcDbHatch
 10
0.0
 20
0.0
 30
0.0
210
0.0
220
0.0
230
1.0
  2
SOLID
 70
     1
 71
     0
 91
        4
 92
        1
 93
       13
 72
     1
 10
352.9059876572999
 20
21.49098304397857
 11
352.0262886608282
 21
21.49098304397857
 72
     1
 10
352.0262886608282
 20
21.49098304397857
 11
352.0262886608282
 21
23.74128537588538
 72
     1
 10
352.0262886608282
 20
23.74128537588538
 11
351.9442436505293
 21
23.74128537588538
 72
     1
 10
351.9442436505293
 20
23.74128537588538
 11
350.8190924561534
 21
23.74128537588538
 72
     1
 10
350.8190924561534
 20
23.74128537588538
 11
350.8190924561534
 21
21.49098304397856
 72
     1
 10
350.8190924561534
 20
21.49098304397857
 11
350.0742792384576
 21
21.49098304397857
 72
     1
 10
350.0742792384576
 20
21.49098304397857
 11
350.0742792384576
 21
20.3527530002744
 72
     1
 10
350.0742792384576
 20
20.3527530002744
 11
350.8190924561534
 21
20.3527530002744
 72
     1
 10
350.8190924561534
 20
20.3527530002744
 11
350.8190924561534
 21
13.22670807321766
 72
     1
 10
350.8190924561534
 20
13.22670807321766
 11
352.0262886608282
 21
13.22670807321766
 72
     1
 10
352.0262886608282
 20
13.22670807321766
 11
352.0262886608282
 21
20.3527530002744
 72
     1
 10
352.0262886608282
 20
20.3527530002744
 11
352.9059876572999
 21
20.3527530002744
 72
     1
 10
352.9059876572999
 20
20.3527530002744
 11
352.9059876572999
 21
21.49098304397857
 97
        0
 92
        1
 93
        2
 72
     4
 94
        3
 73
     0
 74
     0
 95
       77
 96
       73
 40
0.0
 40
0.0
 40
0.0
 40
0.0
 40
0.3527777776895833
 40
0.3527777776895833
 40
0.3527777776895833
 40
0.7055555553791667
 40
0.7055555553791667
 40
0.7055555553791667
 40
1.05833333306875
 40
1.05833333306875
 40
1.05833333306875
 40
1.411111110758333
 40
1.411111110758333
 40
1.411111110758333
 40
1.763888888447917
 40
1.763888888447917
 40
1.763888888447917
 40
2.1166666661375
 40
2.1166666661375
 40
2.1166666661375
 40
2.469444443827083
 40
2.469444443827083
 40
2.469444443827083
 40
2.822222221516667
 40
2.822222221516667
 40
2.822222221516667
 40
3.17499999920625
 40
3.17499999920625
 40
3.17499999920625
 40
3.527777776895833
 40
3.527777776895833
 40
3.527777776895833
 40
3.880555554585417
 40
3.880555554585417
 40
3.880555554585417
 40
4.233333332275
 40
4.233333332275
 40
4.233333332275
 40
4.586111109964584
 40
4.586111109964584
 40
4.586111109964584
 40
4.938888887654167
 40
4.938888887654167
 40
4.938888887654167
 40
5.29166666534375
 40
5.29166666534375
 40
5.29166666534375
 40
5.644444443033334
 40
5.644444443033334
 40
5.644444443033334
 40
5.997222220722917
 40
5.997222220722917
 40
5.997222220722917
 40
6.349999998412501
 40
6.349999998412501
 40
6.349999998412501
 40
6.702777776102083
 40
6.702777776102083
 40
6.702777776102083
 40
7.055555553791667
 40
7.055555553791667
 40
7.055555553791667
 40
7.40833333148125
 40
7.40833333148125
 40
7.40833333148125
 40
7.761111109170834
 40
7.761111109170834
 40
7.761111109170834
 40
8.113888886860417
 40
8.113888886860417
 40
8.113888886860417
 40
8.46666666455
 40
8.46666666455
 40
8.46666666455
 40
8.46666666455
 10
353.2879014024252
 20
20.13682761798156
 10
353.2879014024252
 20
20.13682761798156
 10
353.2879014024252
 20
20.13682761798156
 10
353.2879014024252
 20
20.13682761798156
 10
353.2879014024252
 20
20.13682761798156
 10
353.1745511257116
 20
20.11323620289281
 10
353.1745511257116
 20
20.11323620289281
 10
353.1745511257116
 20
20.11323620289281
 10
353.1745511257116
 20
19.07581019926137
 10
353.1745511257116
 20
19.07581019926137
 10
353.1745511257116
 20
19.07581019926137
 10
353.3363825448748
 20
19.09734570132618
 10
353.3363825448748
 20
19.09734570132618
 10
355.1652719261812
 20
19.35639463852873
 10
356.1536989452656
 20
20.13834344612744
 10
356.5371359332191
 20
21.78108200712686
 10
356.5371359332191
 20
21.78108200712686
 10
358.2593457908909
 20
21.78108200712686
 10
358.2593457908909
 20
21.78108200712686
 10
358.2593457908909
 20
21.78108200712686
 10
358.2593457908909
 20
20.2625139963495
 10
358.2593457908909
 20
20.2625139963495
 10
358.2593457908909
 20
20.2625139963495
 10
356.9631711947659
 20
20.2625139963495
 10
356.9631711947659
 20
20.2625139963495
 10
356.9631711947659
 20
20.2625139963495
 10
356.9631711947659
 20
19.12375869650996
 10
356.9631711947659
 20
19.12375869650996
 10
356.9631711947659
 20
19.12375869650996
 10
358.7489895719459
 20
19.12375869650996
 10
358.7489895719459
 20
19.12375869650996
 10
358.9916053866521
 20
19.12375869650996
 10
359.3988890037188
 20
19.21557346884098
 10
359.3988890037188
 20
19.83343225998597
 10
359.3988890037188
 20
19.83343225998597
 10
359.3988890037188
 20
22.31148565185851
 10
359.3988890037188
 20
22.31148565185851
 10
359.3988890037188
 20
22.60510383110685
 10
359.1685641828744
 20
22.92031003748592
 10
358.7951070617304
 20
22.92031003748592
 10
358.7951070617304
 20
22.92031003748592
 10
356.6984420962328
 20
22.92031003748592
 10
356.6984420962328
 20
22.92031003748592
 10
356.7025916197987
 20
23.05624632512448
 10
356.7241271218642
 20
23.59841570727199
 10
356.7241271218642
 20
23.59841570727199
 10
356.7241271218642
 20
23.59841570727199
 10
356.7241271218642
 20
23.74128537588538
 10
356.7241271218642
 20
23.74128537588538
 10
356.7241271218642
 20
23.74128537588538
 10
356.6443407130005
 20
23.74128537588538
 10
356.6443407130005
 20
23.74128537588538
 10
356.6443407130005
 20
23.74128537588538
 10
355.4661386476894
 20
23.74128537588538
 10
355.4661386476894
 20
23.74128537588538
 10
355.4661386476894
 20
23.74128537588538
 10
355.4661386476894
 20
23.59841570727199
 10
355.4661386476894
 20
23.59841570727199
 10
355.4661386476894
 20
23.59841570727199
 10
355.4530597696085
 20
23.04264219123611
 10
355.4489102460387
 20
22.92031003748592
 10
355.4489102460387
 20
22.92031003748592
 10
352.8524115302171
 20
22.92031003748592
 10
352.8524115302171
 20
22.92031003748592
 10
352.8524115302171
 20
22.92031003748592
 10
352.8524115302171
 20
21.78108200712686
 10
352.8524115302171
 20
21.78108200712686
 10
352.8524115302171
 20
21.78108200712686
 10
355.2948000922497
 20
21.78108200712686
 10
355.2948000922497
 20
21.78108200712686
 10
355.0439377560198
 20
20.8108288752707
 10
354.4576468437556
 20
20.37844544600782
 10
353.2879014024252
 20
20.13682761798156
 97
        0
 72
     1
 10
353.2879014024252
 20
20.13682761798156
 11
353.2879014024252
 21
20.13682761798156
 97
        0
 92
        1
 93
        2
 72
     4
 94
        3
 73
     0
 74
     0
 95
       74
 96
       70
 40
0.0
 40
0.0
 40
0.0
 40
0.0
 40
0.3527777776895833
 40
0.3527777776895833
 40
0.3527777776895833
 40
0.7055555553791667
 40
0.7055555553791667
 40
0.7055555553791667
 40
1.05833333306875
 40
1.05833333306875
 40
1.05833333306875
 40
1.411111110758333
 40
1.411111110758333
 40
1.411111110758333
 40
1.763888888447917
 40
1.763888888447917
 40
1.763888888447917
 40
2.1166666661375
 40
2.1166666661375
 40
2.1166666661375
 40
2.469444443827083
 40
2.469444443827083
 40
2.469444443827083
 40
2.822222221516667
 40
2.822222221516667
 40
2.822222221516667
 40
3.17499999920625
 40
3.17499999920625
 40
3.17499999920625
 40
3.527777776895833
 40
3.527777776895833
 40
3.527777776895833
 40
3.880555554585417
 40
3.880555554585417
 40
3.880555554585417
 40
4.233333332275
 40
4.233333332275
 40
4.233333332275
 40
4.586111109964584
 40
4.586111109964584
 40
4.586111109964584
 40
4.938888887654167
 40
4.938888887654167
 40
4.938888887654167
 40
5.29166666534375
 40
5.29166666534375
 40
5.29166666534375
 40
5.644444443033334
 40
5.644444443033334
 40
5.644444443033334
 40
5.997222220722917
 40
5.997222220722917
 40
5.997222220722917
 40
6.349999998412501
 40
6.349999998412501
 40
6.349999998412501
 40
6.702777776102083
 40
6.702777776102083
 40
6.702777776102083
 40
7.055555553791667
 40
7.055555553791667
 40
7.055555553791667
 40
7.40833333148125
 40
7.40833333148125
 40
7.40833333148125
 40
7.761111109170834
 40
7.761111109170834
 40
7.761111109170834
 40
8.113888886860417
 40
8.113888886860417
 40
8.113888886860417
 40
8.113888886860417
 10
355.2209490778581
 20
18.46923702716889
 10
355.2209490778581
 20
18.46923702716889
 10
354.231208918405
 20
18.46923702716889
 10
354.231208918405
 20
18.46923702716889
 10
354.231208918405
 20
18.46923702716889
 10
354.231208918405
 20
18.83266174670678
 10
354.231208918405
 20
18.83266174670678
 10
354.231208918405
 20
18.83266174670678
 10
354.150897253395
 20
18.83266174670678
 10
354.150897253395
 20
18.83266174670678
 10
354.150897253395
 20
18.83266174670678
 10
353.2573840202334
 20
18.83266174670678
 10
353.2573840202334
 20
18.83266174670678
 10
353.2573840202334
 20
18.83266174670678
 10
353.1765996246885
 20
18.83266174670678
 10
353.1765996246885
 20
18.83266174670678
 10
353.1765996246885
 20
18.83266174670678
 10
353.1770723552222
 20
18.60413017846355
 10
353.1770723552222
 20
18.60413017846355
 10
353.1770723552222
 20
18.60413017846355
 10
353.1786481236662
 20
18.53132230228185
 10
353.1786481236662
 20
18.46923702716889
 10
353.1786481236662
 20
18.46923702716889
 10
352.2784116118115
 20
18.46923702716889
 10
352.2784116118115
 20
18.46923702716889
 10
352.2784116118115
 20
18.46923702716889
 10
352.2784116118115
 20
17.33048172732646
 10
352.2784116118115
 20
17.33048172732646
 10
352.2784116118115
 20
17.33048172732646
 10
353.1786481236662
 20
17.33048172732646
 10
353.1786481236662
 20
17.33048172732646
 10
353.1629954904594
 20
15.99118363529346
 10
353.1786481236662
 20
14.83966461138317
 10
352.3581980206745
 20
14.27464658738043
 10
352.3581980206745
 20
14.27464658738043
 10
352.297898614898
 20
14.23204831486378
 10
352.297898614898
 20
14.23204831486378
 10
352.297898614898
 20
14.23204831486378
 10
352.297898614898
 20
13.18101078950335
 10
352.297898614898
 20
13.18101078950335
 10
352.297898614898
 20
13.18101078950335
 10
352.4984939377742
 20
13.26925382011846
 10
352.4984939377742
 20
13.26925382011846
 10
354.0788321099056
 20
13.95944038100137
 10
354.1693862697985
 20
15.64598530362673
 10
354.2181300403241
 20
17.33048172732646
 10
354.2181300403241
 20
17.33048172732646
 10
354.7228486728224
 20
17.33048172732646
 10
354.7228486728224
 20
17.33048172732646
 10
354.7228486728224
 20
17.33048172732646
 10
354.7228486728224
 20
14.35595623701687
 10
354.7228486728224
 20
14.35595623701687
 10
354.7228486728224
 20
14.35595623701687
 10
353.9329159520251
 20
14.35595623701687
 10
353.9329159520251
 20
14.35595623701687
 10
353.9329159520251
 20
14.35595623701687
 10
353.9329159520251
 20
13.22670807321766
 10
353.9329159520251
 20
13.22670807321766
 10
353.9329159520251
 20
13.22670807321766
 10
355.121150409759
 20
13.22670807321766
 10
355.121150409759
 20
13.22670807321766
 10
355.5633110350481
 20
13.22670807321766
 10
355.8616040014273
 20
13.55341738894297
 10
355.8616040014273
 20
14.05226040092291
 10
355.8616040014273
 20
14.05226040092291
 10
355.8616040014273
 20
17.80063849342281
 10
355.8616040014273
 20
17.80063849342281
 10
355.8616040014273
 20
18.22609596245877
 10
355.6284427973856
 20
18.46923702716889
 10
355.2209490778581
 20
18.46923702716889
 97
        0
 72
     1
 10
355.2209490778581
 20
18.46923702716889
 11
355.2209490778581
 21
18.46923702716889
 97
        0
 92
        1
 93
        2
 72
     4
 94
        3
 73
     0
 74
     0
 95
       68
 96
       64
 40
0.0
 40
0.0
 40
0.0
 40
0.0
 40
0.3527777776895833
 40
0.3527777776895833
 40
0.3527777776895833
 40
0.7055555553791667
 40
0.7055555553791667
 40
0.7055555553791667
 40
1.05833333306875
 40
1.05833333306875
 40
1.05833333306875
 40
1.411111110758333
 40
1.411111110758333
 40
1.411111110758333
 40
1.763888888447917
 40
1.763888888447917
 40
1.763888888447917
 40
2.1166666661375
 40
2.1166666661375
 40
2.1166666661375
 40
2.469444443827083
 40
2.469444443827083
 40
2.469444443827083
 40
2.822222221516667
 40
2.822222221516667
 40
2.822222221516667
 40
3.17499999920625
 40
3.17499999920625
 40
3.17499999920625
 40
3.527777776895833
 40
3.527777776895833
 40
3.527777776895833
 40
3.880555554585417
 40
3.880555554585417
 40
3.880555554585417
 40
4.233333332275
 40
4.233333332275
 40
4.233333332275
 40
4.586111109964584
 40
4.586111109964584
 40
4.586111109964584
 40
4.938888887654167
 40
4.938888887654167
 40
4.938888887654167
 40
5.29166666534375
 40
5.29166666534375
 40
5.29166666534375
 40
5.644444443033334
 40
5.644444443033334
 40
5.644444443033334
 40
5.997222220722917
 40
5.997222220722917
 40
5.997222220722917
 40
6.349999998412501
 40
6.349999998412501
 40
6.349999998412501
 40
6.702777776102083
 40
6.702777776102083
 40
6.702777776102083
 40
7.055555553791667
 40
7.055555553791667
 40
7.055555553791667
 40
7.40833333148125
 40
7.40833333148125
 40
7.40833333148125
 40
7.40833333148125
 10
359.0095166212966
 20
18.46923702716889
 10
359.0095166212966
 20
18.46923702716889
 10
358.0193037313093
 20
18.46923702716889
 10
358.0193037313093
 20
18.46923702716889
 10
358.0182532190141
 20
18.57696706037967
 10
358.0182532190141
 20
18.83266174670678
 10
358.0182532190141
 20
18.83266174670678
 10
358.0182532190141
 20
18.83266174670678
 10
357.9385193357663
 20
18.83266174670678
 10
357.9385193357663
 20
18.83266174670678
 10
357.9385193357663
 20
18.83266174670678
 10
356.9652196937409
 20
18.83266174670678
 10
356.9652196937409
 20
18.83266174670678
 10
356.9652196937409
 20
18.83266174670678
 10
356.9662176804202
 20
18.53079704614647
 10
356.9662176804202
 20
18.46923702716889
 10
356.9662176804202
 20
18.46923702716889
 10
356.0680821931591
 20
18.46923702716889
 10
356.0680821931591
 20
18.46923702716889
 10
356.0680821931591
 20
18.46923702716889
 10
356.0680821931591
 20
17.33048172732646
 10
356.0680821931591
 20
17.33048172732646
 10
356.0680821931591
 20
17.33048172732646
 10
356.9652196937409
 20
17.33048172732646
 10
356.9652196937409
 20
17.33048172732646
 10
356.944156922213
 20
15.99375739035446
 10
356.95313880234
 20
14.84502222395573
 10
356.1285917013964
 20
14.27464658738043
 10
356.1285917013964
 20
14.27464658738043
 10
356.0655084380377
 20
14.23204831486378
 10
356.0655084380377
 20
14.23204831486378
 10
356.0655084380377
 20
14.23204831486378
 10
356.0655084380377
 20
13.18101078950335
 10
356.0655084380377
 20
13.18101078950335
 10
356.0655084380377
 20
13.18101078950335
 10
356.2655259791505
 20
13.26925382011846
 10
356.2655259791505
 20
13.26925382011846
 10
357.8543733008759
 20
13.96248686658189
 10
357.9510729577009
 20
15.71778781722607
 10
358.0051743409332
 20
17.33048172732646
 10
358.0051743409332
 20
17.33048172732646
 10
358.5114687418767
 20
17.33048172732646
 10
358.5114687418767
 20
17.33048172732646
 10
358.5114687418767
 20
17.33048172732646
 10
358.5114687418767
 20
14.35595623701687
 10
358.5114687418767
 20
14.35595623701687
 10
358.5114687418767
 20
14.35595623701687
 10
357.72101076493
 20
14.35595623701687
 10
357.72101076493
 20
14.35595623701687
 10
357.72101076493
 20
14.35595623701687
 10
357.72101076493
 20
13.22670807321766
 10
357.72101076493
 20
13.22670807321766
 10
357.72101076493
 20
13.22670807321766
 10
358.9097704788134
 20
13.22670807321766
 10
358.9097704788134
 20
13.22670807321766
 10
359.3524563602481
 20
13.22670807321766
 10
359.6514846852344
 20
13.55341738894297
 10
359.6514846852344
 20
14.05226040092291
 10
359.6514846852344
 20
14.05226040092291
 10
359.6514846852344
 20
17.80063849342281
 10
359.6514846852344
 20
17.80063849342281
 10
359.6514846852344
 20
18.22609596245877
 10
359.4170628664361
 20
18.46923702716889
 10
359.0095166212966
 20
18.46923702716889
 97
        0
 72
     1
 10
359.0095166212966
 20
18.46923702716889
 11
359.0095166212966
 21
18.46923702716889
 97
        0
 75
     2
 76
     1
 98
        0
  0
POLYLINE
  5
95E5
330
1F
100
AcDbEntity
  8
図枠
 62
     0
370
     0
100
AcDb2dPolyline
 66
     1
 10
0.0
 20
0.0
 30
0.0
  0
VERTEX
  5
95E6
330
95E5
100
AcDbEntity
  8
図枠
 62
     0
370
     0
100
AcDbVertex
100
AcDb2dVertex
 10
349.3461691662644
 20
23.04012096179095
 30
0.0
  0
VERTEX
  5
95E7
330
95E5
100
AcDbEntity
  8
図枠
 62
     0
370
     0
100
AcDbVertex
100
AcDb2dVertex
 10
341.2172524960397
 20
23.04012096179095
 30
0.0
  0
VERTEX
  5
95E8
330
95E5
100
AcDbEntity
  8
図枠
 62
     0
370
     0
100
AcDbVertex
100
AcDb2dVertex
 10
341.2172524960397
 20
21.90136566195142
 30
0.0
  0
VERTEX
  5
95E9
330
95E5
100
AcDbEntity
  8
図枠
 62
     0
370
     0
100
AcDbVertex
100
AcDb2dVertex
 10
349.3461691662644
 20
21.90136566195142
 30
0.0
  0
VERTEX
  5
95EA
330
95E5
100
AcDbEntity
  8
図枠
 62
     0
370
     0
100
AcDbVertex
100
AcDb2dVertex
 10
349.3461691662644
 20
23.04012096179095
 30
0.0
  0
SEQEND
  5
95EB
330
95E5
100
AcDbEntity
  8
図枠
 62
     0
370
     0
  0
HATCH
  5
95EC
330
1F
100
AcDbEntity
  8
図枠
 62
     0
100
AcDbHatch
 10
0.0
 20
0.0
 30
0.0
210
0.0
220
0.0
230
1.0
  2
SOLID
 70
     1
 71
     0
 91
        1
 92
        1
 93
        4
 72
     1
 10
349.3461691662644
 20
23.04012096179095
 11
341.2172524960397
 21
23.04012096179095
 72
     1
 10
341.2172524960397
 20
23.04012096179095
 11
341.2172524960397
 21
21.90136566195142
 72
     1
 10
341.2172524960397
 20
21.90136566195142
 11
349.3461691662643
 21
21.90136566195142
 72
     1
 10
349.3461691662644
 20
21.90136566195142
 11
349.3461691662644
 21
23.04012096179095
 97
        0
 75
     2
 76
     1
 98
        0
  0
POLYLINE
  5
95ED
330
1F
100
AcDbEntity
  8
図枠
 62
     0
370
     0
100
AcDb2dPolyline
 66
     1
 10
0.0
 20
0.0
 30
0.0
  0
VERTEX
  5
95EE
330
95ED
100
AcDbEntity
  8
図枠
 62
     0
370
     0
100
AcDbVertex
100
AcDb2dVertex
 10
349.0620055902618
 20
18.84883963565295
 30
0.0
  0
VERTEX
  5
95EF
330
95ED
100
AcDbEntity
  8
図枠
 62
     0
370
     0
100
AcDbVertex
100
AcDb2dVertex
 10
341.4998928292142
 20
18.84883963565295
 30
0.0
  0
VERTEX
  5
95F0
330
95ED
100
AcDbEntity
  8
図枠
 62
     0
370
     0
100
AcDbVertex
100
AcDb2dVertex
 10
341.4998928292142
 20
17.71060959194782
 30
0.0
  0
VERTEX
  5
95F1
330
95ED
100
AcDbEntity
  8
図枠
 62
     0
370
     0
100
AcDbVertex
100
AcDb2dVertex
 10
349.0620055902618
 20
17.71060959194782
 30
0.0
  0
VERTEX
  5
95F2
330
95ED
100
AcDbEntity
  8
図枠
 62
     0
370
     0
100
AcDbVertex
100
AcDb2dVertex
 10
349.0620055902618
 20
18.84883963565295
 30
0.0
  0
SEQEND
  5
95F3
330
95ED
100
AcDbEntity
  8
図枠
 62
     0
370
     0
  0
HATCH
  5
95F4
330
1F
100
AcDbEntity
  8
図枠
 62
     0
100
AcDbHatch
 10
0.0
 20
0.0
 30
0.0
210
0.0
220
0.0
230
1.0
  2
SOLID
 70
     1
 71
     0
 91
        1
 92
        1
 93
        4
 72
     1
 10
349.0620055902618
 20
18.84883963565295
 11
341.4998928292142
 21
18.84883963565295
 72
     1
 10
341.4998928292142
 20
18.84883963565295
 11
341.4998928292142
 21
17.71060959194782
 72
     1
 10
341.4998928292142
 20
17.71060959194782
 11
349.0620055902618
 21
17.71060959194782
 72
     1
 10
349.0620055902618
 20
17.71060959194782
 11
349.0620055902618
 21
18.84883963565295
 97
        0
 75
     2
 76
     1
 98
        0
  0
POLYLINE
  5
95F5
330
1F
100
AcDbEntity
  8
図枠
 62
     0
370
     0
100
AcDb2dPolyline
 66
     1
 10
0.0
 20
0.0
 30
0.0
  0
VERTEX
  5
95F6
330
95F5
100
AcDbEntity
  8
図枠
 62
     0
370
     0
100
AcDbVertex
100
AcDb2dVertex
 10
340.7048125981672
 20
13.44700049607255
 30
0.0
  0
VERTEX
  5
95F7
330
95F5
100
AcDbEntity
  8
図枠
 62
     0
370
     0
100
AcDbVertex
100
AcDb2dVertex
 10
349.8578211799152
 20
13.44700049607255
 30
0.0
  0
VERTEX
  5
95F8
330
95F5
100
AcDbEntity
  8
図枠
 62
     0
370
     0
100
AcDbVertex
100
AcDb2dVertex
 10
349.8578211799152
 20
14.58523053977671
 30
0.0
  0
VERTEX
  5
95F9
330
95F5
100
AcDbEntity
  8
図枠
 62
     0
370
     0
100
AcDbVertex
100
AcDb2dVertex
 10
340.7048125981672
 20
14.58523053977671
 30
0.0
  0
VERTEX
  5
95FA
330
95F5
100
AcDbEntity
  8
図枠
 62
     0
370
     0
100
AcDbVertex
100
AcDb2dVertex
 10
340.7048125981672
 20
13.44700049607255
 30
0.0
  0
SEQEND
  5
95FB
330
95F5
100
AcDbEntity
  8
図枠
 62
     0
370
     0
  0
HATCH
  5
95FC
330
1F
100
AcDbEntity
  8
図枠
 62
     0
100
AcDbHatch
 10
0.0
 20
0.0
 30
0.0
210
0.0
220
0.0
230
1.0
  2
SOLID
 70
     1
 71
     0
 91
        1
 92
        1
 93
        4
 72
     1
 10
340.7048125981672
 20
13.44700049607255
 11
349.8578211799152
 21
13.44700049607255
 72
     1
 10
349.8578211799152
 20
13.44700049607255
 11
349.8578211799152
 21
14.58523053977671
 72
     1
 10
349.8578211799152
 20
14.58523053977671
 11
340.7048125981672
 21
14.58523053977671
 72
     1
 10
340.7048125981672
 20
14.58523053977671
 11
340.7048125981672
 21
13.44700049607255
 97
        0
 75
     2
 76
     1
 98
        0
  0
SPLINE
  5
95FD
330
1F
100
AcDbEntity
  8
図枠
 62
     0
370
     0
100
AcDbSpline
210
0.0
220
0.0
230
1.0
 70
    11
 71
     3
 72
    59
 73
    55
 74
     0
 42
0.000000001
 43
0.0000000001
 40
0.0
 40
0.0
 40
0.0
 40
0.0
 40
1.0
 40
1.0
 40
1.0
 40
2.0
 40
2.0
 40
2.0
 40
3.0
 40
3.0
 40
3.0
 40
4.0
 40
4.0
 40
4.0
 40
5.0
 40
5.0
 40
5.0
 40
6.0
 40
6.0
 40
6.0
 40
7.0
 40
7.0
 40
7.0
 40
8.0
 40
8.0
 40
8.0
 40
9.0
 40
9.0
 40
9.0
 40
10.0
 40
10.0
 40
10.0
 40
11.0
 40
11.0
 40
11.0
 40
12.0
 40
12.0
 40
12.0
 40
13.0
 40
13.0
 40
13.0
 40
14.0
 40
14.0
 40
14.0
 40
15.0
 40
15.0
 40
15.0
 40
16.0
 40
16.0
 40
16.0
 40
17.0
 40
17.0
 40
17.0
 40
18.0
 40
18.0
 40
18.0
 40
18.0
 10
360.4878500495095
 20
23.25731437345268
 30
0.0
 10
360.4878500495095
 20
23.25731437345268
 30
0.0
 10
360.4085888967921
 20
23.25731437345268
 30
0.0
 10
360.4085888967921
 20
23.25731437345268
 30
0.0
 10
360.4085888967921
 20
23.25731437345268
 30
0.0
 10
360.4085888967921
 20
22.08347196382317
 30
0.0
 10
360.4085888967921
 20
22.08347196382317
 30
0.0
 10
360.4085888967921
 20
22.08347196382317
 30
0.0
 10
367.6885865808096
 20
22.08347196382317
 30
0.0
 10
367.6885865808096
 20
22.08347196382317
 30
0.0
 10
367.6039678153888
 20
20.66774910420355
 30
0.0
 10
366.2156632909225
 20
19.00321241361644
 30
0.0
 10
364.9776870759799
 20
18.53205766087098
 30
0.0
 10
364.9809961897115
 20
18.60669655759708
 30
0.0
 10
364.9776870759799
 20
18.85881950221215
 30
0.0
 10
364.9776870759799
 20
18.85881950221215
 30
0.0
 10
364.9776870759799
 20
18.85881950221215
 30
0.0
 10
364.9776870759799
 20
20.51689554234076
 30
0.0
 10
364.9776870759799
 20
20.51689554234076
 30
0.0
 10
364.9776870759799
 20
20.51689554234076
 30
0.0
 10
363.6899165782198
 20
20.51689554234076
 30
0.0
 10
363.6899165782198
 20
20.51689554234076
 30
0.0
 10
363.6899165782198
 20
20.51689554234076
 30
0.0
 10
363.6899165782198
 20
19.23327460057741
 30
0.0
 10
363.6899165782198
 20
19.23327460057741
 30
0.0
 10
363.6899165782198
 20
16.48980928388078
 30
0.0
 10
363.3126250871991
 20
15.27768299393086
 30
0.0
 10
360.5560808231178
 20
14.32696936626293
 30
0.0
 10
360.5560808231178
 20
14.32696936626293
 30
0.0
 10
360.5109087944005
 20
14.31541373101143
 30
0.0
 10
360.5109087944005
 20
14.31541373101143
 30
0.0
 10
360.5109087944005
 20
14.31541373101143
 30
0.0
 10
360.4527104132143
 20
14.29796795975903
 30
0.0
 10
360.4527104132143
 20
14.29796795975903
 30
0.0
 10
360.4527104132143
 20
14.29796795975903
 30
0.0
 10
360.4527104132143
 20
13.18720881189352
 30
0.0
 10
360.4527104132143
 20
13.18720881189352
 30
0.0
 10
360.4527104132143
 20
13.18720881189352
 30
0.0
 10
360.6301944655823
 20
13.2323355540795
 30
0.0
 10
360.6301944655823
 20
13.2323355540795
 30
0.0
 10
363.0825628944237
 20
13.90554910158836
 30
0.0
 10
364.3626646524261
 20
14.81219371554451
 30
0.0
 10
364.8743166660796
 20
17.15378556364312
 30
0.0
 10
367.4064715037847
 20
17.99939541475993
 30
0.0
 10
369.1119782159553
 20
20.49971966673969
 30
0.0
 10
369.1119782159553
 20
22.66488545773597
 30
0.0
 10
369.1173883542778
 20
22.66282948029893
 30
0.0
 10
369.1420228676134
 20
22.88007541757715
 30
0.0
 10
368.9901713152603
 20
23.05729683739201
 30
0.0
 10
368.8752977957211
 20
23.1896163494671
 30
0.0
 10
368.6965006029807
 20
23.25731437345268
 30
0.0
 10
368.4597676571307
 20
23.25731437345268
 30
0.0
 10
368.4597676571307
 20
23.25731437345268
 30
0.0
 10
360.4878500495095
 20
23.25731437345268
 30
0.0
 10
360.4878500495095
 20
23.25731437345268
 30
0.0
  0
HATCH
  5
95FE
330
1F
100
AcDbEntity
  8
図枠
 62
     0
100
AcDbHatch
 10
0.0
 20
0.0
 30
0.0
210
0.0
220
0.0
230
1.0
  2
SOLID
 70
     1
 71
     0
 91
        1
 92
        1
 93
        1
 72
     4
 94
        3
 73
     0
 74
     1
 95
       59
 96
       55
 40
0.0
 40
0.0
 40
0.0
 40
0.0
 40
1.0
 40
1.0
 40
1.0
 40
2.0
 40
2.0
 40
2.0
 40
3.0
 40
3.0
 40
3.0
 40
4.0
 40
4.0
 40
4.0
 40
5.0
 40
5.0
 40
5.0
 40
6.0
 40
6.0
 40
6.0
 40
7.0
 40
7.0
 40
7.0
 40
8.0
 40
8.0
 40
8.0
 40
9.0
 40
9.0
 40
9.0
 40
10.0
 40
10.0
 40
10.0
 40
11.0
 40
11.0
 40
11.0
 40
12.0
 40
12.0
 40
12.0
 40
13.0
 40
13.0
 40
13.0
 40
14.0
 40
14.0
 40
14.0
 40
15.0
 40
15.0
 40
15.0
 40
16.0
 40
16.0
 40
16.0
 40
17.0
 40
17.0
 40
17.0
 40
18.0
 40
18.0
 40
18.0
 40
18.0
 10
360.4878500495095
 20
23.25731437345268
 10
360.4878500495095
 20
23.25731437345268
 10
360.4085888967921
 20
23.25731437345268
 10
360.4085888967921
 20
23.25731437345268
 10
360.4085888967921
 20
23.25731437345268
 10
360.4085888967921
 20
22.08347196382317
 10
360.4085888967921
 20
22.08347196382317
 10
360.4085888967921
 20
22.08347196382317
 10
367.6885865808096
 20
22.08347196382317
 10
367.6885865808096
 20
22.08347196382317
 10
367.6039678153888
 20
20.66774910420355
 10
366.2156632909225
 20
19.00321241361644
 10
364.9776870759799
 20
18.53205766087098
 10
364.9809961897115
 20
18.60669655759708
 10
364.9776870759799
 20
18.85881950221215
 10
364.9776870759799
 20
18.85881950221215
 10
364.9776870759799
 20
18.85881950221215
 10
364.9776870759799
 20
20.51689554234076
 10
364.9776870759799
 20
20.51689554234076
 10
364.9776870759799
 20
20.51689554234076
 10
363.6899165782198
 20
20.51689554234076
 10
363.6899165782198
 20
20.51689554234076
 10
363.6899165782198
 20
20.51689554234076
 10
363.6899165782198
 20
19.23327460057741
 10
363.6899165782198
 20
19.23327460057741
 10
363.6899165782198
 20
16.48980928388078
 10
363.3126250871991
 20
15.27768299393086
 10
360.5560808231178
 20
14.32696936626293
 10
360.5560808231178
 20
14.32696936626293
 10
360.5109087944005
 20
14.31541373101143
 10
360.5109087944005
 20
14.31541373101143
 10
360.5109087944005
 20
14.31541373101143
 10
360.4527104132143
 20
14.29796795975903
 10
360.4527104132143
 20
14.29796795975903
 10
360.4527104132143
 20
14.29796795975903
 10
360.4527104132143
 20
13.18720881189352
 10
360.4527104132143
 20
13.18720881189352
 10
360.4527104132143
 20
13.18720881189352
 10
360.6301944655823
 20
13.2323355540795
 10
360.6301944655823
 20
13.2323355540795
 10
363.0825628944237
 20
13.90554910158836
 10
364.3626646524261
 20
14.81219371554451
 10
364.8743166660796
 20
17.15378556364312
 10
367.4064715037847
 20
17.99939541475993
 10
369.1119782159553
 20
20.49971966673969
 10
369.1119782159553
 20
22.66488545773597
 10
369.1173883542778
 20
22.66282948029893
 10
369.1420228676134
 20
22.88007541757715
 10
368.9901713152603
 20
23.05729683739201
 10
368.8752977957211
 20
23.1896163494671
 10
368.6965006029807
 20
23.25731437345268
 10
368.4597676571307
 20
23.25731437345268
 10
368.4597676571307
 20
23.25731437345268
 10
360.4878500495095
 20
23.25731437345268
 10
360.4878500495095
 20
23.25731437345268
 97
        0
 97
        0
 75
     2
 76
     1
 98
        0
  0
SPLINE
  5
95FF
330
1F
100
AcDbEntity
  8
図枠
 62
     0
370
     0
100
AcDbSpline
210
0.0
220
0.0
230
1.0
 70
    11
 71
     3
 72
    35
 73
    31
 74
     0
 42
0.000000001
 43
0.0000000001
 40
0.0
 40
0.0
 40
0.0
 40
0.0
 40
1.0
 40
1.0
 40
1.0
 40
2.0
 40
2.0
 40
2.0
 40
3.0
 40
3.0
 40
3.0
 40
4.0
 40
4.0
 40
4.0
 40
5.0
 40
5.0
 40
5.0
 40
6.0
 40
6.0
 40
6.0
 40
7.0
 40
7.0
 40
7.0
 40
8.0
 40
8.0
 40
8.0
 40
9.0
 40
9.0
 40
9.0
 40
10.0
 40
10.0
 40
10.0
 40
10.0
 10
371.6079954306885
 20
23.24118901011979
 30
0.0
 10
371.6079954306885
 20
23.24118901011979
 30
0.0
 10
370.3615625917652
 20
23.24118901011979
 30
0.0
 10
370.3615625917652
 20
23.24118901011979
 30
0.0
 10
370.3615625917652
 20
23.24118901011979
 30
0.0
 10
370.3615625917652
 20
18.43924490188508
 30
0.0
 10
370.3615625917652
 20
18.43924490188508
 30
0.0
 10
370.3615625917652
 20
16.27104010381615
 30
0.0
 10
369.6588223915127
 20
14.98941513535938
 30
0.0
 10
368.6534295988542
 20
14.52030888153956
 30
0.0
 10
368.6534295988542
 20
14.52030888153956
 30
0.0
 10
368.6177647064127
 20
14.50365826207066
 30
0.0
 10
368.6177647064127
 20
14.50365826207066
 30
0.0
 10
368.6177647064127
 20
14.50365826207066
 30
0.0
 10
368.5692835639638
 20
14.48312074720746
 30
0.0
 10
368.5692835639638
 20
14.48312074720746
 30
0.0
 10
368.5692835639638
 20
14.48312074720746
 30
0.0
 10
368.5692835639638
 20
13.157952045195
 30
0.0
 10
368.5692835639638
 20
13.157952045195
 30
0.0
 10
368.5692835639638
 20
13.157952045195
 30
0.0
 10
368.8032326522285
 20
13.23873643869928
 30
0.0
 10
368.8032326522285
 20
13.23873643869928
 30
0.0
 10
370.662114159581
 20
13.99300424800171
 30
0.0
 10
371.6490179358367
 20
15.45158800820759
 30
0.0
 10
371.687781839549
 20
18.11684268645709
 30
0.0
 10
371.687781839549
 20
18.11684268645709
 30
0.0
 10
371.687781839549
 20
23.24118901011979
 30
0.0
 10
371.687781839549
 20
23.24118901011979
 30
0.0
 10
371.687781839549
 20
23.24118901011979
 30
0.0
 10
371.6079954306885
 20
23.24118901011979
 30
0.0
 10
371.6079954306885
 20
23.24118901011979
 30
0.0
  0
HATCH
  5
9600
330
1F
100
AcDbEntity
  8
図枠
 62
     0
100
AcDbHatch
 10
0.0
 20
0.0
 30
0.0
210
0.0
220
0.0
230
1.0
  2
SOLID
 70
     1
 71
     0
 91
        1
 92
        1
 93
        1
 72
     4
 94
        3
 73
     0
 74
     1
 95
       35
 96
       31
 40
0.0
 40
0.0
 40
0.0
 40
0.0
 40
1.0
 40
1.0
 40
1.0
 40
2.0
 40
2.0
 40
2.0
 40
3.0
 40
3.0
 40
3.0
 40
4.0
 40
4.0
 40
4.0
 40
5.0
 40
5.0
 40
5.0
 40
6.0
 40
6.0
 40
6.0
 40
7.0
 40
7.0
 40
7.0
 40
8.0
 40
8.0
 40
8.0
 40
9.0
 40
9.0
 40
9.0
 40
10.0
 40
10.0
 40
10.0
 40
10.0
 10
371.6079954306885
 20
23.24118901011979
 10
371.6079954306885
 20
23.24118901011979
 10
370.3615625917652
 20
23.24118901011979
 10
370.3615625917652
 20
23.24118901011979
 10
370.3615625917652
 20
23.24118901011979
 10
370.3615625917652
 20
18.43924490188508
 10
370.3615625917652
 20
18.43924490188508
 10
370.3615625917652
 20
16.27104010381615
 10
369.6588223915127
 20
14.98941513535938
 10
368.6534295988542
 20
14.52030888153956
 10
368.6534295988542
 20
14.52030888153956
 10
368.6177647064127
 20
14.50365826207066
 10
368.6177647064127
 20
14.50365826207066
 10
368.6177647064127
 20
14.50365826207066
 10
368.5692835639638
 20
14.48312074720746
 10
368.5692835639638
 20
14.48312074720746
 10
368.5692835639638
 20
14.48312074720746
 10
368.5692835639638
 20
13.157952045195
 10
368.5692835639638
 20
13.157952045195
 10
368.5692835639638
 20
13.157952045195
 10
368.8032326522285
 20
13.23873643869928
 10
368.8032326522285
 20
13.23873643869928
 10
370.662114159581
 20
13.99300424800171
 10
371.6490179358367
 20
15.45158800820759
 10
371.687781839549
 20
18.11684268645709
 10
371.687781839549
 20
18.11684268645709
 10
371.687781839549
 20
23.24118901011979
 10
371.687781839549
 20
23.24118901011979
 10
371.687781839549
 20
23.24118901011979
 10
371.6079954306885
 20
23.24118901011979
 10
371.6079954306885
 20
23.24118901011979
 97
        0
 97
        0
 75
     2
 76
     1
 98
        0
  0
SPLINE
  5
9601
330
1F
100
AcDbEntity
  8
図枠
 62
     0
370
     0
100
AcDbSpline
210
0.0
220
0.0
230
1.0
 70
    11
 71
     3
 72
    38
 73
    34
 74
     0
 42
0.000000001
 43
0.0000000001
 40
0.0
 40
0.0
 40
0.0
 40
0.0
 40
1.0
 40
1.0
 40
1.0
 40
2.0
 40
2.0
 40
2.0
 40
3.0
 40
3.0
 40
3.0
 40
4.0
 40
4.0
 40
4.0
 40
5.0
 40
5.0
 40
5.0
 40
6.0
 40
6.0
 40
6.0
 40
7.0
 40
7.0
 40
7.0
 40
8.0
 40
8.0
 40
8.0
 40
9.0
 40
9.0
 40
9.0
 40
10.0
 40
10.0
 40
10.0
 40
11.0
 40
11.0
 40
11.0
 40
11.0
 10
374.2188861649583
 20
23.24118901011979
 30
0.0
 10
374.2188861649583
 20
23.24118901011979
 30
0.0
 10
372.9724533260383
 20
23.24118901011979
 30
0.0
 10
372.9724533260383
 20
23.24118901011979
 30
0.0
 10
372.9724533260383
 20
23.24118901011979
 30
0.0
 10
372.9724533260383
 20
13.92687450065334
 30
0.0
 10
372.9724533260383
 20
13.92687450065334
 30
0.0
 10
372.9724533260383
 20
13.70038405540827
 30
0.0
 10
373.0370598322263
 20
13.52290000752379
 30
0.0
 10
373.1642768712438
 20
13.39674072836726
 30
0.0
 10
373.3296800322141
 20
13.23563742750611
 30
0.0
 10
373.5376814667707
 20
13.22718080373654
 30
0.0
 10
373.5774433571661
 20
13.22718080373654
 30
0.0
 10
376.012163179443
 20
13.22718080373654
 30
0.0
 10
378.4691538623878
 20
15.11868067008824
 30
0.0
 10
378.4691538623878
 20
19.50284344749072
 30
0.0
 10
378.4691538623878
 20
19.50284344749072
 30
0.0
 10
378.4691538623878
 20
19.71619509073872
 30
0.0
 10
378.4691538623878
 20
19.71619509073872
 30
0.0
 10
378.4691538623878
 20
19.71619509073872
 30
0.0
 10
377.2455171402821
 20
19.71619509073872
 30
0.0
 10
377.2455171402821
 20
19.71619509073872
 30
0.0
 10
377.2455171402821
 20
19.71619509073872
 30
0.0
 10
377.2455171402821
 20
19.60899031366332
 30
0.0
 10
377.2455171402821
 20
19.60899031366332
 30
0.0
 10
377.2455171402821
 20
16.53366817112258
 30
0.0
 10
375.7871959713052
 20
14.88656998420485
 30
0.0
 10
374.298672573822
 20
14.65062492853595
 30
0.0
 10
374.298672573822
 20
14.65062492853595
 30
0.0
 10
374.298672573822
 20
23.24118901011979
 30
0.0
 10
374.298672573822
 20
23.24118901011979
 30
0.0
 10
374.298672573822
 20
23.24118901011979
 30
0.0
 10
374.2188861649583
 20
23.24118901011979
 30
0.0
 10
374.2188861649583
 20
23.24118901011979
 30
0.0
  0
HATCH
  5
9602
330
1F
100
AcDbEntity
  8
図枠
 62
     0
100
AcDbHatch
 10
0.0
 20
0.0
 30
0.0
210
0.0
220
0.0
230
1.0
  2
SOLID
 70
     1
 71
     0
 91
        1
 92
        1
 93
        1
 72
     4
 94
        3
 73
     0
 74
     1
 95
       38
 96
       34
 40
0.0
 40
0.0
 40
0.0
 40
0.0
 40
1.0
 40
1.0
 40
1.0
 40
2.0
 40
2.0
 40
2.0
 40
3.0
 40
3.0
 40
3.0
 40
4.0
 40
4.0
 40
4.0
 40
5.0
 40
5.0
 40
5.0
 40
6.0
 40
6.0
 40
6.0
 40
7.0
 40
7.0
 40
7.0
 40
8.0
 40
8.0
 40
8.0
 40
9.0
 40
9.0
 40
9.0
 40
10.0
 40
10.0
 40
10.0
 40
11.0
 40
11.0
 40
11.0
 40
11.0
 10
374.2188861649583
 20
23.24118901011979
 10
374.2188861649583
 20
23.24118901011979
 10
372.9724533260383
 20
23.24118901011979
 10
372.9724533260383
 20
23.24118901011979
 10
372.9724533260383
 20
23.24118901011979
 10
372.9724533260383
 20
13.92687450065334
 10
372.9724533260383
 20
13.92687450065334
 10
372.9724533260383
 20
13.70038405540827
 10
373.0370598322263
 20
13.52290000752379
 10
373.1642768712438
 20
13.39674072836726
 10
373.3296800322141
 20
13.23563742750611
 10
373.5376814667707
 20
13.22718080373654
 10
373.5774433571661
 20
13.22718080373654
 10
376.012163179443
 20
13.22718080373654
 10
378.4691538623878
 20
15.11868067008824
 10
378.4691538623878
 20
19.50284344749072
 10
378.4691538623878
 20
19.50284344749072
 10
378.4691538623878
 20
19.71619509073872
 10
378.4691538623878
 20
19.71619509073872
 10
378.4691538623878
 20
19.71619509073872
 10
377.2455171402821
 20
19.71619509073872
 10
377.2455171402821
 20
19.71619509073872
 10
377.2455171402821
 20
19.71619509073872
 10
377.2455171402821
 20
19.60899031366332
 10
377.2455171402821
 20
19.60899031366332
 10
377.2455171402821
 20
16.53366817112258
 10
375.7871959713052
 20
14.88656998420485
 10
374.298672573822
 20
14.65062492853595
 10
374.298672573822
 20
14.65062492853595
 10
374.298672573822
 20
23.24118901011979
 10
374.298672573822
 20
23.24118901011979
 10
374.298672573822
 20
23.24118901011979
 10
374.2188861649583
 20
23.24118901011979
 10
374.2188861649583
 20
23.24118901011979
 97
        0
 97
        0
 75
     2
 76
     1
 98
        0
  0
SPLINE
  5
9603
330
1F
100
AcDbEntity
  8
図枠
 62
     0
370
     0
100
AcDbSpline
210
0.0
220
0.0
230
1.0
 70
    11
 71
     3
 72
    35
 73
    31
 74
     0
 42
0.000000001
 43
0.0000000001
 40
0.0
 40
0.0
 40
0.0
 40
0.0
 40
1.0
 40
1.0
 40
1.0
 40
2.0
 40
2.0
 40
2.0
 40
3.0
 40
3.0
 40
3.0
 40
4.0
 40
4.0
 40
4.0
 40
5.0
 40
5.0
 40
5.0
 40
6.0
 40
6.0
 40
6.0
 40
7.0
 40
7.0
 40
7.0
 40
8.0
 40
8.0
 40
8.0
 40
9.0
 40
9.0
 40
9.0
 40
10.0
 40
10.0
 40
10.0
 40
10.0
 10
379.4447646314616
 20
23.20347561965553
 30
0.0
 10
379.4447646314616
 20
23.20347561965553
 30
0.0
 10
379.3003717164061
 20
23.20347561965553
 30
0.0
 10
379.3003717164061
 20
23.20347561965553
 30
0.0
 10
379.3003717164061
 20
23.20347561965553
 30
0.0
 10
379.3003717164061
 20
21.94496192112681
 30
0.0
 10
379.3003717164061
 20
21.94496192112681
 30
0.0
 10
379.3003717164061
 20
21.94496192112681
 30
0.0
 10
381.3188246955543
 20
21.94496192112681
 30
0.0
 10
381.3188246955543
 20
21.94496192112681
 30
0.0
 10
384.1710705577257
 20
21.94496192112681
 30
0.0
 10
386.0125135144499
 20
21.12451183885951
 30
0.0
 10
386.2115330638563
 20
21.03091119567247
 30
0.0
 10
386.2115330638563
 20
21.03091119567247
 30
0.0
 10
386.4095546266008
 20
20.93909642334146
 30
0.0
 10
386.4095546266008
 20
20.93909642334146
 30
0.0
 10
386.4095546266008
 20
20.93909642334146
 30
0.0
 10
386.41953449316
 20
21.15502922028254
 30
0.0
 10
386.41953449316
 20
21.15502922028254
 30
0.0
 10
386.41953449316
 20
21.15502922028254
 30
0.0
 10
386.420849108316
 20
22.16247048646758
 30
0.0
 10
386.420849108316
 20
22.16247048646758
 30
0.0
 10
386.420849108316
 20
22.16247048646758
 30
0.0
 10
386.3492552223509
 20
22.20401824671734
 30
0.0
 10
386.3492552223509
 20
22.20401824671734
 30
0.0
 10
386.3323419748162
 20
22.21321022907156
 30
0.0
 10
384.5824525907331
 20
23.20347561965553
 30
0.0
 10
381.0526248865319
 20
23.20347561965553
 30
0.0
 10
381.0526248865319
 20
23.20347561965553
 30
0.0
 10
379.4447646314616
 20
23.20347561965553
 30
0.0
 10
379.4447646314616
 20
23.20347561965553
 30
0.0
  0
HATCH
  5
9604
330
1F
100
AcDbEntity
  8
図枠
 62
     0
100
AcDbHatch
 10
0.0
 20
0.0
 30
0.0
210
0.0
220
0.0
230
1.0
  2
SOLID
 70
     1
 71
     0
 91
        1
 92
        1
 93
        1
 72
     4
 94
        3
 73
     0
 74
     1
 95
       35
 96
       31
 40
0.0
 40
0.0
 40
0.0
 40
0.0
 40
1.0
 40
1.0
 40
1.0
 40
2.0
 40
2.0
 40
2.0
 40
3.0
 40
3.0
 40
3.0
 40
4.0
 40
4.0
 40
4.0
 40
5.0
 40
5.0
 40
5.0
 40
6.0
 40
6.0
 40
6.0
 40
7.0
 40
7.0
 40
7.0
 40
8.0
 40
8.0
 40
8.0
 40
9.0
 40
9.0
 40
9.0
 40
10.0
 40
10.0
 40
10.0
 40
10.0
 10
379.4447646314616
 20
23.20347561965553
 10
379.4447646314616
 20
23.20347561965553
 10
379.3003717164061
 20
23.20347561965553
 10
379.3003717164061
 20
23.20347561965553
 10
379.3003717164061
 20
23.20347561965553
 10
379.3003717164061
 20
21.94496192112681
 10
379.3003717164061
 20
21.94496192112681
 10
379.3003717164061
 20
21.94496192112681
 10
381.3188246955543
 20
21.94496192112681
 10
381.3188246955543
 20
21.94496192112681
 10
384.1710705577257
 20
21.94496192112681
 10
386.0125135144499
 20
21.12451183885951
 10
386.2115330638563
 20
21.03091119567247
 10
386.2115330638563
 20
21.03091119567247
 10
386.4095546266008
 20
20.93909642334146
 10
386.4095546266008
 20
20.93909642334146
 10
386.4095546266008
 20
20.93909642334146
 10
386.41953449316
 20
21.15502922028254
 10
386.41953449316
 20
21.15502922028254
 10
386.41953449316
 20
21.15502922028254
 10
386.420849108316
 20
22.16247048646758
 10
386.420849108316
 20
22.16247048646758
 10
386.420849108316
 20
22.16247048646758
 10
386.3492552223509
 20
22.20401824671734
 10
386.3492552223509
 20
22.20401824671734
 10
386.3323419748162
 20
22.21321022907156
 10
384.5824525907331
 20
23.20347561965553
 10
381.0526248865319
 20
23.20347561965553
 10
381.0526248865319
 20
23.20347561965553
 10
379.4447646314616
 20
23.20347561965553
 10
379.4447646314616
 20
23.20347561965553
 97
        0
 97
        0
 75
     2
 76
     1
 98
        0
  0
SPLINE
  5
9605
330
1F
100
AcDbEntity
  8
図枠
 62
     0
370
     0
100
AcDbSpline
210
0.0
220
0.0
230
1.0
 70
    11
 71
     3
 72
    35
 73
    31
 74
     0
 42
0.000000001
 43
0.0000000001
 40
0.0
 40
0.0
 40
0.0
 40
0.0
 40
1.0
 40
1.0
 40
1.0
 40
2.0
 40
2.0
 40
2.0
 40
3.0
 40
3.0
 40
3.0
 40
4.0
 40
4.0
 40
4.0
 40
5.0
 40
5.0
 40
5.0
 40
6.0
 40
6.0
 40
6.0
 40
7.0
 40
7.0
 40
7.0
 40
8.0
 40
8.0
 40
8.0
 40
9.0
 40
9.0
 40
9.0
 40
10.0
 40
10.0
 40
10.0
 40
10.0
 10
379.6991987094953
 20
19.73415885054412
 30
0.0
 10
379.6991987094953
 20
19.73415885054412
 30
0.0
 10
379.5568542934193
 20
19.73415885054412
 30
0.0
 10
379.5568542934193
 20
19.73415885054412
 30
0.0
 10
379.5568542934193
 20
19.73415885054412
 30
0.0
 10
379.5568542934193
 20
18.51025953128328
 30
0.0
 10
379.5568542934193
 20
18.51025953128328
 30
0.0
 10
379.5568542934193
 20
18.51025953128328
 30
0.0
 10
381.0177478791951
 20
18.51025953128328
 30
0.0
 10
381.0177478791951
 20
18.51025953128328
 30
0.0
 10
383.8861191047
 20
18.51025953128328
 30
0.0
 10
385.7560309439172
 20
17.70393883903812
 30
0.0
 10
385.9592000167843
 20
17.61159881057559
 30
0.0
 10
385.9592000167843
 20
17.61159881057559
 30
0.0
 10
386.1592175528456
 20
17.52335577995983
 30
0.0
 10
386.1592175528456
 20
17.52335577995983
 30
0.0
 10
386.1592175528456
 20
17.52335577995983
 30
0.0
 10
386.1635771787633
 20
17.73881584637882
 30
0.0
 10
386.1635771787633
 20
17.73881584637882
 30
0.0
 10
386.1635771787633
 20
17.73881584637882
 30
0.0
 10
386.1656256776889
 20
18.67902432733242
 30
0.0
 10
386.1656256776889
 20
18.67902432733242
 30
0.0
 10
386.1656256776889
 20
18.67902432733242
 30
0.0
 10
386.1120495519575
 20
18.72083471564795
 30
0.0
 10
386.1120495519575
 20
18.72083471564795
 30
0.0
 10
386.0615199118105
 20
18.76290773202987
 30
0.0
 10
384.83352502942
 20
19.73415885054412
 30
0.0
 10
380.7968776745915
 20
19.73415885054412
 30
0.0
 10
380.7968776745915
 20
19.73415885054412
 30
0.0
 10
379.6991987094953
 20
19.73415885054412
 30
0.0
 10
379.6991987094953
 20
19.73415885054412
 30
0.0
  0
HATCH
  5
9606
330
1F
100
AcDbEntity
  8
図枠
 62
     0
100
AcDbHatch
 10
0.0
 20
0.0
 30
0.0
210
0.0
220
0.0
230
1.0
  2
SOLID
 70
     1
 71
     0
 91
        1
 92
        1
 93
        1
 72
     4
 94
        3
 73
     0
 74
     1
 95
       35
 96
       31
 40
0.0
 40
0.0
 40
0.0
 40
0.0
 40
1.0
 40
1.0
 40
1.0
 40
2.0
 40
2.0
 40
2.0
 40
3.0
 40
3.0
 40
3.0
 40
4.0
 40
4.0
 40
4.0
 40
5.0
 40
5.0
 40
5.0
 40
6.0
 40
6.0
 40
6.0
 40
7.0
 40
7.0
 40
7.0
 40
8.0
 40
8.0
 40
8.0
 40
9.0
 40
9.0
 40
9.0
 40
10.0
 40
10.0
 40
10.0
 40
10.0
 10
379.6991987094953
 20
19.73415885054412
 10
379.6991987094953
 20
19.73415885054412
 10
379.5568542934193
 20
19.73415885054412
 10
379.5568542934193
 20
19.73415885054412
 10
379.5568542934193
 20
19.73415885054412
 10
379.5568542934193
 20
18.51025953128328
 10
379.5568542934193
 20
18.51025953128328
 10
379.5568542934193
 20
18.51025953128328
 10
381.0177478791951
 20
18.51025953128328
 10
381.0177478791951
 20
18.51025953128328
 10
383.8861191047
 20
18.51025953128328
 10
385.7560309439172
 20
17.70393883903812
 10
385.9592000167843
 20
17.61159881057559
 10
385.9592000167843
 20
17.61159881057559
 10
386.1592175528456
 20
17.52335577995983
 10
386.1592175528456
 20
17.52335577995983
 10
386.1592175528456
 20
17.52335577995983
 10
386.1635771787633
 20
17.73881584637882
 10
386.1635771787633
 20
17.73881584637882
 10
386.1635771787633
 20
17.73881584637882
 10
386.1656256776889
 20
18.67902432733242
 10
386.1656256776889
 20
18.67902432733242
 10
386.1656256776889
 20
18.67902432733242
 10
386.1120495519575
 20
18.72083471564795
 10
386.1120495519575
 20
18.72083471564795
 10
386.0615199118105
 20
18.76290773202987
 10
384.83352502942
 20
19.73415885054412
 10
380.7968776745915
 20
19.73415885054412
 10
380.7968776745915
 20
19.73415885054412
 10
379.6991987094953
 20
19.73415885054412
 10
379.6991987094953
 20
19.73415885054412
 97
        0
 97
        0
 75
     2
 76
     1
 98
        0
  0
SPLINE
  5
9607
330
1F
100
AcDbEntity
  8
図枠
 62
     0
370
     0
100
AcDbSpline
210
0.0
220
0.0
230
1.0
 70
    11
 71
     3
 72
    38
 73
    34
 74
     0
 42
0.000000001
 43
0.0000000001
 40
0.0
 40
0.0
 40
0.0
 40
0.0
 40
1.0
 40
1.0
 40
1.0
 40
2.0
 40
2.0
 40
2.0
 40
3.0
 40
3.0
 40
3.0
 40
4.0
 40
4.0
 40
4.0
 40
5.0
 40
5.0
 40
5.0
 40
6.0
 40
6.0
 40
6.0
 40
7.0
 40
7.0
 40
7.0
 40
8.0
 40
8.0
 40
8.0
 40
9.0
 40
9.0
 40
9.0
 40
10.0
 40
10.0
 40
10.0
 40
11.0
 40
11.0
 40
11.0
 40
11.0
 10
379.1739425616115
 20
15.43724851573009
 30
0.0
 10
379.1739425616115
 20
15.43724851573009
 30
0.0
 10
379.0295496465598
 20
15.43724851573009
 30
0.0
 10
379.0295496465598
 20
15.43724851573009
 30
0.0
 10
379.0295496465598
 20
15.43724851573009
 30
0.0
 10
379.0295496465598
 20
14.1451184245858
 30
0.0
 10
379.0295496465598
 20
14.1451184245858
 30
0.0
 10
379.0295496465598
 20
14.1451184245858
 30
0.0
 10
381.4388457223124
 20
14.1451184245858
 30
0.0
 10
381.4388457223124
 20
14.1451184245858
 30
0.0
 10
384.298289014726
 20
14.1451184245858
 30
0.0
 10
386.4293042572622
 20
13.33133909523142
 30
0.0
 10
386.6642513262769
 20
13.23847381062967
 30
0.0
 10
386.6608911678976
 20
13.23999705341993
 30
0.0
 10
386.749134200742
 20
13.20438468749395
 30
0.0
 10
386.749134200742
 20
13.20438468749395
 30
0.0
 10
386.749134200742
 20
13.20438468749395
 30
0.0
 10
386.8568627508394
 20
13.16026317218638
 30
0.0
 10
386.8568627508394
 20
13.16026317218638
 30
0.0
 10
386.8568627508394
 20
13.16026317218638
 30
0.0
 10
386.861222376757
 20
13.36926258814879
 30
0.0
 10
386.861222376757
 20
13.36926258814879
 30
0.0
 10
386.861222376757
 20
13.36926258814879
 30
0.0
 10
386.861222376757
 20
14.39981512425803
 30
0.0
 10
386.861222376757
 20
14.39981512425803
 30
0.0
 10
386.861222376757
 20
14.39981512425803
 30
0.0
 10
386.7870562105498
 20
14.44388411395358
 30
0.0
 10
386.7870562105498
 20
14.44388411395358
 30
0.0
 10
386.7103688148936
 20
14.48390863140923
 30
0.0
 10
384.9024897251729
 20
15.43724851573009
 30
0.0
 10
381.3231843214713
 20
15.43724851573009
 30
0.0
 10
381.3231843214713
 20
15.43724851573009
 30
0.0
 10
379.1739425616115
 20
15.43724851573009
 30
0.0
 10
379.1739425616115
 20
15.43724851573009
 30
0.0
  0
HATCH
  5
9608
330
1F
100
AcDbEntity
  8
図枠
 62
     0
100
AcDbHatch
 10
0.0
 20
0.0
 30
0.0
210
0.0
220
0.0
230
1.0
  2
SOLID
 70
     1
 71
     0
 91
        1
 92
        1
 93
        1
 72
     4
 94
        3
 73
     0
 74
     1
 95
       38
 96
       34
 40
0.0
 40
0.0
 40
0.0
 40
0.0
 40
1.0
 40
1.0
 40
1.0
 40
2.0
 40
2.0
 40
2.0
 40
3.0
 40
3.0
 40
3.0
 40
4.0
 40
4.0
 40
4.0
 40
5.0
 40
5.0
 40
5.0
 40
6.0
 40
6.0
 40
6.0
 40
7.0
 40
7.0
 40
7.0
 40
8.0
 40
8.0
 40
8.0
 40
9.0
 40
9.0
 40
9.0
 40
10.0
 40
10.0
 40
10.0
 40
11.0
 40
11.0
 40
11.0
 40
11.0
 10
379.1739425616115
 20
15.43724851573009
 10
379.1739425616115
 20
15.43724851573009
 10
379.0295496465598
 20
15.43724851573009
 10
379.0295496465598
 20
15.43724851573009
 10
379.0295496465598
 20
15.43724851573009
 10
379.0295496465598
 20
14.1451184245858
 10
379.0295496465598
 20
14.1451184245858
 10
379.0295496465598
 20
14.1451184245858
 10
381.4388457223124
 20
14.1451184245858
 10
381.4388457223124
 20
14.1451184245858
 10
384.298289014726
 20
14.1451184245858
 10
386.4293042572622
 20
13.33133909523142
 10
386.6642513262769
 20
13.23847381062967
 10
386.6608911678976
 20
13.23999705341993
 10
386.749134200742
 20
13.20438468749395
 10
386.749134200742
 20
13.20438468749395
 10
386.749134200742
 20
13.20438468749395
 10
386.8568627508394
 20
13.16026317218638
 10
386.8568627508394
 20
13.16026317218638
 10
386.8568627508394
 20
13.16026317218638
 10
386.861222376757
 20
13.36926258814879
 10
386.861222376757
 20
13.36926258814879
 10
386.861222376757
 20
13.36926258814879
 10
386.861222376757
 20
14.39981512425803
 10
386.861222376757
 20
14.39981512425803
 10
386.861222376757
 20
14.39981512425803
 10
386.7870562105498
 20
14.44388411395358
 10
386.7870562105498
 20
14.44388411395358
 10
386.7103688148936
 20
14.48390863140923
 10
384.9024897251729
 20
15.43724851573009
 10
381.3231843214713
 20
15.43724851573009
 10
381.3231843214713
 20
15.43724851573009
 10
379.1739425616115
 20
15.43724851573009
 10
379.1739425616115
 20
15.43724851573009
 97
        0
 97
        0
 75
     2
 76
     1
 98
        0
  0
TEXT
  5
9609
330
1F
100
AcDbEntity
  8
図枠
  6
Continuous
 62
     7
100
AcDbText
 10
232.5177832548914
 20
12.04650992551284
 30
0.0
 40
3.0
  1
2018/03/01
100
AcDbText
  0
VIEWPORT
  5
3275
330
1B
100
AcDbEntity
 67
     1
  8
0
100
AcDbViewport
 10
0.0
 20
0.0
 30
0.0
 40
560.4066218034993
 41
249.48
 68
     1
 69
     1
 12
232.5307772543742
 22
120.4624125168237
 13
0.0
 23
0.0
 14
0.5
 24
0.5
 15
0.0
 25
0.0
 16
0.0
 26
0.0
 36
1.0
 17
0.0
 27
0.0
 37
0.0
 42
50.0
 43
0.0
 44
0.0
 45
249.48
 50
0.0
 51
0.0
 72
   100
 90
   557168
  1

281
     0
 71
     1
 74
     0
110
0.0
120
0.0
130
0.0
111
1.0
121
0.0
131
0.0
112
0.0
122
1.0
132
0.0
 79
     0
146
0.0
170
     0
 61
     5
348
92CB
292
     1
282
     1
141
0.0
142
0.0
 63
   256
  0
VIEWPORT
  5
3276
102
{ACAD_XDICTIONARY
360
3277
102
}
330
1B
100
AcDbEntity
 67
     1
  8
0
100
AcDbViewport
 10
202.5
 20
128.5
 30
0.0
 40
324.0
 41
205.6
 68
     2
 69
     2
 12
210.0
 22
148.5
 13
0.0
 23
0.0
 14
0.5
 24
0.5
 15
0.0
 25
0.0
 16
0.0
 26
0.0
 36
1.0
 17
0.0
 27
0.0
 37
0.0
 42
50.0
 43
0.0
 44
0.0
 45
302.94
 50
0.0
 51
0.0
 72
   100
 90
   557152
  1

281
     0
 71
     1
 74
     0
110
0.0
120
0.0
130
0.0
111
1.0
121
0.0
131
0.0
112
0.0
122
1.0
132
0.0
 79
     0
146
0.0
170
     0
 61
     5
348
92CB
292
     1
282
     1
141
0.0
142
0.0
 63
   256
  0
ENDSEC
  0
SECTION
  2
OBJECTS
  0
DICTIONARY
  5
C
330
0
100
AcDbDictionary
281
     1
  3
ACAD_DETAILVIEWSTYLE
350
3284
  3
ACAD_GROUP
350
D
  3
ACAD_IMAGE_DICT
350
97D
  3
ACAD_IMAGE_VARS
350
3AC
  3
ACAD_LAYOUT
350
9304
  3
ACAD_MATERIAL
350
9307
  3
ACAD_MLEADERSTYLE
350
930D
  3
ACAD_MLINESTYLE
350
17
  3
ACAD_PLOTSETTINGS
350
92DF
  3
ACAD_PLOTSTYLENAME
350
92E0
  3
ACAD_SCALELIST
350
92E2
  3
ACAD_SECTIONVIEWSTYLE
350
3285
  3
ACAD_TABLESTYLE
350
930B
  3
ACAD_VISUALSTYLE
350
92C6
  3
ACDB_RECOMPOSE_DATA
350
961F
  3
ACDBVARIABLEDICTIONARY
350
327F
  3
ACSTSTANDARD
350
909F
  3
APPDATA
350
3AA
  3
CENTERLINE
350
90A5
  3
DIMOFFSETDICTIONARY
350
3784
  0
SUN
  5
930F
330
29
100
AcDbSun
 90
        1
290
     0
 63
     7
421
 16777215
 40
1.0
291
     1
 91
  2455826
 92
 54000000
292
     0
 70
     2
 71
   256
280
     1
  0
DICTIONARY
  5
3488
330
2
100
AcDbDictionary
280
     1
281
     1
  3
ACAD_LAYERSTATES
360
3489
  3
ACLYDICTIONARY
360
960D
  0
DICTIONARY
  5
9231
330
9230
100
AcDbDictionary
280
     1
281
     1
  0
DICTIONARY
  5
93BC
330
93BB
100
AcDbDictionary
280
     1
281
     1
  0
DICTIONARY
  5
3277
330
3276
100
AcDbDictionary
280
     1
281
     1
  3
ASDK_XREC_ANNOTATION_SCALE_INFO
360
3278
  0
DICTIONARY
  5
3284
102
{ACAD_REACTORS
330
C
102
}
330
C
100
AcDbDictionary
281
     1
  0
DICTIONARY
  5
D
102
{ACAD_REACTORS
330
C
102
}
330
C
100
AcDbDictionary
281
     1
  0
DICTIONARY
  5
97D
102
{ACAD_REACTORS
330
C
102
}
330
C
100
AcDbDictionary
281
     1
  3
\\192.168.192.119\DIGITE10
350
97E
  3
\\192.168.192.119\DIGITE11
350
97F
  3
\\192.168.192.119\DIGITE12
350
980
  3
\\192.168.192.119\DIGITE13
350
981
  3
\\192.168.192.119\DIGITEC-
350
97C
  3
\\192.168.192.119\DIGITEC0
350
982
  3
\\192.168.192.119\DIGITEC1
350
983
  3
\\192.168.192.119\DIGITEC2
350
984
  3
\\192.168.192.119\DIGITEC3
350
985
  3
\\192.168.192.119\DIGITEC4
350
986
  3
\\192.168.192.119\DIGITEC5
350
987
  3
\\192.168.192.119\DIGITEC6
350
988
  3
\\192.168.192.119\DIGITEC7
350
989
  3
\\192.168.192.119\DIGITEC8
350
98A
  3
\\192.168.192.119\DIGITEC9
350
98B
  0
RASTERVARIABLES
  5
3AC
102
{ACAD_REACTORS
330
C
102
}
330
C
100
AcDbRasterVariables
 90
        0
 70
     1
 71
     1
 72
     1
  0
DICTIONARY
  5
9304
102
{ACAD_REACTORS
330
C
102
}
330
C
100
AcDbDictionary
281
     1
  3
Model
350
9305
  3
シート 1
350
9306
  0
DICTIONARY
  5
9307
102
{ACAD_REACTORS
330
C
102
}
330
C
100
AcDbDictionary
281
     1
  3
ByBlock
350
9309
  3
ByLayer
350
9308
  3
Global
350
930A
  0
DICTIONARY
  5
930D
102
{ACAD_REACTORS
330
C
102
}
330
C
100
AcDbDictionary
281
     1
  3
Standard
350
930E
  0
DICTIONARY
  5
17
102
{ACAD_REACTORS
330
C
102
}
330
C
100
AcDbDictionary
281
     1
  3
STANDARD
350
18
  0
DICTIONARY
  5
92DF
102
{ACAD_REACTORS
330
C
102
}
330
C
100
AcDbDictionary
281
     1
  0
ACDBDICTIONARYWDFLT
  5
92E0
102
{ACAD_REACTORS
330
C
102
}
330
C
100
AcDbDictionary
281
     1
  3
Normal
350
92E1
100
AcDbDictionaryWithDefault
340
92E1
  0
DICTIONARY
  5
92E2
102
{ACAD_REACTORS
330
C
102
}
330
C
100
AcDbDictionary
281
     1
  3
A0
350
92E3
  3
A1
350
92E4
  3
A2
350
92E5
  3
A3
350
92E6
  3
A4
350
92E7
  3
A5
350
92E8
  3
A6
350
92E9
  3
A7
350
92EA
  3
A8
350
92EB
  3
A9
350
92EC
  3
B0
350
92ED
  3
B1
350
92EE
  3
B2
350
92EF
  3
B3
350
92F0
  3
B4
350
92F1
  3
B5
350
92F2
  3
B6
350
92F3
  3
B7
350
92F4
  3
B8
350
92F5
  3
B9
350
92F6
  3
C0
350
92F7
  3
C1
350
92F8
  3
C2
350
92F9
  3
C3
350
92FA
  3
C4
350
92FB
  3
C5
350
92FC
  3
C6
350
92FD
  3
C7
350
92FE
  3
C8
350
92FF
  3
C9
350
9300
  3
D0
350
9301
  3
D1
350
9302
  3
D2
350
9303
  0
DICTIONARY
  5
3285
102
{ACAD_REACTORS
330
C
102
}
330
C
100
AcDbDictionary
281
     1
  0
DICTIONARY
  5
930B
102
{ACAD_REACTORS
330
C
102
}
330
C
100
AcDbDictionary
281
     1
  3
Standard
350
930C
  0
DICTIONARY
  5
92C6
102
{ACAD_REACTORS
330
C
102
}
330
C
100
AcDbDictionary
281
     1
  3
2dWireframe
350
92CB
  3
Basic
350
92CE
  3
Brighten
350
92D2
  3
ColorChange
350
92D6
  3
Conceptual
350
92D0
  3
Dim
350
92D1
  3
EdgeColorOff
350
92D9
  3
Facepattern
350
92D5
  3
Flat
350
92C7
  3
FlatWithEdges
350
92C8
  3
Gouraud
350
92C9
  3
GouraudWithEdges
350
92CA
  3
Hidden
350
92CD
  3
JitterOff
350
92D7
  3
Linepattern
350
92D4
  3
OverhangOff
350
92D8
  3
Realistic
350
92CF
  3
Shaded
350
92DE
  3
Shaded with edges
350
92DD
  3
Shades of Gray
350
92DA
  3
Sketchy
350
92DB
  3
Thicken
350
92D3
  3
Wireframe
350
92CC
  3
X-Ray
350
92DC
  0
XRECORD
  5
961F
102
{ACAD_REACTORS
330
C
102
}
330
C
100
AcDbXrecord
280
     1
 90
        1
330
930C
  0
DICTIONARY
  5
327F
102
{ACAD_REACTORS
330
C
102
}
330
C
100
AcDbDictionary
281
     1
  3
CANNOSCALE
350
9310
  3
CMLEADERSTYLE
350
9312
  3
CTABLESTYLE
350
9311
  3
MSLTSCALE
350
9313
  0
DICTIONARY
  5
909F
102
{ACAD_REACTORS
330
C
102
}
330
C
100
AcDbDictionary
281
     1
  0
DICTIONARY
  5
3AA
102
{ACAD_REACTORS
330
C
102
}
330
C
100
AcDbDictionary
281
     1
  0
DICTIONARY
  5
90A5
102
{ACAD_REACTORS
330
C
102
}
330
C
100
AcDbDictionary
281
     1
  3
CLEXTENSION
350
90A6
  0
DICTIONARY
  5
3784
102
{ACAD_REACTORS
330
C
102
}
330
C
100
AcDbDictionary
281
     1
  3
DIMRAILANGLE
350
90A3
  3
DIMRAILFIRSTOFFSET
350
90A1
  3
DIMRAILOFFSET
350
90A2
  3
DIMRAILSENABLED
350
90A4
  0
DICTIONARY
  5
3489
102
{ACAD_REACTORS
330
3488
102
}
330
3488
100
AcDbDictionary
281
     1
  0
DICTIONARY
  5
960D
102
{ACAD_REACTORS
330
3488
102
}
330
3488
100
AcDbDictionary
281
     1
1001
ACAD
1000
<All
  0
XRECORD
  5
3278
102
{ACAD_REACTORS
330
3277
102
}
330
3277
100
AcDbXrecord
280
     1
 90
        1
340
0
  0
IMAGEDEF
  5
97E
102
{ACAD_REACTORS
330
97D
102
}
330
97D
100
AcDbRasterImageDef
 90
        0
  1
\\192.168.192.119\digitec-common\デザイン制作部（仮）\★2017新商品\銘版シール\【2017銘版シール】outline_6.png
 10
220.0
 20
182.0
 11
0.3527777777777777
 21
0.3527777777777777
280
     1
281
     5
  0
IMAGEDEF
  5
97F
102
{ACAD_REACTORS
330
97D
102
}
330
97D
100
AcDbRasterImageDef
 90
        0
  1
\\192.168.192.119\digitec-common\デザイン制作部（仮）\★2017新商品\銘版シール\【2017銘版シール】outline_7.png
 10
220.0
 20
182.0
 11
0.3527777777777777
 21
0.3527777777777777
280
     1
281
     5
  0
IMAGEDEF
  5
980
102
{ACAD_REACTORS
330
97D
102
}
330
97D
100
AcDbRasterImageDef
 90
        0
  1
\\192.168.192.119\digitec-common\デザイン制作部（仮）\★2017新商品\銘版シール\【2017銘版シール】outline_8.png
 10
220.0
 20
182.0
 11
0.3527777777777777
 21
0.3527777777777777
280
     1
281
     5
  0
IMAGEDEF
  5
981
102
{ACAD_REACTORS
330
97D
102
}
330
97D
100
AcDbRasterImageDef
 90
        0
  1
\\192.168.192.119\digitec-common\デザイン制作部（仮）\★2017新商品\銘版シール\【2017銘版シール】outline_9.png
 10
220.0
 20
182.0
 11
0.3527777777777777
 21
0.3527777777777777
280
     1
281
     5
  0
IMAGEDEF
  5
97C
102
{ACAD_REACTORS
330
97D
102
}
330
97D
100
AcDbRasterImageDef
 90
        0
  1
\\192.168.192.119\digitec-common\デザイン制作部（仮）\★2017新商品\銘版シール\【2017銘版シール】outline_1.png
 10
220.0
 20
182.0
 11
0.3527777777777777
 21
0.3527777777777777
280
     1
281
     5
  0
IMAGEDEF
  5
982
102
{ACAD_REACTORS
330
97D
102
}
330
97D
100
AcDbRasterImageDef
 90
        0
  1
\\192.168.192.119\digitec-common\デザイン制作部（仮）\★2017新商品\銘版シール\【2017銘版シール】outline_10.png
 10
220.0
 20
182.0
 11
0.3527777777777777
 21
0.3527777777777777
280
     1
281
     5
  0
IMAGEDEF
  5
983
102
{ACAD_REACTORS
330
97D
102
}
330
97D
100
AcDbRasterImageDef
 90
        0
  1
\\192.168.192.119\digitec-common\デザイン制作部（仮）\★2017新商品\銘版シール\【2017銘版シール】outline_11.png
 10
220.0
 20
182.0
 11
0.3527777777777777
 21
0.3527777777777777
280
     1
281
     5
  0
IMAGEDEF
  5
984
102
{ACAD_REACTORS
330
97D
102
}
330
97D
100
AcDbRasterImageDef
 90
        0
  1
\\192.168.192.119\digitec-common\デザイン制作部（仮）\★2017新商品\銘版シール\【2017銘版シール】outline_12.png
 10
220.0
 20
182.0
 11
0.3527777777777777
 21
0.3527777777777777
280
     1
281
     5
  0
IMAGEDEF
  5
985
102
{ACAD_REACTORS
330
97D
102
}
330
97D
100
AcDbRasterImageDef
 90
        0
  1
\\192.168.192.119\digitec-common\デザイン制作部（仮）\★2017新商品\銘版シール\【2017銘版シール】outline_13.png
 10
220.0
 20
182.0
 11
0.3527777777777777
 21
0.3527777777777777
280
     1
281
     5
  0
IMAGEDEF
  5
986
102
{ACAD_REACTORS
330
97D
102
}
330
97D
100
AcDbRasterImageDef
 90
        0
  1
\\192.168.192.119\digitec-common\デザイン制作部（仮）\★2017新商品\銘版シール\【2017銘版シール】outline_14.png
 10
220.0
 20
182.0
 11
0.3527777777777777
 21
0.3527777777777777
280
     1
281
     5
  0
IMAGEDEF
  5
987
102
{ACAD_REACTORS
330
97D
102
}
330
97D
100
AcDbRasterImageDef
 90
        0
  1
\\192.168.192.119\digitec-common\デザイン制作部（仮）\★2017新商品\銘版シール\【2017銘版シール】outline_15.png
 10
220.0
 20
182.0
 11
0.3527777777777777
 21
0.3527777777777777
280
     1
281
     5
  0
IMAGEDEF
  5
988
102
{ACAD_REACTORS
330
97D
102
}
330
97D
100
AcDbRasterImageDef
 90
        0
  1
\\192.168.192.119\digitec-common\デザイン制作部（仮）\★2017新商品\銘版シール\【2017銘版シール】outline_2.png
 10
220.0
 20
182.0
 11
0.3527777777777777
 21
0.3527777777777777
280
     1
281
     5
  0
IMAGEDEF
  5
989
102
{ACAD_REACTORS
330
97D
102
}
330
97D
100
AcDbRasterImageDef
 90
        0
  1
\\192.168.192.119\digitec-common\デザイン制作部（仮）\★2017新商品\銘版シール\【2017銘版シール】outline_3.png
 10
220.0
 20
182.0
 11
0.3527777777777777
 21
0.3527777777777777
280
     1
281
     5
  0
IMAGEDEF
  5
98A
102
{ACAD_REACTORS
330
97D
102
}
330
97D
100
AcDbRasterImageDef
 90
        0
  1
\\192.168.192.119\digitec-common\デザイン制作部（仮）\★2017新商品\銘版シール\【2017銘版シール】outline_4.png
 10
220.0
 20
182.0
 11
0.3527777777777777
 21
0.3527777777777777
280
     1
281
     5
  0
IMAGEDEF
  5
98B
102
{ACAD_REACTORS
330
97D
102
}
330
97D
100
AcDbRasterImageDef
 90
        0
  1
\\192.168.192.119\digitec-common\デザイン制作部（仮）\★2017新商品\銘版シール\【2017銘版シール】outline_5.png
 10
220.0
 20
182.0
 11
0.3527777777777777
 21
0.3527777777777777
280
     1
281
     5
  0
LAYOUT
  5
9305
102
{ACAD_REACTORS
330
9304
102
}
330
9304
100
AcDbPlotSettings
  1

  2
none_device
  4
Letter_(8.50_x_11.00_Inches)
  6

 40
6.35
 41
6.35
 42
6.35
 43
6.35
 44
215.9
 45
279.4
 46
0.0
 47
0.0
 48
0.0
 49
0.0
140
0.0
141
0.0
142
1.0
143
59.11707471042466
 70
  1712
 72
     0
 73
     0
 74
     0
  7

 75
     0
 76
     0
 77
     2
 78
   300
147
0.0169155866540815
148
181.41254149066
149
-1041.070185973542
100
AcDbLayout
  1
Model
 70
     1
 71
     0
 10
0.0
 20
0.0
 11
420.0
 21
297.0
 12
0.0
 22
0.0
 32
0.0
 14
0.0
 24
0.0
 34
0.0
 15
420.0
 25
297.0
 35
0.0
146
0.0
 13
0.0
 23
0.0
 33
0.0
 16
1.0
 26
0.0
 36
0.0
 17
0.0
 27
1.0
 37
0.0
 76
     0
330
1F
331
29
  0
LAYOUT
  5
9306
102
{ACAD_REACTORS
330
9304
102
}
330
9304
100
AcDbPlotSettings
  1

  2
none_device
  4

  6

 40
0.0
 41
0.0
 42
0.0
 43
0.0
 44
0.0
 45
0.0
 46
0.0
 47
0.0
 48
0.0
 49
0.0
140
0.0
141
0.0
142
1.0
143
1.0
 70
   688
 72
     1
 73
     0
 74
     5
  7

 75
    16
 76
     0
 77
     2
 78
   300
147
1.0
148
0.0
149
0.0
100
AcDbLayout
  1
シート 1
 70
     1
 71
     1
 10
0.0
 20
0.0
 11
0.0
 21
0.0
 12
0.0
 22
0.0
 32
0.0
 14
40.5
 24
25.69999999999999
 34
0.0
 15
364.5
 25
231.3
 35
0.0
146
0.0
 13
0.0
 23
0.0
 33
0.0
 16
1.0
 26
0.0
 36
0.0
 17
0.0
 27
1.0
 37
0.0
 76
     0
330
1B
331
3275
  0
MATERIAL
  5
9309
102
{ACAD_REACTORS
330
9307
102
}
330
9307
100
AcDbMaterial
  1
ByBlock
 72
     1
 94
      127
  0
MATERIAL
  5
9308
102
{ACAD_REACTORS
330
9307
102
}
330
9307
100
AcDbMaterial
  1
ByLayer
 72
     1
 94
      127
  0
MATERIAL
  5
930A
102
{ACAD_REACTORS
330
9307
102
}
330
9307
100
AcDbMaterial
  1
Global
 72
     1
 94
      127
  0
MLEADERSTYLE
  5
930E
102
{ACAD_REACTORS
330
930D
102
}
330
930D
100
AcDbMLeaderStyle
179
     2
170
     2
171
     1
172
     0
 90
        2
 40
0.0
 41
0.0
173
     1
 91
-1056964608
340
14
 92
       -2
290
     1
 42
2.0
291
     1
 43
8.0
  3
Standard
341
0
 44
4.0
300

342
11
174
     1
178
     1
175
     1
176
     0
 93
-1056964608
 45
4.0
292
     0
297
     0
 46
4.0
343
0
 94
-1056964608
 47
1.0
 49
1.0
140
1.0
293
     1
141
0.0
294
     1
177
     0
142
1.0
295
     0
296
     0
143
3.75
271
     0
272
     9
273
     9
298
     0
  0
MLINESTYLE
  5
18
102
{ACAD_REACTORS
330
17
102
}
330
17
100
AcDbMlineStyle
  2
Standard
 70
     0
  3

 62
   256
 51
90.0
 52
90.0
 71
     2
 49
0.5
 62
   256
  6
BYLAYER
 49
-0.5
 62
   256
  6
BYLAYER
  0
ACDBPLACEHOLDER
  5
92E1
102
{ACAD_REACTORS
330
92E0
102
}
330
92E0
  0
SCALE
  5
92E3
102
{ACAD_REACTORS
330
92E2
102
}
330
92E2
100
AcDbScale
 70
     0
300
1:1
140
1.0
141
1.0
290
     1
  0
SCALE
  5
92E4
102
{ACAD_REACTORS
330
92E2
102
}
330
92E2
100
AcDbScale
 70
     0
300
1:2
140
1.0
141
2.0
290
     0
  0
SCALE
  5
92E5
102
{ACAD_REACTORS
330
92E2
102
}
330
92E2
100
AcDbScale
 70
     0
300
1:4
140
1.0
141
4.0
290
     0
  0
SCALE
  5
92E6
102
{ACAD_REACTORS
330
92E2
102
}
330
92E2
100
AcDbScale
 70
     0
300
1:5
140
1.0
141
5.0
290
     0
  0
SCALE
  5
92E7
102
{ACAD_REACTORS
330
92E2
102
}
330
92E2
100
AcDbScale
 70
     0
300
1:8
140
1.0
141
8.0
290
     0
  0
SCALE
  5
92E8
102
{ACAD_REACTORS
330
92E2
102
}
330
92E2
100
AcDbScale
 70
     0
300
1:10
140
1.0
141
10.0
290
     0
  0
SCALE
  5
92E9
102
{ACAD_REACTORS
330
92E2
102
}
330
92E2
100
AcDbScale
 70
     0
300
1:16
140
1.0
141
16.0
290
     0
  0
SCALE
  5
92EA
102
{ACAD_REACTORS
330
92E2
102
}
330
92E2
100
AcDbScale
 70
     0
300
1:20
140
1.0
141
20.0
290
     0
  0
SCALE
  5
92EB
102
{ACAD_REACTORS
330
92E2
102
}
330
92E2
100
AcDbScale
 70
     0
300
1:30
140
1.0
141
30.0
290
     0
  0
SCALE
  5
92EC
102
{ACAD_REACTORS
330
92E2
102
}
330
92E2
100
AcDbScale
 70
     0
300
1:40
140
1.0
141
40.0
290
     0
  0
SCALE
  5
92ED
102
{ACAD_REACTORS
330
92E2
102
}
330
92E2
100
AcDbScale
 70
     0
300
1:50
140
1.0
141
50.0
290
     0
  0
SCALE
  5
92EE
102
{ACAD_REACTORS
330
92E2
102
}
330
92E2
100
AcDbScale
 70
     0
300
1:100
140
1.0
141
100.0
290
     0
  0
SCALE
  5
92EF
102
{ACAD_REACTORS
330
92E2
102
}
330
92E2
100
AcDbScale
 70
     0
300
2:1
140
2.0
141
1.0
290
     0
  0
SCALE
  5
92F0
102
{ACAD_REACTORS
330
92E2
102
}
330
92E2
100
AcDbScale
 70
     0
300
4:1
140
4.0
141
1.0
290
     0
  0
SCALE
  5
92F1
102
{ACAD_REACTORS
330
92E2
102
}
330
92E2
100
AcDbScale
 70
     0
300
8:1
140
8.0
141
1.0
290
     0
  0
SCALE
  5
92F2
102
{ACAD_REACTORS
330
92E2
102
}
330
92E2
100
AcDbScale
 70
     0
300
10:1
140
10.0
141
1.0
290
     0
  0
SCALE
  5
92F3
102
{ACAD_REACTORS
330
92E2
102
}
330
92E2
100
AcDbScale
 70
     0
300
100:1
140
100.0
141
1.0
290
     0
  0
SCALE
  5
92F4
102
{ACAD_REACTORS
330
92E2
102
}
330
92E2
100
AcDbScale
 70
     0
300
1/128" = 1'-0"
140
0.0078125
141
12.0
290
     0
  0
SCALE
  5
92F5
102
{ACAD_REACTORS
330
92E2
102
}
330
92E2
100
AcDbScale
 70
     0
300
1/64" = 1'-0"
140
0.015625
141
12.0
290
     0
  0
SCALE
  5
92F6
102
{ACAD_REACTORS
330
92E2
102
}
330
92E2
100
AcDbScale
 70
     0
300
1/32" = 1'-0"
140
0.03125
141
12.0
290
     0
  0
SCALE
  5
92F7
102
{ACAD_REACTORS
330
92E2
102
}
330
92E2
100
AcDbScale
 70
     0
300
1/16" = 1'-0"
140
0.0625
141
12.0
290
     0
  0
SCALE
  5
92F8
102
{ACAD_REACTORS
330
92E2
102
}
330
92E2
100
AcDbScale
 70
     0
300
3/32" = 1'-0"
140
0.09375
141
12.0
290
     0
  0
SCALE
  5
92F9
102
{ACAD_REACTORS
330
92E2
102
}
330
92E2
100
AcDbScale
 70
     0
300
1/8" = 1'-0"
140
0.125
141
12.0
290
     0
  0
SCALE
  5
92FA
102
{ACAD_REACTORS
330
92E2
102
}
330
92E2
100
AcDbScale
 70
     0
300
3/16" = 1'-0"
140
0.1875
141
12.0
290
     0
  0
SCALE
  5
92FB
102
{ACAD_REACTORS
330
92E2
102
}
330
92E2
100
AcDbScale
 70
     0
300
1/4" = 1'-0"
140
0.25
141
12.0
290
     0
  0
SCALE
  5
92FC
102
{ACAD_REACTORS
330
92E2
102
}
330
92E2
100
AcDbScale
 70
     0
300
3/8" = 1'-0"
140
0.375
141
12.0
290
     0
  0
SCALE
  5
92FD
102
{ACAD_REACTORS
330
92E2
102
}
330
92E2
100
AcDbScale
 70
     0
300
1/2" = 1'-0"
140
0.5
141
12.0
290
     0
  0
SCALE
  5
92FE
102
{ACAD_REACTORS
330
92E2
102
}
330
92E2
100
AcDbScale
 70
     0
300
3/4" = 1'-0"
140
0.75
141
12.0
290
     0
  0
SCALE
  5
92FF
102
{ACAD_REACTORS
330
92E2
102
}
330
92E2
100
AcDbScale
 70
     0
300
1" = 1'-0"
140
1.0
141
12.0
290
     0
  0
SCALE
  5
9300
102
{ACAD_REACTORS
330
92E2
102
}
330
92E2
100
AcDbScale
 70
     0
300
1-1/2" = 1'-0"
140
1.5
141
12.0
290
     0
  0
SCALE
  5
9301
102
{ACAD_REACTORS
330
92E2
102
}
330
92E2
100
AcDbScale
 70
     0
300
3" = 1'-0"
140
3.0
141
12.0
290
     0
  0
SCALE
  5
9302
102
{ACAD_REACTORS
330
92E2
102
}
330
92E2
100
AcDbScale
 70
     0
300
6" = 1'-0"
140
6.0
141
12.0
290
     0
  0
SCALE
  5
9303
102
{ACAD_REACTORS
330
92E2
102
}
330
92E2
100
AcDbScale
 70
     0
300
1'-0" = 1'-0"
140
12.0
141
12.0
290
     0
  0
TABLESTYLE
  5
930C
102
{ACAD_REACTORS
330
930B
102
}
102
{ACAD_XDICTIONARY
360
961D
102
}
330
930B
100
AcDbTableStyle
  3
Standard
 70
     0
 71
     0
 40
1.5
 41
1.5
280
     0
281
     0
  7
STANDARD
140
4.5
170
     2
 62
     0
 63
   257
283
     0
 90
        4
 91
        0
  1

274
    -2
284
     1
 64
     0
275
    -2
285
     1
 65
     0
276
    -2
286
     1
 66
     0
277
    -2
287
     1
 67
     0
278
    -2
288
     1
 68
     0
279
    -2
289
     1
 69
     0
  7
STANDARD
140
6.0
170
     5
 62
     0
 63
   257
283
     0
 90
        4
 91
        0
  1

274
    -2
284
     1
 64
     0
275
    -2
285
     1
 65
     0
276
    -2
286
     1
 66
     0
277
    -2
287
     1
 67
     0
278
    -2
288
     1
 68
     0
279
    -2
289
     1
 69
     0
  7
STANDARD
140
4.5
170
     5
 62
     0
 63
   257
283
     0
 90
        4
 91
        0
  1

274
    -2
284
     1
 64
     0
275
    -2
285
     1
 65
     0
276
    -2
286
     1
 66
     0
277
    -2
287
     1
 67
     0
278
    -2
288
     1
 68
     0
279
    -2
289
     1
 69
     0
  0
VISUALSTYLE
  5
92CB
102
{ACAD_REACTORS
330
92C6
102
}
330
92C6
100
AcDbVisualStyle
  2
2dWireframe
 70
     4
177
     3
291
     0
 70
    58
 90
        0
176
     1
 90
        2
176
     1
 90
        0
176
     1
 90
        0
176
     1
 40
0.6
176
     1
 40
30.0
176
     1
 62
     7
420
 16777215
176
     1
 90
        1
176
     1
 90
        4
176
     1
 62
     7
176
     1
 62
   257
176
     1
 90
        1
176
     1
 90
        1
176
     1
 40
1.0
176
     1
 90
        0
176
     1
 62
   257
176
     1
 40
1.0
176
     1
 90
        1
176
     1
 90
        6
176
     1
 90
        2
176
     1
 62
     7
176
     1
 90
        5
176
     1
 90
        0
176
     1
 90
        0
176
     1
290
     0
176
     1
 90
        1
176
     1
 40
0.0
176
     1
 90
        0
176
     1
290
     1
176
     1
290
     1
176
     1
290
     0
176
     1
290
     0
176
     1
290
     0
176
     1
290
     0
176
     1
290
     0
176
     1
290
     0
176
     1
290
     0
176
     1
 90
       50
176
     1
 40
0.0
176
     1
 40
1.0
176
     1
 90
        0
176
     1
 62
    18
420
        0
176
     1
 90
       50
176
     1
 90
        3
176
     1
 62
     5
420
      255
176
     1
290
     0
176
     1
 90
       50
176
     1
 90
       50
176
     1
 90
       50
176
     1
290
     0
176
     1
 90
       50
176
     1
 62
   256
176
     0
 40
1.0
176
     0
 90
        2
176
     1
  1
strokes_ogs.tif
176
     1
290
     0
176
     1
 40
1.0
176
     1
 40
1.0
176
     1
  0
VISUALSTYLE
  5
92CE
102
{ACAD_REACTORS
330
92C6
102
}
330
92C6
100
AcDbVisualStyle
  2
Basic
 70
     7
177
     3
291
     1
 70
    58
 90
        1
176
     1
 90
        0
176
     1
 90
        1
176
     1
 90
        0
176
     1
 40
0.6
176
     1
 40
30.0
176
     1
 62
     7
420
 16777215
176
     1
 90
        0
176
     1
 90
        4
176
     1
 62
     7
176
     1
 62
   257
176
     1
 90
        1
176
     1
 90
        1
176
     1
 40
1.0
176
     1
 90
        8
176
     1
 62
     7
176
     1
 40
1.0
176
     1
 90
        1
176
     1
 90
        6
176
     1
 90
        2
176
     1
 62
     7
176
     1
 90
        5
176
     1
 90
        0
176
     1
 90
        0
176
     1
290
     0
176
     1
 90
        1
176
     1
 40
0.0
176
     1
 90
        0
176
     1
290
     0
176
     1
290
     1
176
     1
290
     1
176
     1
290
     0
176
     1
290
     0
176
     1
290
     0
176
     1
290
     0
176
     1
290
     0
176
     1
290
     0
176
     1
 90
       50
176
     1
 40
0.0
176
     1
 40
1.0
176
     1
 90
        0
176
     1
 62
    18
420
        0
176
     1
 90
       50
176
     1
 90
        3
176
     1
 62
     5
420
      255
176
     1
290
     0
176
     1
 90
       50
176
     1
 90
       50
176
     1
 90
       50
176
     1
290
     0
176
     1
 90
       50
176
     1
 62
   256
176
     0
 40
1.0
176
     0
 90
        2
176
     1
  1
strokes_ogs.tif
176
     1
290
     0
176
     1
 40
1.0
176
     1
 40
1.0
176
     1
  0
VISUALSTYLE
  5
92D2
102
{ACAD_REACTORS
330
92C6
102
}
330
92C6
100
AcDbVisualStyle
  2
Brighten
 70
    12
177
     3
291
     1
 70
    58
 90
        2
176
     1
 90
        2
176
     1
 90
        0
176
     1
 90
        0
176
     1
 40
0.6
176
     1
 40
30.0
176
     1
 62
     7
420
 16777215
176
     1
 90
        1
176
     1
 90
        4
176
     1
 62
     7
176
     1
 62
   257
176
     1
 90
        1
176
     1
 90
        1
176
     1
 40
1.0
176
     1
 90
        8
176
     1
 62
     7
176
     1
 40
1.0
176
     1
 90
        1
176
     1
 90
        6
176
     1
 90
        2
176
     1
 62
     7
176
     1
 90
        5
176
     1
 90
        0
176
     1
 90
        0
176
     1
290
     0
176
     1
 90
        1
176
     1
 40
50.0
176
     1
 90
        0
176
     1
290
     0
176
     1
290
     1
176
     1
290
     1
176
     1
290
     0
176
     1
290
     0
176
     1
290
     0
176
     1
290
     0
176
     1
290
     0
176
     1
290
     0
176
     1
 90
       50
176
     1
 40
0.0
176
     1
 40
1.0
176
     1
 90
        0
176
     1
 62
    18
420
        0
176
     1
 90
       50
176
     1
 90
        3
176
     1
 62
     5
420
      255
176
     1
290
     0
176
     1
 90
       50
176
     1
 90
       50
176
     1
 90
       50
176
     1
290
     0
176
     1
 90
       50
176
     1
 62
   256
176
     0
 40
1.0
176
     0
 90
        2
176
     1
  1
strokes_ogs.tif
176
     1
290
     0
176
     1
 40
1.0
176
     1
 40
1.0
176
     1
  0
VISUALSTYLE
  5
92D6
102
{ACAD_REACTORS
330
92C6
102
}
330
92C6
100
AcDbVisualStyle
  2
ColorChange
 70
    16
177
     3
291
     1
 70
    58
 90
        2
176
     1
 90
        2
176
     1
 90
        3
176
     1
 90
        0
176
     1
 40
0.6
176
     1
 40
30.0
176
     1
 62
     8
420
  8421504
176
     1
 90
        1
176
     1
 90
        4
176
     1
 62
     7
176
     1
 62
   257
176
     1
 90
        1
176
     1
 90
        1
176
     1
 40
1.0
176
     1
 90
        8
176
     1
 62
     8
420
  8421504
176
     1
 40
1.0
176
     1
 90
        1
176
     1
 90
        6
176
     1
 90
        2
176
     1
 62
     7
176
     1
 90
        5
176
     1
 90
        0
176
     1
 90
        0
176
     1
290
     0
176
     1
 90
        1
176
     1
 40
0.0
176
     1
 90
        0
176
     1
290
     0
176
     1
290
     1
176
     1
290
     1
176
     1
290
     0
176
     1
290
     0
176
     1
290
     0
176
     1
290
     0
176
     1
290
     0
176
     1
290
     0
176
     1
 90
       50
176
     1
 40
0.0
176
     1
 40
1.0
176
     1
 90
        0
176
     1
 62
    18
420
        0
176
     1
 90
       50
176
     1
 90
        3
176
     1
 62
     5
420
      255
176
     1
290
     0
176
     1
 90
       50
176
     1
 90
       50
176
     1
 90
       50
176
     1
290
     0
176
     1
 90
       50
176
     1
 62
   256
176
     0
 40
1.0
176
     0
 90
        2
176
     1
  1
strokes_ogs.tif
176
     1
290
     0
176
     1
 40
1.0
176
     1
 40
1.0
176
     1
  0
VISUALSTYLE
  5
92D0
102
{ACAD_REACTORS
330
92C6
102
}
330
92C6
100
AcDbVisualStyle
  2
Conceptual
 70
     9
177
     3
291
     0
 70
    58
 90
        3
176
     1
 90
        2
176
     1
 90
        0
176
     1
 90
        0
176
     1
 40
0.6
176
     1
 40
30.0
176
     1
 62
     7
420
 16777215
176
     1
 90
        2
176
     1
 90
        2
176
     1
 62
     7
176
     1
 62
   257
176
     1
 90
        1
176
     1
 90
        1
176
     1
 40
179.0
176
     1
 90
        8
176
     1
 62
     7
176
     1
 40
1.0
176
     1
 90
        1
176
     1
 90
        6
176
     1
 90
        2
176
     1
 62
     7
176
     1
 90
        3
176
     1
 90
        0
176
     1
 90
        0
176
     1
290
     0
176
     1
 90
        1
176
     1
 40
0.0
176
     1
 90
        0
176
     1
290
     0
176
     1
290
     1
176
     1
290
     1
176
     1
290
     0
176
     1
290
     0
176
     1
290
     0
176
     1
290
     0
176
     1
290
     0
176
     1
290
     0
176
     1
 90
       50
176
     1
 40
0.0
176
     1
 40
1.0
176
     1
 90
        0
176
     1
 62
    18
420
        0
176
     1
 90
       50
176
     1
 90
        3
176
     1
 62
     5
420
      255
176
     1
290
     0
176
     1
 90
       50
176
     1
 90
       50
176
     1
 90
       50
176
     1
290
     0
176
     1
 90
       50
176
     1
 62
   256
176
     0
 40
1.0
176
     0
 90
        2
176
     1
  1
strokes_ogs.tif
176
     1
290
     0
176
     1
 40
1.0
176
     1
 40
1.0
176
     1
  0
VISUALSTYLE
  5
92D1
102
{ACAD_REACTORS
330
92C6
102
}
330
92C6
100
AcDbVisualStyle
  2
Dim
 70
    11
177
     3
291
     1
 70
    58
 90
        2
176
     1
 90
        2
176
     1
 90
        0
176
     1
 90
        0
176
     1
 40
0.6
176
     1
 40
30.0
176
     1
 62
     7
420
 16777215
176
     1
 90
        1
176
     1
 90
        4
176
     1
 62
     7
176
     1
 62
   257
176
     1
 90
        1
176
     1
 90
        1
176
     1
 40
1.0
176
     1
 90
        8
176
     1
 62
     7
176
     1
 40
1.0
176
     1
 90
        1
176
     1
 90
        6
176
     1
 90
        2
176
     1
 62
     7
176
     1
 90
        5
176
     1
 90
        0
176
     1
 90
        0
176
     1
290
     0
176
     1
 90
        1
176
     1
 40
-50.0
176
     1
 90
        0
176
     1
290
     0
176
     1
290
     1
176
     1
290
     1
176
     1
290
     0
176
     1
290
     0
176
     1
290
     0
176
     1
290
     0
176
     1
290
     0
176
     1
290
     0
176
     1
 90
       50
176
     1
 40
0.0
176
     1
 40
1.0
176
     1
 90
        0
176
     1
 62
    18
420
        0
176
     1
 90
       50
176
     1
 90
        3
176
     1
 62
     5
420
      255
176
     1
290
     0
176
     1
 90
       50
176
     1
 90
       50
176
     1
 90
       50
176
     1
290
     0
176
     1
 90
       50
176
     1
 62
   256
176
     0
 40
1.0
176
     0
 90
        2
176
     1
  1
strokes_ogs.tif
176
     1
290
     0
176
     1
 40
1.0
176
     1
 40
1.0
176
     1
  0
VISUALSTYLE
  5
92D9
102
{ACAD_REACTORS
330
92C6
102
}
330
92C6
100
AcDbVisualStyle
  2
EdgeColorOff
 70
    22
177
     3
291
     1
 70
    58
 90
        2
176
     0
 90
        2
176
     0
 90
        0
176
     0
 90
        0
176
     0
 40
0.6
176
     0
 40
30.0
176
     0
 62
     7
420
 16777215
176
     0
 90
        1
176
     0
 90
        4
176
     0
 62
     7
176
     0
 62
   257
176
     0
 90
        1
176
     0
 90
        1
176
     0
 40
1.0
176
     0
 90
        8
176
     2
 62
     7
176
     0
 40
1.0
176
     0
 90
        1
176
     0
 90
        6
176
     0
 90
        2
176
     0
 62
     7
176
     0
 90
        5
176
     0
 90
        0
176
     0
 90
        0
176
     0
290
     0
176
     0
 90
        1
176
     0
 40
0.0
176
     0
 90
        0
176
     0
290
     0
176
     0
290
     1
176
     0
290
     1
176
     0
290
     0
176
     0
290
     0
176
     0
290
     0
176
     0
290
     0
176
     0
290
     0
176
     0
290
     0
176
     0
 90
       50
176
     0
 40
0.0
176
     0
 40
1.0
176
     0
 90
        0
176
     0
 62
    18
420
        0
176
     0
 90
       50
176
     0
 90
        3
176
     0
 62
     5
420
      255
176
     0
290
     0
176
     0
 90
       50
176
     0
 90
       50
176
     0
 90
       50
176
     0
290
     0
176
     0
 90
       50
176
     0
 62
   256
176
     0
 40
1.0
176
     0
 90
        2
176
     0
  1
strokes_ogs.tif
176
     0
290
     0
176
     0
 40
1.0
176
     0
 40
1.0
176
     0
  0
VISUALSTYLE
  5
92D5
102
{ACAD_REACTORS
330
92C6
102
}
330
92C6
100
AcDbVisualStyle
  2
Facepattern
 70
    15
177
     3
291
     1
 70
    58
 90
        2
176
     1
 90
        2
176
     1
 90
        0
176
     1
 90
        0
176
     1
 40
0.6
176
     1
 40
30.0
176
     1
 62
     7
420
 16777215
176
     1
 90
        1
176
     1
 90
        4
176
     1
 62
     7
176
     1
 62
   257
176
     1
 90
        1
176
     1
 90
        1
176
     1
 40
1.0
176
     1
 90
        8
176
     1
 62
     7
176
     1
 40
1.0
176
     1
 90
        1
176
     1
 90
        6
176
     1
 90
        2
176
     1
 62
     7
176
     1
 90
        5
176
     1
 90
        0
176
     1
 90
        0
176
     1
290
     0
176
     1
 90
        1
176
     1
 40
0.0
176
     1
 90
        0
176
     1
290
     0
176
     1
290
     1
176
     1
290
     1
176
     1
290
     0
176
     1
290
     0
176
     1
290
     0
176
     1
290
     0
176
     1
290
     0
176
     1
290
     0
176
     1
 90
       50
176
     1
 40
0.0
176
     1
 40
1.0
176
     1
 90
        0
176
     1
 62
    18
420
        0
176
     1
 90
       50
176
     1
 90
        3
176
     1
 62
     5
420
      255
176
     1
290
     0
176
     1
 90
       50
176
     1
 90
       50
176
     1
 90
       50
176
     1
290
     0
176
     1
 90
       50
176
     1
 62
   256
176
     0
 40
1.0
176
     0
 90
        2
176
     1
  1
strokes_ogs.tif
176
     1
290
     0
176
     1
 40
1.0
176
     1
 40
1.0
176
     1
  0
VISUALSTYLE
  5
92C7
102
{ACAD_REACTORS
330
92C6
102
}
330
92C6
100
AcDbVisualStyle
  2
Flat
 70
     0
177
     3
291
     1
 70
    58
 90
        2
176
     1
 90
        1
176
     1
 90
        1
176
     1
 90
        2
176
     1
 40
0.6
176
     1
 40
30.0
176
     1
 62
     7
420
 16777215
176
     1
 90
        0
176
     1
 90
        0
176
     1
 62
     7
176
     1
 62
   257
176
     1
 90
        1
176
     1
 90
        1
176
     1
 40
1.0
176
     1
 90
        8
176
     1
 62
     7
176
     1
 40
1.0
176
     1
 90
        1
176
     1
 90
        6
176
     1
 90
        2
176
     1
 62
     7
176
     1
 90
        5
176
     1
 90
        0
176
     1
 90
        0
176
     1
290
     0
176
     1
 90
       13
176
     1
 40
0.0
176
     1
 90
        0
176
     1
290
     0
176
     1
290
     1
176
     1
290
     1
176
     1
290
     0
176
     1
290
     0
176
     1
290
     0
176
     1
290
     0
176
     1
290
     0
176
     1
290
     0
176
     1
 90
       50
176
     1
 40
0.0
176
     1
 40
1.0
176
     1
 90
        0
176
     1
 62
    18
420
        0
176
     1
 90
       50
176
     1
 90
        3
176
     1
 62
     5
420
      255
176
     1
290
     0
176
     1
 90
       50
176
     1
 90
       50
176
     1
 90
       50
176
     1
290
     0
176
     1
 90
       50
176
     1
 62
   256
176
     0
 40
1.0
176
     0
 90
        2
176
     1
  1
strokes_ogs.tif
176
     1
290
     0
176
     1
 40
1.0
176
     1
 40
1.0
176
     1
  0
VISUALSTYLE
  5
92C8
102
{ACAD_REACTORS
330
92C6
102
}
330
92C6
100
AcDbVisualStyle
  2
FlatWithEdges
 70
     1
177
     3
291
     1
 70
    58
 90
        2
176
     1
 90
        1
176
     1
 90
        1
176
     1
 90
        2
176
     1
 40
0.6
176
     1
 40
30.0
176
     1
 62
     7
420
 16777215
176
     1
 90
        1
176
     1
 90
        0
176
     1
 62
     7
176
     1
 62
   257
176
     1
 90
        1
176
     1
 90
        1
176
     1
 40
1.0
176
     1
 90
        0
176
     1
 62
   257
176
     1
 40
1.0
176
     1
 90
        1
176
     1
 90
        6
176
     1
 90
        2
176
     1
 62
     7
176
     1
 90
        5
176
     1
 90
        0
176
     1
 90
        0
176
     1
290
     0
176
     1
 90
       13
176
     1
 40
0.0
176
     1
 90
        0
176
     1
290
     0
176
     1
290
     1
176
     1
290
     1
176
     1
290
     0
176
     1
290
     0
176
     1
290
     0
176
     1
290
     0
176
     1
290
     0
176
     1
290
     0
176
     1
 90
       50
176
     1
 40
0.0
176
     1
 40
1.0
176
     1
 90
        0
176
     1
 62
    18
420
        0
176
     1
 90
       50
176
     1
 90
        3
176
     1
 62
     5
420
      255
176
     1
290
     0
176
     1
 90
       50
176
     1
 90
       50
176
     1
 90
       50
176
     1
290
     0
176
     1
 90
       50
176
     1
 62
   256
176
     0
 40
1.0
176
     0
 90
        2
176
     1
  1
strokes_ogs.tif
176
     1
290
     0
176
     1
 40
1.0
176
     1
 40
1.0
176
     1
  0
VISUALSTYLE
  5
92C9
102
{ACAD_REACTORS
330
92C6
102
}
330
92C6
100
AcDbVisualStyle
  2
Gouraud
 70
     2
177
     3
291
     1
 70
    58
 90
        2
176
     1
 90
        2
176
     1
 90
        1
176
     1
 90
        2
176
     1
 40
0.6
176
     1
 40
30.0
176
     1
 62
     7
420
 16777215
176
     1
 90
        0
176
     1
 90
        0
176
     1
 62
     7
176
     1
 62
   257
176
     1
 90
        1
176
     1
 90
        1
176
     1
 40
1.0
176
     1
 90
        0
176
     1
 62
     7
176
     1
 40
1.0
176
     1
 90
        1
176
     1
 90
        6
176
     1
 90
        2
176
     1
 62
     7
176
     1
 90
        5
176
     1
 90
        0
176
     1
 90
        0
176
     1
290
     0
176
     1
 90
       13
176
     1
 40
0.0
176
     1
 90
        0
176
     1
290
     0
176
     1
290
     1
176
     1
290
     1
176
     1
290
     0
176
     1
290
     0
176
     1
290
     0
176
     1
290
     0
176
     1
290
     0
176
     1
290
     0
176
     1
 90
       50
176
     1
 40
0.0
176
     1
 40
1.0
176
     1
 90
        0
176
     1
 62
    18
420
        0
176
     1
 90
       50
176
     1
 90
        3
176
     1
 62
     5
420
      255
176
     1
290
     0
176
     1
 90
       50
176
     1
 90
       50
176
     1
 90
       50
176
     1
290
     0
176
     1
 90
       50
176
     1
 62
   256
176
     0
 40
1.0
176
     0
 90
        2
176
     1
  1
strokes_ogs.tif
176
     1
290
     0
176
     1
 40
1.0
176
     1
 40
1.0
176
     1
  0
VISUALSTYLE
  5
92CA
102
{ACAD_REACTORS
330
92C6
102
}
330
92C6
100
AcDbVisualStyle
  2
GouraudWithEdges
 70
     3
177
     3
291
     1
 70
    58
 90
        2
176
     1
 90
        2
176
     1
 90
        1
176
     1
 90
        2
176
     1
 40
0.6
176
     1
 40
30.0
176
     1
 62
     7
420
 16777215
176
     1
 90
        1
176
     1
 90
        0
176
     1
 62
     7
176
     1
 62
   257
176
     1
 90
        1
176
     1
 90
        1
176
     1
 40
1.0
176
     1
 90
        0
176
     1
 62
   257
176
     1
 40
1.0
176
     1
 90
        1
176
     1
 90
        6
176
     1
 90
        2
176
     1
 62
     7
176
     1
 90
        5
176
     1
 90
        0
176
     1
 90
        0
176
     1
290
     0
176
     1
 90
       13
176
     1
 40
0.0
176
     1
 90
        0
176
     1
290
     0
176
     1
290
     1
176
     1
290
     1
176
     1
290
     0
176
     1
290
     0
176
     1
290
     0
176
     1
290
     0
176
     1
290
     0
176
     1
290
     0
176
     1
 90
       50
176
     1
 40
0.0
176
     1
 40
1.0
176
     1
 90
        0
176
     1
 62
    18
420
        0
176
     1
 90
       50
176
     1
 90
        3
176
     1
 62
     5
420
      255
176
     1
290
     0
176
     1
 90
       50
176
     1
 90
       50
176
     1
 90
       50
176
     1
290
     0
176
     1
 90
       50
176
     1
 62
   256
176
     0
 40
1.0
176
     0
 90
        2
176
     1
  1
strokes_ogs.tif
176
     1
290
     0
176
     1
 40
1.0
176
     1
 40
1.0
176
     1
  0
VISUALSTYLE
  5
92CD
102
{ACAD_REACTORS
330
92C6
102
}
330
92C6
100
AcDbVisualStyle
  2
Hidden
 70
     6
177
     3
291
     0
 70
    58
 90
        1
176
     1
 90
        2
176
     1
 90
        2
176
     1
 90
        0
176
     1
 40
0.6
176
     1
 40
30.0
176
     1
 62
     7
420
 16777215
176
     1
 90
        2
176
     1
 90
        2
176
     1
 62
     7
176
     1
 62
   257
176
     1
 90
        2
176
     1
 90
        1
176
     1
 40
40.0
176
     1
 90
        0
176
     1
 62
   257
176
     1
 40
1.0
176
     1
 90
        1
176
     1
 90
        6
176
     1
 90
        2
176
     1
 62
     7
176
     1
 90
        3
176
     1
 90
        0
176
     1
 90
        0
176
     1
290
     0
176
     1
 90
        1
176
     1
 40
0.0
176
     1
 90
        0
176
     1
290
     0
176
     1
290
     1
176
     1
290
     1
176
     1
290
     0
176
     1
290
     0
176
     1
290
     0
176
     1
290
     0
176
     1
290
     0
176
     1
290
     0
176
     1
 90
       50
176
     1
 40
0.0
176
     1
 40
1.0
176
     1
 90
        0
176
     1
 62
    18
420
        0
176
     1
 90
       50
176
     1
 90
        3
176
     1
 62
     5
420
      255
176
     1
290
     0
176
     1
 90
       50
176
     1
 90
       50
176
     1
 90
       50
176
     1
290
     0
176
     1
 90
       50
176
     1
 62
   256
176
     0
 40
1.0
176
     0
 90
        2
176
     1
  1
strokes_ogs.tif
176
     1
290
     0
176
     1
 40
1.0
176
     1
 40
1.0
176
     1
  0
VISUALSTYLE
  5
92D7
102
{ACAD_REACTORS
330
92C6
102
}
330
92C6
100
AcDbVisualStyle
  2
JitterOff
 70
    20
177
     3
291
     1
 70
    58
 90
        2
176
     0
 90
        2
176
     0
 90
        0
176
     0
 90
        0
176
     0
 40
0.6
176
     0
 40
30.0
176
     0
 62
     7
420
 16777215
176
     0
 90
        1
176
     0
 90
        4
176
     0
 62
     7
176
     0
 62
   257
176
     0
 90
        1
176
     0
 90
        1
176
     0
 40
1.0
176
     0
 90
       10
176
     2
 62
     7
176
     0
 40
1.0
176
     0
 90
        1
176
     0
 90
        6
176
     0
 90
        2
176
     0
 62
     7
176
     0
 90
        5
176
     0
 90
        0
176
     0
 90
        0
176
     0
290
     0
176
     0
 90
        1
176
     0
 40
0.0
176
     0
 90
        0
176
     0
290
     0
176
     0
290
     1
176
     0
290
     1
176
     0
290
     0
176
     0
290
     0
176
     0
290
     0
176
     0
290
     0
176
     0
290
     0
176
     0
290
     0
176
     0
 90
       50
176
     0
 40
0.0
176
     0
 40
1.0
176
     0
 90
        0
176
     0
 62
    18
420
        0
176
     0
 90
       50
176
     0
 90
        3
176
     0
 62
     5
420
      255
176
     0
290
     0
176
     0
 90
       50
176
     0
 90
       50
176
     0
 90
       50
176
     0
290
     0
176
     0
 90
       50
176
     0
 62
   256
176
     0
 40
1.0
176
     0
 90
        2
176
     0
  1
strokes_ogs.tif
176
     0
290
     0
176
     0
 40
1.0
176
     0
 40
1.0
176
     0
  0
VISUALSTYLE
  5
92D4
102
{ACAD_REACTORS
330
92C6
102
}
330
92C6
100
AcDbVisualStyle
  2
Linepattern
 70
    14
177
     3
291
     1
 70
    58
 90
        2
176
     1
 90
        2
176
     1
 90
        0
176
     1
 90
        0
176
     1
 40
0.6
176
     1
 40
30.0
176
     1
 62
     7
420
 16777215
176
     1
 90
        1
176
     1
 90
        4
176
     1
 62
     7
176
     1
 62
   257
176
     1
 90
        7
176
     1
 90
        7
176
     1
 40
1.0
176
     1
 90
        8
176
     1
 62
     7
176
     1
 40
1.0
176
     1
 90
        1
176
     1
 90
        6
176
     1
 90
        2
176
     1
 62
     7
176
     1
 90
        5
176
     1
 90
        0
176
     1
 90
        0
176
     1
290
     0
176
     1
 90
        1
176
     1
 40
0.0
176
     1
 90
        0
176
     1
290
     0
176
     1
290
     1
176
     1
290
     1
176
     1
290
     0
176
     1
290
     0
176
     1
290
     0
176
     1
290
     0
176
     1
290
     0
176
     1
290
     0
176
     1
 90
       50
176
     1
 40
0.0
176
     1
 40
1.0
176
     1
 90
        0
176
     1
 62
    18
420
        0
176
     1
 90
       50
176
     1
 90
        3
176
     1
 62
     5
420
      255
176
     1
290
     0
176
     1
 90
       50
176
     1
 90
       50
176
     1
 90
       50
176
     1
290
     0
176
     1
 90
       50
176
     1
 62
   256
176
     0
 40
1.0
176
     0
 90
        2
176
     1
  1
strokes_ogs.tif
176
     1
290
     0
176
     1
 40
1.0
176
     1
 40
1.0
176
     1
  0
VISUALSTYLE
  5
92D8
102
{ACAD_REACTORS
330
92C6
102
}
330
92C6
100
AcDbVisualStyle
  2
OverhangOff
 70
    21
177
     3
291
     1
 70
    58
 90
        2
176
     0
 90
        2
176
     0
 90
        0
176
     0
 90
        0
176
     0
 40
0.6
176
     0
 40
30.0
176
     0
 62
     7
420
 16777215
176
     0
 90
        1
176
     0
 90
        4
176
     0
 62
     7
176
     0
 62
   257
176
     0
 90
        1
176
     0
 90
        1
176
     0
 40
1.0
176
     0
 90
        9
176
     2
 62
     7
176
     0
 40
1.0
176
     0
 90
        1
176
     0
 90
        6
176
     0
 90
        2
176
     0
 62
     7
176
     0
 90
        5
176
     0
 90
        0
176
     0
 90
        0
176
     0
290
     0
176
     0
 90
        1
176
     0
 40
0.0
176
     0
 90
        0
176
     0
290
     0
176
     0
290
     1
176
     0
290
     1
176
     0
290
     0
176
     0
290
     0
176
     0
290
     0
176
     0
290
     0
176
     0
290
     0
176
     0
290
     0
176
     0
 90
       50
176
     0
 40
0.0
176
     0
 40
1.0
176
     0
 90
        0
176
     0
 62
    18
420
        0
176
     0
 90
       50
176
     0
 90
        3
176
     0
 62
     5
420
      255
176
     0
290
     0
176
     0
 90
       50
176
     0
 90
       50
176
     0
 90
       50
176
     0
290
     0
176
     0
 90
       50
176
     0
 62
   256
176
     0
 40
1.0
176
     0
 90
        2
176
     0
  1
strokes_ogs.tif
176
     0
290
     0
176
     0
 40
1.0
176
     0
 40
1.0
176
     0
  0
VISUALSTYLE
  5
92CF
102
{ACAD_REACTORS
330
92C6
102
}
330
92C6
100
AcDbVisualStyle
  2
Realistic
 70
     8
177
     3
291
     0
 70
    58
 90
        2
176
     1
 90
        3
176
     1
 90
        0
176
     1
 90
        2
176
     1
 40
0.6
176
     1
 40
30.0
176
     1
 62
     7
420
 16777215
176
     1
 90
        0
176
     1
 90
        0
176
     1
 62
     7
176
     1
 62
   257
176
     1
 90
        1
176
     1
 90
        1
176
     1
 40
1.0
176
     1
 90
        8
176
     1
 62
   257
176
     1
 40
1.0
176
     1
 90
        1
176
     1
 90
        6
176
     1
 90
        2
176
     1
 62
     7
176
     1
 90
        3
176
     1
 90
        0
176
     1
 90
        0
176
     1
290
     0
176
     1
 90
       13
176
     1
 40
0.0
176
     1
 90
        0
176
     1
290
     0
176
     1
290
     1
176
     1
290
     1
176
     1
290
     0
176
     1
290
     0
176
     1
290
     0
176
     1
290
     0
176
     1
290
     0
176
     1
290
     0
176
     1
 90
       50
176
     1
 40
0.0
176
     1
 40
1.0
176
     1
 90
        0
176
     1
 62
    18
420
        0
176
     1
 90
       50
176
     1
 90
        3
176
     1
 62
     5
420
      255
176
     1
290
     0
176
     1
 90
       50
176
     1
 90
       50
176
     1
 90
       50
176
     1
290
     0
176
     1
 90
       50
176
     1
 62
   256
176
     0
 40
1.0
176
     0
 90
        2
176
     1
  1
strokes_ogs.tif
176
     1
290
     0
176
     1
 40
1.0
176
     1
 40
1.0
176
     1
  0
VISUALSTYLE
  5
92DE
102
{ACAD_REACTORS
330
92C6
102
}
330
92C6
100
AcDbVisualStyle
  2
Shaded
 70
    27
177
     3
291
     0
 70
    58
 90
        2
176
     1
 90
        2
176
     1
 90
        1
176
     1
 90
        2
176
     1
 40
0.6
176
     1
 40
30.0
176
     1
 62
     7
420
 16777215
176
     1
 90
        0
176
     1
 90
        4
176
     1
 62
     7
176
     1
 62
   257
176
     1
 90
        1
176
     1
 90
        1
176
     1
 40
1.0
176
     1
 90
        8
176
     1
 62
   257
176
     1
 40
1.0
176
     1
 90
        1
176
     1
 90
        6
176
     1
 90
        2
176
     1
 62
     8
420
  7895160
176
     1
 90
        3
176
     1
 90
        0
176
     1
 90
        0
176
     1
290
     0
176
     1
 90
        5
176
     1
 40
0.0
176
     1
 90
        0
176
     1
290
     0
176
     1
290
     1
176
     1
290
     1
176
     1
290
     0
176
     1
290
     0
176
     1
290
     0
176
     1
290
     0
176
     1
290
     0
176
     1
290
     0
176
     1
 90
       50
176
     1
 40
0.0
176
     1
 40
1.0
176
     1
 90
        0
176
     1
 62
    18
420
        0
176
     1
 90
       50
176
     1
 90
        3
176
     1
 62
     5
420
      255
176
     1
290
     0
176
     1
 90
       50
176
     1
 90
       50
176
     1
 90
       50
176
     1
290
     0
176
     1
 90
       50
176
     1
 62
   256
176
     0
 40
1.0
176
     0
 90
        2
176
     1
  1
strokes_ogs.tif
176
     1
290
     0
176
     1
 40
1.0
176
     1
 40
1.0
176
     1
  0
VISUALSTYLE
  5
92DD
102
{ACAD_REACTORS
330
92C6
102
}
330
92C6
100
AcDbVisualStyle
  2
Shaded with edges
 70
    26
177
     3
291
     0
 70
    58
 90
        2
176
     1
 90
        2
176
     1
 90
        1
176
     1
 90
        2
176
     1
 40
0.6
176
     1
 40
30.0
176
     1
 62
     7
420
 16777215
176
     1
 90
        1
176
     1
 90
       10
176
     1
 62
     7
176
     1
 62
   257
176
     1
 90
        2
176
     1
 90
        1
176
     1
 40
1.0
176
     1
 90
        8
176
     1
 62
   257
176
     1
 40
1.0
176
     1
 90
        1
176
     1
 90
        6
176
     1
 90
        2
176
     1
 62
     7
176
     1
 90
        3
176
     1
 90
        0
176
     1
 90
        0
176
     1
290
     0
176
     1
 90
        5
176
     1
 40
0.0
176
     1
 90
        0
176
     1
290
     0
176
     1
290
     1
176
     1
290
     1
176
     1
290
     0
176
     1
290
     0
176
     1
290
     0
176
     1
290
     0
176
     1
290
     0
176
     1
290
     0
176
     1
 90
       50
176
     1
 40
0.0
176
     1
 40
1.0
176
     1
 90
        0
176
     1
 62
    18
420
        0
176
     1
 90
       50
176
     1
 90
        3
176
     1
 62
     5
420
      255
176
     1
290
     0
176
     1
 90
       50
176
     1
 90
       50
176
     1
 90
       50
176
     1
290
     0
176
     1
 90
       50
176
     1
 62
   256
176
     0
 40
1.0
176
     0
 90
        2
176
     1
  1
strokes_ogs.tif
176
     1
290
     0
176
     1
 40
1.0
176
     1
 40
1.0
176
     1
  0
VISUALSTYLE
  5
92DA
102
{ACAD_REACTORS
330
92C6
102
}
330
92C6
100
AcDbVisualStyle
  2
Shades of Gray
 70
    23
177
     3
291
     0
 70
    58
 90
        2
176
     1
 90
        2
176
     1
 90
        3
176
     1
 90
        0
176
     1
 40
0.6
176
     1
 40
30.0
176
     1
 62
     7
420
 16777215
176
     1
 90
        2
176
     1
 90
        2
176
     1
 62
     7
176
     1
 62
     7
176
     1
 90
        1
176
     1
 90
        1
176
     1
 40
40.0
176
     1
 90
        8
176
     1
 62
     7
176
     1
 40
1.0
176
     1
 90
        1
176
     1
 90
        6
176
     1
 90
        2
176
     1
 62
     7
176
     1
 90
        3
176
     1
 90
        0
176
     1
 90
        0
176
     1
290
     0
176
     1
 90
        1
176
     1
 40
0.0
176
     1
 90
        0
176
     1
290
     0
176
     1
290
     1
176
     1
290
     1
176
     1
290
     0
176
     1
290
     0
176
     1
290
     0
176
     1
290
     0
176
     1
290
     0
176
     1
290
     0
176
     1
 90
       50
176
     1
 40
0.0
176
     1
 40
1.0
176
     1
 90
        0
176
     1
 62
    18
420
        0
176
     1
 90
       50
176
     1
 90
        3
176
     1
 62
     5
420
      255
176
     1
290
     0
176
     1
 90
       50
176
     1
 90
       50
176
     1
 90
       50
176
     1
290
     0
176
     1
 90
       50
176
     1
 62
   256
176
     0
 40
1.0
176
     0
 90
        2
176
     1
  1
strokes_ogs.tif
176
     1
290
     0
176
     1
 40
1.0
176
     1
 40
1.0
176
     1
  0
VISUALSTYLE
  5
92DB
102
{ACAD_REACTORS
330
92C6
102
}
330
92C6
100
AcDbVisualStyle
  2
Sketchy
 70
    24
177
     3
291
     0
 70
    58
 90
        1
176
     1
 90
        2
176
     1
 90
        2
176
     1
 90
        0
176
     1
 40
0.6
176
     1
 40
30.0
176
     1
 62
     7
420
 16777215
176
     1
 90
        2
176
     1
 90
        2
176
     1
 62
     7
176
     1
 62
     7
176
     1
 90
        1
176
     1
 90
        1
176
     1
 40
40.0
176
     1
 90
       11
176
     1
 62
     7
176
     1
 40
1.0
176
     1
 90
        1
176
     1
 90
        6
176
     1
 90
        2
176
     1
 62
     7
176
     1
 90
        6
176
     1
 90
        0
176
     1
 90
        0
176
     1
290
     0
176
     1
 90
        1
176
     1
 40
0.0
176
     1
 90
        0
176
     1
290
     0
176
     1
290
     1
176
     1
290
     1
176
     1
290
     0
176
     1
290
     0
176
     1
290
     0
176
     1
290
     0
176
     1
290
     0
176
     1
290
     0
176
     1
 90
       50
176
     1
 40
0.0
176
     1
 40
1.0
176
     1
 90
        0
176
     1
 62
    18
420
        0
176
     1
 90
       50
176
     1
 90
        3
176
     1
 62
     5
420
      255
176
     1
290
     0
176
     1
 90
       50
176
     1
 90
       50
176
     1
 90
       50
176
     1
290
     0
176
     1
 90
       50
176
     1
 62
   256
176
     0
 40
1.0
176
     0
 90
        2
176
     1
  1
strokes_ogs.tif
176
     1
290
     0
176
     1
 40
1.0
176
     1
 40
1.0
176
     1
  0
VISUALSTYLE
  5
92D3
102
{ACAD_REACTORS
330
92C6
102
}
330
92C6
100
AcDbVisualStyle
  2
Thicken
 70
    13
177
     3
291
     1
 70
    58
 90
        2
176
     1
 90
        2
176
     1
 90
        0
176
     1
 90
        0
176
     1
 40
0.6
176
     1
 40
30.0
176
     1
 62
     7
420
 16777215
176
     1
 90
        1
176
     1
 90
        4
176
     1
 62
     7
176
     1
 62
   257
176
     1
 90
        1
176
     1
 90
        1
176
     1
 40
1.0
176
     1
 90
       12
176
     1
 62
     7
176
     1
 40
1.0
176
     1
 90
        1
176
     1
 90
        6
176
     1
 90
        2
176
     1
 62
     7
176
     1
 90
        5
176
     1
 90
        0
176
     1
 90
        0
176
     1
290
     0
176
     1
 90
        1
176
     1
 40
0.0
176
     1
 90
        0
176
     1
290
     0
176
     1
290
     1
176
     1
290
     1
176
     1
290
     0
176
     1
290
     0
176
     1
290
     0
176
     1
290
     0
176
     1
290
     0
176
     1
290
     0
176
     1
 90
       50
176
     1
 40
0.0
176
     1
 40
1.0
176
     1
 90
        0
176
     1
 62
    18
420
        0
176
     1
 90
       50
176
     1
 90
        3
176
     1
 62
     5
420
      255
176
     1
290
     0
176
     1
 90
       50
176
     1
 90
       50
176
     1
 90
       50
176
     1
290
     0
176
     1
 90
       50
176
     1
 62
   256
176
     0
 40
1.0
176
     0
 90
        2
176
     1
  1
strokes_ogs.tif
176
     1
290
     0
176
     1
 40
1.0
176
     1
 40
1.0
176
     1
  0
VISUALSTYLE
  5
92CC
102
{ACAD_REACTORS
330
92C6
102
}
330
92C6
100
AcDbVisualStyle
  2
Wireframe
 70
     5
177
     3
291
     0
 70
    58
 90
        0
176
     1
 90
        2
176
     1
 90
        0
176
     1
 90
        0
176
     1
 40
0.6
176
     1
 40
30.0
176
     1
 62
     7
420
 16777215
176
     1
 90
        1
176
     1
 90
        4
176
     1
 62
     7
176
     1
 62
   257
176
     1
 90
        1
176
     1
 90
        1
176
     1
 40
1.0
176
     1
 90
        0
176
     1
 62
   257
176
     1
 40
1.0
176
     1
 90
        1
176
     1
 90
        6
176
     1
 90
        2
176
     1
 62
     7
176
     1
 90
        3
176
     1
 90
        0
176
     1
 90
        0
176
     1
290
     0
176
     1
 90
        1
176
     1
 40
0.0
176
     1
 90
        0
176
     1
290
     0
176
     1
290
     1
176
     1
290
     1
176
     1
290
     0
176
     1
290
     0
176
     1
290
     0
176
     1
290
     0
176
     1
290
     0
176
     1
290
     0
176
     1
 90
       50
176
     1
 40
0.0
176
     1
 40
1.0
176
     1
 90
        0
176
     1
 62
    18
420
        0
176
     1
 90
       50
176
     1
 90
        3
176
     1
 62
     5
420
      255
176
     1
290
     0
176
     1
 90
       50
176
     1
 90
       50
176
     1
 90
       50
176
     1
290
     0
176
     1
 90
       50
176
     1
 62
   256
176
     0
 40
1.0
176
     0
 90
        2
176
     1
  1
strokes_ogs.tif
176
     1
290
     0
176
     1
 40
1.0
176
     1
 40
1.0
176
     1
  0
VISUALSTYLE
  5
92DC
102
{ACAD_REACTORS
330
92C6
102
}
330
92C6
100
AcDbVisualStyle
  2
X-Ray
 70
    25
177
     3
291
     0
 70
    58
 90
        2
176
     1
 90
        2
176
     1
 90
        1
176
     1
 90
        1
176
     1
 40
0.5
176
     1
 40
30.0
176
     1
 62
     7
420
 16777215
176
     1
 90
        1
176
     1
 90
        0
176
     1
 62
     7
176
     1
 62
   257
176
     1
 90
        1
176
     1
 90
        1
176
     1
 40
1.0
176
     1
 90
        8
176
     1
 62
     7
176
     1
 40
1.0
176
     1
 90
        1
176
     1
 90
        6
176
     1
 90
        2
176
     1
 62
     7
176
     1
 90
        3
176
     1
 90
        0
176
     1
 90
        0
176
     1
290
     0
176
     1
 90
       13
176
     1
 40
0.0
176
     1
 90
        0
176
     1
290
     0
176
     1
290
     1
176
     1
290
     1
176
     1
290
     0
176
     1
290
     0
176
     1
290
     0
176
     1
290
     0
176
     1
290
     0
176
     1
290
     0
176
     1
 90
       50
176
     1
 40
0.0
176
     1
 40
1.0
176
     1
 90
        0
176
     1
 62
    18
420
        0
176
     1
 90
       50
176
     1
 90
        3
176
     1
 62
     5
420
      255
176
     1
290
     0
176
     1
 90
       50
176
     1
 90
       50
176
     1
 90
       50
176
     1
290
     0
176
     1
 90
       50
176
     1
 62
   256
176
     0
 40
1.0
176
     0
 90
        2
176
     1
  1
strokes_ogs.tif
176
     1
290
     0
176
     1
 40
1.0
176
     1
 40
1.0
176
     1
  0
DICTIONARYVAR
  5
9310
102
{ACAD_REACTORS
330
327F
102
}
330
327F
100
DictionaryVariables
280
     0
  1
1:1
  0
DICTIONARYVAR
  5
9312
102
{ACAD_REACTORS
330
327F
102
}
330
327F
100
DictionaryVariables
280
     0
  1
Standard
  0
DICTIONARYVAR
  5
9311
102
{ACAD_REACTORS
330
327F
102
}
330
327F
100
DictionaryVariables
280
     0
  1
Standard
  0
DICTIONARYVAR
  5
9313
102
{ACAD_REACTORS
330
327F
102
}
330
327F
100
DictionaryVariables
280
     0
  1
0
  0
DICTIONARYVAR
  5
90A6
102
{ACAD_REACTORS
330
90A5
102
}
330
90A5
100
DictionaryVariables
280
     0
  1
2.500000
  0
DICTIONARYVAR
  5
90A3
102
{ACAD_REACTORS
330
3784
102
}
330
3784
100
DictionaryVariables
280
     0
  1
0.261799
  0
DICTIONARYVAR
  5
90A1
102
{ACAD_REACTORS
330
3784
102
}
330
3784
100
DictionaryVariables
280
     0
  1
10.000000
  0
DICTIONARYVAR
  5
90A2
102
{ACAD_REACTORS
330
3784
102
}
330
3784
100
DictionaryVariables
280
     0
  1
6.000000
  0
DICTIONARYVAR
  5
90A4
102
{ACAD_REACTORS
330
3784
102
}
330
3784
100
DictionaryVariables
280
     0
  1
0
  0
DICTIONARY
  5
961D
330
930C
100
AcDbDictionary
280
     1
281
     1
  3
ACAD_ROUNDTRIP_2008_TABLESTYLE_CELLSTYLEMAP
360
961E
  0
CELLSTYLEMAP
  5
961E
102
{ACAD_REACTORS
330
961D
102
}
330
961D
100
AcDbCellStyleMap
 90
        3
300
CELLSTYLE
  1
TABLEFORMAT_BEGIN
 90
        5
170
     1
 91
        0
 92
    32768
 62
   257
 93
        1
300
CONTENTFORMAT
  1
CONTENTFORMAT_BEGIN
 90
        0
 91
        0
 92
        4
 93
        0
300

 40
0.0
140
1.0
 94
        5
 62
     0
340
11
144
6.0
309
CONTENTFORMAT_END
171
     1
301
MARGIN
  1
CELLMARGIN_BEGIN
 40
1.5
 40
1.5
 40
1.5
 40
1.5
 40
1.5
 40
1.5
309
CELLMARGIN_END
 94
        6
 95
        1
302
GRIDFORMAT
  1
GRIDFORMAT_BEGIN
 90
        0
 91
        1
 62
     0
 92
       -2
340
14
 93
        0
 40
0.045
309
GRIDFORMAT_END
 95
        2
302
GRIDFORMAT
  1
GRIDFORMAT_BEGIN
 90
        0
 91
        1
 62
     0
 92
       -2
340
14
 93
        0
 40
0.045
309
GRIDFORMAT_END
 95
        4
302
GRIDFORMAT
  1
GRIDFORMAT_BEGIN
 90
        0
 91
        1
 62
     0
 92
       -2
340
14
 93
        0
 40
0.045
309
GRIDFORMAT_END
 95
        8
302
GRIDFORMAT
  1
GRIDFORMAT_BEGIN
 90
        0
 91
        1
 62
     0
 92
       -2
340
14
 93
        0
 40
0.045
309
GRIDFORMAT_END
 95
       16
302
GRIDFORMAT
  1
GRIDFORMAT_BEGIN
 90
        0
 91
        1
 62
     0
 92
       -2
340
14
 93
        0
 40
0.045
309
GRIDFORMAT_END
 95
       32
302
GRIDFORMAT
  1
GRIDFORMAT_BEGIN
 90
        0
 91
        1
 62
     0
 92
       -2
340
14
 93
        0
 40
0.045
309
GRIDFORMAT_END
309
TABLEFORMAT_END
  1
CELLSTYLE_BEGIN
 90
        1
 91
        1
300
_TITLE
309
CELLSTYLE_END
300
CELLSTYLE
  1
TABLEFORMAT_BEGIN
 90
        5
170
     1
 91
        0
 92
        0
 62
   257
 93
        1
300
CONTENTFORMAT
  1
CONTENTFORMAT_BEGIN
 90
        0
 91
        0
 92
        4
 93
        0
300

 40
0.0
140
1.0
 94
        5
 62
     0
340
11
144
4.5
309
CONTENTFORMAT_END
171
     1
301
MARGIN
  1
CELLMARGIN_BEGIN
 40
1.5
 40
1.5
 40
1.5
 40
1.5
 40
1.5
 40
1.5
309
CELLMARGIN_END
 94
        6
 95
        1
302
GRIDFORMAT
  1
GRIDFORMAT_BEGIN
 90
        0
 91
        1
 62
     0
 92
       -2
340
14
 93
        0
 40
0.045
309
GRIDFORMAT_END
 95
        2
302
GRIDFORMAT
  1
GRIDFORMAT_BEGIN
 90
        0
 91
        1
 62
     0
 92
       -2
340
14
 93
        0
 40
0.045
309
GRIDFORMAT_END
 95
        4
302
GRIDFORMAT
  1
GRIDFORMAT_BEGIN
 90
        0
 91
        1
 62
     0
 92
       -2
340
14
 93
        0
 40
0.045
309
GRIDFORMAT_END
 95
        8
302
GRIDFORMAT
  1
GRIDFORMAT_BEGIN
 90
        0
 91
        1
 62
     0
 92
       -2
340
14
 93
        0
 40
0.045
309
GRIDFORMAT_END
 95
       16
302
GRIDFORMAT
  1
GRIDFORMAT_BEGIN
 90
        0
 91
        1
 62
     0
 92
       -2
340
14
 93
        0
 40
0.045
309
GRIDFORMAT_END
 95
       32
302
GRIDFORMAT
  1
GRIDFORMAT_BEGIN
 90
        0
 91
        1
 62
     0
 92
       -2
340
14
 93
        0
 40
0.045
309
GRIDFORMAT_END
309
TABLEFORMAT_END
  1
CELLSTYLE_BEGIN
 90
        2
 91
        1
300
_HEADER
309
CELLSTYLE_END
300
CELLSTYLE
  1
TABLEFORMAT_BEGIN
 90
        5
170
     1
 91
        0
 92
        0
 62
   257
 93
        1
300
CONTENTFORMAT
  1
CONTENTFORMAT_BEGIN
 90
        0
 91
        0
 92
        4
 93
        0
300

 40
0.0
140
1.0
 94
        2
 62
     0
340
11
144
4.5
309
CONTENTFORMAT_END
171
     1
301
MARGIN
  1
CELLMARGIN_BEGIN
 40
1.5
 40
1.5
 40
1.5
 40
1.5
 40
1.5
 40
1.5
309
CELLMARGIN_END
 94
        6
 95
        1
302
GRIDFORMAT
  1
GRIDFORMAT_BEGIN
 90
        0
 91
        1
 62
     0
 92
       -2
340
14
 93
        0
 40
0.045
309
GRIDFORMAT_END
 95
        2
302
GRIDFORMAT
  1
GRIDFORMAT_BEGIN
 90
        0
 91
        1
 62
     0
 92
       -2
340
14
 93
        0
 40
0.045
309
GRIDFORMAT_END
 95
        4
302
GRIDFORMAT
  1
GRIDFORMAT_BEGIN
 90
        0
 91
        1
 62
     0
 92
       -2
340
14
 93
        0
 40
0.045
309
GRIDFORMAT_END
 95
        8
302
GRIDFORMAT
  1
GRIDFORMAT_BEGIN
 90
        0
 91
        1
 62
     0
 92
       -2
340
14
 93
        0
 40
0.045
309
GRIDFORMAT_END
 95
       16
302
GRIDFORMAT
  1
GRIDFORMAT_BEGIN
 90
        0
 91
        1
 62
     0
 92
       -2
340
14
 93
        0
 40
0.045
309
GRIDFORMAT_END
 95
       32
302
GRIDFORMAT
  1
GRIDFORMAT_BEGIN
 90
        0
 91
        1
 62
     0
 92
       -2
340
14
 93
        0
 40
0.045
309
GRIDFORMAT_END
309
TABLEFORMAT_END
  1
CELLSTYLE_BEGIN
 90
        3
 91
        2
300
_DATA
309
CELLSTYLE_END
  0
ENDSEC
  0
EOF
